#TITLE:Tokyo Mannequin;
#SUBTITLE:;
#ARTIST:Pinocchio-P feat. Miku;
#TITLETRANSLIT:;
#SUBTITLETRANSLIT:;
#ARTISTTRANSLIT:;
#GENRE:;
#CREDIT:;
#BANNER:Tokyo Mannequin-banner.png;
#BACKGROUND:Tokyo Mannequin-bg.png;
#LYRICSPATH:;
#CDTITLE:;
#MUSIC:Tokyo Mannequin.ogg;
#OFFSET:-1.586002;
#SAMPLESTART:91.274506;
#SAMPLELENGTH:12.000000;
#SELECTABLE:YES;
#BPMS:0.000000=150.000000
,51.000000=159.999985
,53.000000=150.000031
,54.000000=159.999634
,54.500000=149.999603
,55.000000=149.999695
,56.000000=160.000000
,59.000000=155.999924
,60.000000=160.000000
;
#STOPS:
;
#BGCHANGES:;
#KEYSOUNDS:;
#ATTACKS:;

//---------------dance-single - ----------------
#NOTES:
     dance-single:
     :
     Hard:
     8:
     0.552388,0.710426,0.320004,0.426672,0.016667,580.000000,532.000000,48.000000,64.000000,0.000000,0.000000,0.552388,0.710426,0.320004,0.426672,0.016667,580.000000,532.000000,48.000000,64.000000,0.000000,0.000000:
// measure 0
0000
0000
0000
0000
,  // measure 1
0000
0000
0000
0000
,  // measure 2
0000
0000
0000
0000
,  // measure 3
0000
0000
0000
0000
,  // measure 4
0000
0000
0000
0000
,  // measure 5
0000
0000
0000
0000
,  // measure 6
0000
0000
0000
0000
0000
2000
3020
0230
,  // measure 7
0302
0003
2000
3020
0000
0230
0320
2030
,  // measure 8
3002
0000
0023
0230
0000
0000
1300
0000
,  // measure 9
0002
0000
0203
0320
0000
0000
0130
0000
,  // measure 10
0002
0000
0023
0230
0000
2300
3020
0230
,  // measure 11
0302
0000
0203
0320
0000
2030
3020
0230
,  // measure 12
0302
0000
0023
0230
0000
0000
1300
0000
,  // measure 13
0002
0000
0023
0230
0000
2300
3200
0320
,  // measure 14
0032
1000
1000
1003
,  // measure 15
1000
0000
1010
0000
1000
0010
0001
0010
,  // measure 16
2000
0100
3001
1001
,  // measure 17
0002
0100
1003
1001
,  // measure 18
2000
0000
0010
0000
3001
1000
0100
1000
,  // measure 19
0001
0000
0011
0000
0001
0100
1000
0100
,  // measure 20
0002
0010
1003
1001
,  // measure 21
2000
0000
0010
0000
3001
1000
0100
1000
,  // measure 22
0002
1000
1000
1003
,  // measure 23
1000
0100
1000
0100
0010
0001
0010
0001
,  // measure 24
1000
0100
0010
0001
1000
0000
1001
0000
,  // measure 25
0001
0000
0100
0000
0001
0000
0100
0000
0010
0000
0000
1000
0010
0000
1000
0000
,  // measure 26
0010
0100
0001
1000
0001
0000
1001
0000
,  // measure 27
1000
0100
0010
0100
1000
0100
0010
0100
,  // measure 28
1000
0100
0010
0001
1000
0000
1001
0000
,  // measure 29
0001
0100
0010
0100
0001
0100
0010
0100
,  // measure 30
0001
0100
0010
1000
0001
0000
1001
0000
,  // measure 31
1000
0100
1000
0100
0010
0001
0010
0001
,  // measure 32
1000
0100
0010
0001
1000
0001
1001
1000
,  // measure 33
0001
0100
0001
0100
0010
1000
0010
1000
,  // measure 34
0001
0100
0010
1000
0001
1000
1001
0001
,  // measure 35
1000
0100
0001
0100
1000
0100
0001
0100
,  // measure 36
1000
0100
0010
0001
1000
0000
1001
0000
,  // measure 37
0001
0100
1000
0100
0010
0100
1000
0100
,  // measure 38
0001
1000
0001
0100
0000
0001
1000
0100
,  // measure 39
1100
0000
0100
0010
0001
0000
1000
0000
,  // measure 40
0010
0200
0000
0001
0000
0301
0000
0000
,  // measure 41
0101
0000
0100
0010
1000
0000
0001
0000
,  // measure 42
0010
0200
0000
1000
0000
1300
0000
0000
,  // measure 43
1001
0000
1000
0010
0100
0000
0001
0000
,  // measure 44
1000
0200
0000
0010
0000
0310
0000
0000
,  // measure 45
0001
0100
0010
0000
1010
0000
0101
0000
,  // measure 46
1000
0100
0010
0000
0100
1000
0001
0100
,  // measure 47
0101
0000
0000
0000
0100
0000
0001
0000
0010
0000
0000
0010
0100
0000
0000
0000
,  // measure 48
1000
0020
0000
0100
0000
0130
0000
0000
,  // measure 49
1010
0000
0010
1000
0100
0000
0010
0000
,  // measure 50
0001
0200
0000
0010
0000
0310
0000
0000
,  // measure 51
1000
0100
1000
0100
0010
0001
0010
0001
,  // measure 52
1000
0010
1000
0010
0100
0001
0100
0001
,  // measure 53
1000
1000
0000
0001
0001
0000
0010
0010
,  // measure 54
0000
0100
0100
0000
1000
0100
0010
0001
,  // measure 55
0002
0000
0000
0000
,  // measure 56
0000
0000
0000
0000
0000
0000
0000
0000
0003
0000
0000
0000
0000
0000
0001
0100
,  // measure 57
1000
0000
0000
0000
,  // measure 58
0200
0300
0200
0300
1001
1001
0000
0001
,  // measure 59
0011
1000
1100
0001
0101
1000
1010
0010
,  // measure 60
0001
1000
0100
0001
1000
0100
0001
1000
,  // measure 61
0010
0100
1001
0000
0010
0100
1001
0000
,  // measure 62
1020
0000
0130
0001
0010
0000
0010
0100
,  // measure 63
2000
0000
3010
0100
0001
0000
1001
0000
,  // measure 64
0002
0000
0013
0100
1000
0000
0001
0100
,  // measure 65
0010
1000
0010
1000
0100
0000
0010
0001
,  // measure 66
0011
0011
0000
1002
0000
0103
0010
1000
,  // measure 67
1010
0001
0101
1000
1100
0001
0011
0010
,  // measure 68
1000
0001
0100
1000
0001
0100
1000
0001
,  // measure 69
0010
0100
1001
0000
0100
0010
1001
0000
,  // measure 70
0021
0000
0130
1000
0010
0000
0100
0001
,  // measure 71
2000
0000
3100
0010
0001
0000
1001
0000
,  // measure 72
0002
0000
0103
0010
1000
0001
1001
1000
,  // measure 73
0100
0010
0100
0010
0002
0000
1003
1000
,  // measure 74
0020
0000
0130
0001
1000
0000
0000
0000
,  // measure 75
1010
0000
0000
0000
0101
0000
0000
0000
1100
0000
0000
0100
1000
0000
0001
0000
,  // measure 76
0200
0000
0000
0310
1000
0000
1000
0000
0002
0000
0000
0000
0013
0000
0100
0000
,  // measure 77
0110
0100
0010
0100
,  // measure 78
1000
0001
1000
0001
,  // measure 79
0100
0010
1000
0100
0010
1000
0010
0100
,  // measure 80
1000
0000
0001
0100
0010
1000
0100
0000
,  // measure 81
0110
0010
0100
0010
,  // measure 82
0001
1000
0001
1000
,  // measure 83
0100
0010
0001
0100
0010
0001
0010
0100
,  // measure 84
0001
0000
1000
0100
0010
0001
0100
0000
,  // measure 85
0201
1000
0001
1000
,  // measure 86
0010
0001
0010
0301
,  // measure 87
1000
0010
0100
1000
0100
0010
1000
0100
,  // measure 88
0010
0000
0001
0100
0010
1000
0001
0000
,  // measure 89
1200
0001
1000
0001
,  // measure 90
0010
1000
0010
1300
,  // measure 91
0001
0010
0100
0001
0100
0010
0001
0010
,  // measure 92
0100
0000
1000
0010
0100
0001
1000
0100
,  // measure 93
1000
0010
1000
0010
0100
0010
0100
0010
,  // measure 94
0100
0001
0100
0001
1000
0001
1000
0001
,  // measure 95
0010
0001
0010
0001
0010
0100
0010
0100
,  // measure 96
1000
0100
1000
0100
1000
0001
1000
0001
;

//---------------dance-single - ----------------
#NOTES:
     dance-single:
     :
     Medium:
     6:
     0.434292,0.581258,0.080001,0.320004,0.000000,456.000000,444.000000,12.000000,48.000000,0.000000,0.000000,0.434292,0.581258,0.080001,0.320004,0.000000,456.000000,444.000000,12.000000,48.000000,0.000000,0.000000:
0000
0000
0000
0000
,
0000
0000
0000
0000
,
0000
0000
0000
0000
,
0000
0000
0000
0000
,
0000
0000
0000
0000
,
0000
0000
0000
0000
,
0000
0000
0000
0000
0000
0001
1000
0001
,
1000
0000
1000
0010
0000
0010
0100
0010
,
1000
0000
1000
0001
0000
0000
1000
0000
,
0001
0000
0010
0100
0000
0000
0010
0000
,
0001
0000
1000
0001
0000
0000
1000
0000
,
0001
0000
1000
0010
0000
0010
0100
0001
,
1000
0000
1000
0100
0000
0000
0010
0000
,
0100
0000
1000
0001
0000
0001
1000
0010
,
0200
0000
0000
0300
,
0002
0000
0010
0000
1003
0100
0010
0001
,
2000
0010
3001
1000
,
0002
0010
1003
0001
,
2000
0010
3001
1000
,
0002
0000
0100
0000
1003
0010
0100
0001
,
2000
0100
3001
1000
,
0002
0000
0010
0000
1003
0100
0010
0001
,
2000
0000
0000
3000
,
0001
0100
0001
0000
1000
0010
1000
0000
,
0001
0100
0010
1000
0002
0000
1003
0000
,
1000
0100
1000
0000
0001
0010
0001
0000
,
1000
0100
0010
0001
2000
0000
3001
0000
,
0001
0100
0010
0000
0010
0100
0001
0000
,
0001
0100
0010
1000
0002
0000
1003
0000
,
1000
0100
0010
0000
0010
0100
1000
0000
,
1000
0100
0010
0001
2000
0000
3001
0000
,
0001
0100
0010
0000
0100
0010
1000
0000
,
0001
0100
0010
1000
0002
0000
1003
0000
,
1000
0100
0010
0000
0100
0010
0001
0000
,
1000
0100
0010
0001
2000
0000
3001
0000
,
0001
0100
0010
0000
0010
1000
0001
0000
,
0100
0010
1000
0001
0200
0000
0310
0000
,
1000
0100
0010
0000
0010
0001
1000
0000
,
0100
0010
0001
1000
0200
0000
0310
0000
,
1002
0000
0103
0000
,
0020
1000
0000
1000
0000
1030
0000
0000
,
2001
0000
3100
0000
,
0020
0001
0000
0001
0000
0031
0000
0000
,
2002
3003
1000
0001
,
0020
0100
0000
0100
0000
0130
0000
0000
,
1000
0001
1000
0000
0010
0000
0010
0000
,
1000
0001
1000
0000
0100
0000
0100
0000
,
2001
0000
3100
0000
,
0020
0001
0000
0100
0000
0130
0000
0000
,
1002
0000
0103
0000
,
0020
1000
0000
0100
0000
0130
0000
0000
,
0001
0010
0001
0000
1000
0100
1000
0000
,
0001
0100
0010
1000
0002
0000
1003
0000
,
0010
0100
0000
0100
0010
0000
0010
0100
,
0000
0100
0010
0000
1000
0001
1000
0010
,
0200
0000
0000
0000
,
0000
0000
0300
0000
,
0001
0000
0000
0000
,
1000
0000
1000
0000
0001
1001
0000
0000
,
1000
0100
0010
0100
1000
0100
0001
0100
,
1000
0010
0100
0001
1000
0100
0010
0001
,
1000
0010
0110
0000
0001
0010
0110
0000
,
1002
0000
0013
0100
1000
0000
1000
0100
,
0020
0000
0130
1000
0001
0000
0100
0000
,
0020
0000
1030
0001
0010
0000
0100
0000
,
1000
0010
1000
0010
0100
0000
0001
1000
,
0100
0100
0000
0010
0000
0100
0100
1000
,
0001
0100
0010
0100
0001
0100
1000
0100
,
0010
1000
0001
0100
0010
1000
0001
0100
,
0001
0010
0110
0000
1000
0010
0110
0000
,
2001
0000
3010
0100
0001
0000
0001
0100
,
0020
0000
1030
0001
0010
0000
0100
0000
,
2000
0000
3001
0100
0010
1000
0010
0100
,
0001
0010
0001
0010
0100
0000
1000
0001
,
2000
0000
0000
3010
0100
0000
0000
0000
,
0002
0023
0230
2300
,
3002
0203
0320
0030
,
1000
1000
0100
0100
,
0010
0010
0001
0001
,
1000
0010
1000
0010
0100
0000
0001
0000
,
1000
0000
0100
0000
0010
0000
0001
1000
,
0001
0001
0100
0100
,
0010
0010
1000
1000
,
0001
0010
0001
0010
0100
0000
1000
0000
,
0001
0000
0100
0000
0010
0000
1000
0001
,
1000
1000
0001
0001
,
0010
0010
0100
0100
,
1000
0001
0100
0010
1000
0000
0001
0000
,
0100
0100
0010
0010
,
1000
0100
0010
0001
,
1000
0100
0010
0001
,
1000
0010
1000
0010
0100
0000
0001
0000
,
0020
0130
2000
3001
,
0002
0000
0010
0000
1003
0100
1000
0100
,
2000
0000
0010
0000
3001
0100
0001
0100
,
0010
1000
0100
0010
,
0001
0000
0010
0000
0100
1000
0001
0010
;

//---------------dance-single - ----------------
#NOTES:
     dance-single:
     :
     Easy:
     4:
     0.301909,0.355213,0.053334,0.153335,0.000000,317.000000,309.000000,8.000000,23.000000,0.000000,0.000000,0.301909,0.355213,0.053334,0.153335,0.000000,317.000000,309.000000,8.000000,23.000000,0.000000,0.000000:
0000
0000
0000
0000
,
0000
0000
0000
0000
,
0000
0000
0000
0000
,
0000
0000
0000
0000
,
0000
0000
0000
0000
,
0000
0000
0000
0000
,
0000
0000
0000
0000
,
0001
0000
0001
0000
,
1000
0000
1000
0000
,
0010
0000
0100
0000
,
0001
0000
1000
0000
,
0001
0000
0001
0000
,
0010
0000
0010
0000
,
0100
0000
0100
0000
,
2000
0000
0000
3000
,
0001
0100
0010
0010
,
1000
0010
0200
0301
,
1000
0100
0020
0031
,
1000
0010
0200
0301
,
1000
1000
0100
0010
,
0001
1000
0020
0130
,
0001
1000
0200
0310
,
0001
0001
0001
0001
,
1000
0010
0100
0100
,
0001
0100
0010
0110
,
1000
0100
0010
0010
,
0100
1000
0100
0110
,
0001
0100
0001
0100
,
0010
1000
0100
0110
,
0001
1000
0001
1000
,
0100
0010
0100
0110
,
1000
0001
1000
0001
,
0100
0010
0100
0110
,
0001
1000
0001
1000
,
0100
0010
0100
0110
,
1000
0001
0100
0010
,
1000
0001
0100
0101
,
1000
0100
0010
0001
,
1000
1000
1000
0000
,
0002
0000
0103
0000
,
0010
0010
0010
0000
,
2000
0000
3100
0000
,
0010
0010
0010
0000
,
0002
0000
0103
0000
,
0010
0010
0010
0000
,
1000
0100
0001
0000
,
0001
0100
1000
0000
,
0002
0100
0103
0000
,
0010
1000
0100
0000
,
2000
0010
3010
0000
,
0100
0001
0010
0000
,
0001
0100
0010
1000
,
0001
0100
0001
0100
,
0010
0000
1000
0000
,
0100
0000
0010
0010
,
0200
0000
0000
0000
,
0000
0000
0300
0000
,
0100
0000
0000
0000
,
1000
1000
2002
3003
,
1000
1000
1000
1000
,
0001
0010
0100
1000
,
0001
1000
0001
1000
,
0002
1000
2003
0001
,
3020
0000
0100
0100
,
2030
0000
0001
0001
,
3010
0100
0001
0100
,
0010
0010
2000
3000
,
0001
0001
0001
0001
,
0001
0010
0100
1000
,
0001
0100
0010
0100
,
0001
0010
0100
1000
,
0001
0100
0010
1000
,
0001
0010
0100
1000
,
0001
0001
0100
0100
,
0010
1000
0200
0300
,
1000
0010
0100
0100
,
0010
1000
0002
0003
,
1000
1000
1000
1000
,
0100
0100
0100
0100
,
0010
0001
1000
0100
,
1000
0001
0100
0010
,
1000
1000
1000
1000
,
0001
0001
0001
0001
,
0010
0100
1000
0001
,
1000
0010
0100
0010
,
1000
1000
1000
1000
,
0100
0100
0100
0100
,
0010
0001
1000
0001
,
0010
0100
1000
0001
,
0100
0100
0100
0100
,
0010
0010
0010
0010
,
1000
0001
1000
0001
,
0020
0130
0200
0310
,
0001
0001
0100
0100
,
0010
0010
1000
1000
,
0001
0001
0010
0010
,
0100
0000
0100
0000
1000
0000
1000
1000
;
