#TITLE:The Rock City Boy;
#SUBTITLE:;
#ARTIST:JAMIL;
#TITLETRANSLIT:;
#SUBTITLETRANSLIT:;
#ARTISTTRANSLIT:;
#GENRE:;
#CREDIT:;
#BANNER:[Mid Speed] - The Rock City Boy.png;
#BACKGROUND:[Mid Speed] - The Rock City Boy-bg.png;
#LYRICSPATH:;
#CDTITLE:cdtitle.png;
#MUSIC:[Mid Speed] - The Rock City Boy.ogg;
#OFFSET:-0.005000;
#SAMPLESTART:17.245001;
#SAMPLELENGTH:12.000000;
#LASTBEATHINT:301.986694;
#SELECTABLE:YES;
#BPMS:0.000000=160.000000
;
#STOPS:197.500000=0.750000
;
#BGCHANGES:;
#KEYSOUNDS:;
#ATTACKS:;

//---------------dance-single - ----------------
#NOTES:
     dance-single:
     :
     Beginner:
     3:
     0.196222,0.297239,0.078739,0.113734,0.000000,157.000000,148.000000,9.000000,13.000000,0.000000,0.000000,0.196222,0.297239,0.078739,0.113734,0.000000,157.000000,148.000000,9.000000,13.000000,0.000000,0.000000:
0000
0000
0000
0000
,
0000
0000
0000
0000
,
0000
0000
0000
0000
,
0000
0000
0000
0000
,
0100
0000
0100
0000
,
0001
0000
0001
0000
,
0010
0000
0010
0000
,
0100
0000
0100
0000
,
1000
0000
1000
0000
,
0010
0000
0010
0000
,
1000
0000
0001
0000
,
1001
0000
0010
0010
,
0010
0000
1000
0000
,
0001
0000
0100
0100
,
0100
0000
0001
0000
,
1000
0000
0001
0001
,
0001
0000
0010
0000
,
0100
0000
1000
1000
,
1000
0000
0100
0000
,
0010
0000
0000
0000
,
0001
0000
0001
0000
,
0100
0000
0010
0000
,
1000
0000
1000
0000
,
0010
0000
0100
0000
,
0010
0000
0010
0000
,
1000
0000
0001
0000
,
0100
0000
0100
0000
,
0001
0000
1000
0000
,
0100
0000
1000
0000
,
0001
0000
0010
0000
,
0001
0000
0100
0000
,
0010
0000
1000
0000
,
0001
0000
0010
0000
,
1000
0000
0010
0000
,
0001
0000
0000
2002
,
0000
0000
3003
0000
,
1000
0000
0000
2002
,
0000
0000
3003
0000
,
0020
0000
1000
0000
,
0130
0000
0001
0000
,
0020
0000
0001
0000
,
0130
0000
1000
0000
,
0200
0000
1000
0000
,
0310
0000
0001
0000
,
0200
0000
0001
0000
,
0320
0000
0000
0030
,
1000
1000
1000
0000
,
0001
0001
0001
0000
,
0010
0010
0010
0010
,
0000
0000
1001
0000
,
0001
0000
0100
0000
,
0010
0000
0110
0000
,
0010
0000
1000
0000
,
0100
0000
1000
0000
,
1000
0000
0001
0000
,
0001
0000
0100
0000
,
0000
2002
0000
0000
,
3003
0000
0001
0000
,
0100
0000
1000
0000
,
0100
0000
0001
0000
,
0010
0000
1000
0000
,
0010
0000
0001
0000
,
1000
0000
1000
0000
,
0001
0000
0010
0000
,
0100
0000
0100
0000
,
0010
0000
0001
0001
,
0001
0000
1000
1000
,
1000
0000
0010
0010
,
0010
0000
0100
0100
,
0100
0000
0001
0001
,
0010
0000
0100
0100
,
1000
0000
1001
0000
,
0110
0000
0100
0100
,
0100
0100
0100
0000
,
0000
2002
0000
0000
,
0000
0000
3003
0000
;

//---------------dance-single - ----------------
#NOTES:
     dance-single:
     :
     Hard:
     9:
     0.658656,0.759611,0.551171,0.218719,0.161852,527.000000,464.000000,63.000000,25.000000,0.000000,0.000000,0.658656,0.759611,0.551171,0.218719,0.161852,527.000000,464.000000,63.000000,25.000000,0.000000,0.000000:
0000
0000
0000
0000
,
0000
0000
0000
0000
,
0000
0000
0000
0000
,
0000
0000
0000
0000
,
0100
0001
0010
0100
1000
0100
0000
1000
,
0000
1000
0000
0001
0000
0001
0000
1000
,
1000
0010
0100
0001
0010
0001
0000
0100
,
1000
0100
0000
0010
0001
0010
0000
0100
,
0001
0100
0001
0000
1000
0100
0000
0100
,
0010
0100
1000
0000
1001
0000
0100
0001
,
0010
1000
0010
0001
0100
1000
0100
0010
,
0000
0110
0000
0000
0000
0000
2010
3001
,
0100
0000
0110
0000
0010
1000
0000
0001
,
0000
0001
0000
0100
0001
0010
0100
1000
,
0100
0000
0110
0000
0010
0001
0000
1000
,
0000
0000
1000
0000
0000
0000
0100
0000
1000
0001
1000
0000
1001
0000
0000
0000
,
0001
0000
1001
0000
1000
0100
0000
0010
,
0000
0010
0000
0001
0100
0010
1000
0010
,
1000
0000
1001
0000
0001
0100
0000
0110
,
0000
0000
1001
0000
0000
0000
0000
0000
1000
0000
0010
0100
0001
0000
1000
0000
,
1010
0000
0011
0000
0001
0010
0001
0100
,
1000
0100
0001
0100
1000
0100
0010
0000
,
1000
0100
1000
0100
0010
0001
0010
0002
,
0000
0103
0010
2000
0000
3100
0010
0000
,
0110
0000
1100
0000
0101
0000
0010
2000
,
0000
3001
0100
0002
0000
1003
0100
0010
,
0001
0000
0001
0001
1000
1000
0010
0010
,
0000
1000
0010
0001
0010
1000
0001
1000
,
1100
0000
0101
0000
1001
0000
1000
0010
,
0001
0010
1000
0100
0001
0100
0010
0000
,
0001
0100
0001
0100
0010
1000
0010
2000
,
0000
3010
0100
0002
0000
0013
0100
0000
,
0110
0000
0011
0000
1100
0000
0010
0002
,
0000
0013
0100
2000
0000
3010
0100
0001
,
0011
0000
0100
1010
0000
0100
1001
0000
,
0000
0000
1000
0000
0010
0000
0001
0000
0010
0000
1000
0001
1000
0001
1000
0000
,
1100
0000
0010
0101
0000
0010
1001
0000
,
0000
0000
0001
0000
0010
0000
1000
0000
0010
0001
0010
0001
1000
0100
1000
0100
,
0020
0000
0032
0000
1003
0001
0000
2000
,
0000
3200
0000
1300
0001
0010
0001
0100
,
0020
0000
2030
0000
3001
1000
0000
0002
,
0000
0103
0000
0001
1000
0010
1000
0100
,
0011
0000
1100
0000
1000
0001
0000
0101
,
0000
0101
0000
0100
0010
1000
1001
0000
,
1010
0000
0101
0000
0001
1000
0000
0100
,
1001
0000
0110
0000
0110
0000
1001
0001
,
1000
0100
0001
0100
1000
0000
0001
1000
,
0001
0010
1000
0010
0001
0000
1000
0001
,
0100
1000
0001
0010
1000
0000
0001
0011
,
0000
1010
0000
1001
0011
0000
0011
0000
,
0010
0001
0100
0001
1000
0100
0001
0100
,
1000
0001
0010
0000
0100
0000
0100
1000
,
0010
0100
0001
1100
0000
0100
1000
0101
,
0000
0100
0010
0000
1010
0000
1010
0000
,
0110
0000
0010
2000
0000
3100
0010
0002
,
0000
0003
0010
0100
0210
0000
1300
1002
,
0000
0103
0110
0000
0000
0100
0100
0001
,
0010
0000
0010
0000
0100
0000
1000
0000
1010
0000
0000
0000
0101
0000
0000
0001
,
0010
0100
1000
0000
0011
0000
1100
1000
,
0010
0000
0100
0000
0001
0000
0000
0000
1000
0000
0100
0000
0010
0100
0010
0000
,
0001
0000
0100
0000
0010
0100
0010
0000
1000
0000
0100
0000
0001
0000
0100
0000
,
1000
0000
0001
0000
2001
0000
0000
0000
3010
0000
1000
0100
0010
0000
0001
0000
,
0100
0000
0001
0010
0100
0000
0000
0000
1000
0000
0010
0000
0001
0000
0010
0000
,
0100
0010
0100
0010
0100
0000
0001
0000
0010
0000
0001
1000
0100
0000
1000
0000
,
0010
0000
1000
0001
0100
0000
0001
0000
1000
0000
0100
0010
0001
0000
0010
0100
,
0000
1000
0001
1000
0001
0000
0000
0000
0110
0000
0000
0000
0110
0000
0000
0000
,
0001
0000
0010
0000
0100
0000
1000
0000
0000
0001
0000
0000
0010
0000
0000
0100
0000
0000
0010
0000
0000
0100
0000
0000
,
1000
0000
0010
0000
0100
0000
0001
0000
0000
1000
0000
0000
0001
0000
0000
0010
0000
0000
0100
0000
0000
0000
0000
0000
,
1000
0000
0100
0000
0010
0000
0000
0000
0001
0100
0010
1000
0001
0000
1000
0000
,
0010
0000
0100
0000
0001
0000
1000
0000
0100
1000
0100
1000
0100
0000
0010
0000
,
0001
0000
0010
0001
0010
0000
0100
0000
1000
0010
1000
0010
1000
0000
0001
0000
,
0100
0000
0001
0100
0001
0000
0100
0000
0010
0000
1000
0000
1100
0000
0000
0000
,
0010
0000
0001
0000
0101
0000
0000
0000
0001
1000
0001
1000
0001
0010
0100
0000
,
0010
0000
0001
0100
0010
0000
0000
0000
0210
0000
0000
0000
0301
0000
2001
0000
,
0000
3100
0220
0000
0000
0000
0000
0000
,
0000
0000
0330
0000
;

//---------------dance-single - ----------------
#NOTES:
     dance-single:
     :
     Easy:
     5:
     0.364948,0.462372,0.419940,0.148729,0.000000,292.000000,244.000000,48.000000,17.000000,0.000000,0.000000,0.364948,0.462372,0.419940,0.148729,0.000000,292.000000,244.000000,48.000000,17.000000,0.000000,0.000000:
0000
0000
0000
0000
,
0000
0000
0000
0000
,
0000
0000
0000
0000
,
0000
0000
0000
0000
,
0100
0010
0010
0000
,
1000
0001
0001
0000
,
0010
0100
0100
0000
,
1000
0000
0001
0000
,
0001
0010
0100
0000
,
1000
0100
0010
0000
,
0001
0001
1000
1000
,
0010
0010
0000
0110
,
0100
0010
0010
1000
,
0001
0001
1000
2001
,
3100
0010
0010
0001
,
1000
1000
0001
2001
,
3001
0010
0010
0100
,
1000
1000
0010
0120
,
1030
0010
0100
0001
,
1001
0000
0000
0010
,
1000
1000
0010
0010
,
0100
0100
0001
0001
,
1000
0100
0001
0100
,
0010
0010
0020
0030
,
1001
0001
0001
0010
,
0100
0100
2000
0000
,
3001
0010
1000
0010
,
0001
0011
1010
1100
,
1000
1000
0010
0010
,
0100
0100
0001
0001
,
1000
0010
0001
0010
,
0100
0100
0200
0300
,
1001
1000
1000
0010
,
0100
0100
0002
0003
,
1100
0000
0000
0101
0000
0000
0220
0000
,
0000
0000
0000
0330
,
1010
0000
0000
0011
0000
0000
2002
0000
,
0000
0000
0000
3003
,
0010
0001
1000
0000
,
0100
0100
1000
1000
,
0010
1000
0001
0000
,
0100
0100
0001
0001
,
0011
1010
1000
0000
,
0001
0100
1000
0100
,
0101
1100
0001
0000
,
1001
0110
1001
0110
,
0001
1000
0100
0000
,
1000
0001
0100
0000
,
0001
0000
1000
0000
0010
0000
0000
0100
,
0000
0100
0000
1001
0010
0000
0010
0000
,
0001
0001
1000
1000
,
0100
0100
0010
0001
,
0100
0001
1000
1000
,
2000
3000
0110
0010
,
0010
1000
0100
0100
,
0020
0000
0030
0000
0011
0000
0000
1100
,
0000
2002
0000
0000
,
0000
3003
1000
0100
,
0001
0100
1000
0010
,
0001
0010
1000
1000
,
0001
0001
0010
0010
,
0100
0100
1000
0010
,
0100
0100
0001
0100
,
0010
0010
1000
0101
,
0001
1100
1000
0010
,
0100
0001
0011
0011
,
1010
1010
1000
0100
,
0010
0001
0101
0101
,
1100
1100
0001
0010
,
0100
1000
1001
0110
,
0110
1001
0010
1000
,
0001
0100
0001
1010
,
1000
0011
0010
0001
,
0100
0000
0010
0000
1010
0000
0000
0101
,
0000
2002
0000
0000
,
0000
0000
3003
0000
;

//---------------dance-single - ----------------
#NOTES:
     dance-single:
     :
     Medium:
     7:
     0.522426,0.594478,0.306206,0.061241,0.000000,418.000000,383.000000,35.000000,7.000000,0.000000,0.000000,0.522426,0.594478,0.306206,0.061241,0.000000,418.000000,383.000000,35.000000,7.000000,0.000000,0.000000:
// measure 0
0000
0000
0000
0000
,  // measure 1
0000
0000
0000
0000
,  // measure 2
0000
0000
0000
0000
,  // measure 3
0000
0000
0000
0000
,  // measure 4
1000
0100
1000
0100
0010
0000
0000
0001
,  // measure 5
0000
0001
0000
1000
0000
1000
0000
0000
,  // measure 6
0001
0100
0001
0100
0010
0000
0000
1000
,  // measure 7
0000
1000
0000
0001
0000
0001
0000
0000
,  // measure 8
0010
0001
0010
0000
0100
0000
0000
0100
,  // measure 9
1000
0100
1000
0000
0001
0000
0100
0000
,  // measure 10
0010
1000
0010
0000
0100
0000
0100
0001
,  // measure 11
0000
1001
0000
0000
0100
0000
1000
0000
,  // measure 12
0020
0000
1000
0000
1000
0100
0000
0130
,  // measure 13
0000
0001
0000
1000
0001
0000
0001
1000
,  // measure 14
0200
0000
0001
0000
0001
0010
0000
0310
,  // measure 15
0000
0100
0000
1000
0010
0100
1001
0000
,  // measure 16
0002
0000
0010
0000
0010
1000
0000
1003
,  // measure 17
0000
0100
0000
1000
0010
0000
0100
0001
,  // measure 18
2000
0000
0010
0000
0010
0100
0000
3100
,  // measure 19
0000
0110
0000
0000
0000
0100
1000
0001
,  // measure 20
0010
0000
0010
0000
0010
0001
0100
0000
,  // measure 21
0001
1000
0001
1000
0010
0100
0001
0000
,  // measure 22
0000
1000
0100
0000
0001
0100
0000
0010
,  // measure 23
0000
0001
0010
0100
0000
1000
0010
0000
,  // measure 24
0100
0000
0100
0000
0100
0000
0010
1000
,  // measure 25
0000
1000
0001
1000
0001
0100
0010
1000
,  // measure 26
0001
0000
0000
0010
1000
0000
0010
0001
,  // measure 27
0000
1000
0100
0010
0001
1000
0001
1000
,  // measure 28
0001
0000
0001
0000
0001
0000
1000
0001
,  // measure 29
0100
0010
0100
0010
1000
0001
0010
0000
,  // measure 30
0000
0001
0100
0000
1000
0100
0000
0010
,  // measure 31
0000
1000
0010
0100
0000
0001
0010
0000
,  // measure 32
1000
0000
1000
0000
1000
0000
0010
0001
,  // measure 33
0000
1000
0100
0010
0001
1000
0010
0100
,  // measure 34
0101
0000
0000
1001
0000
0000
1010
0000
,  // measure 35
0000
0000
0010
0100
0010
0100
0010
0000
,  // measure 36
1100
0000
0000
0011
0000
0000
1001
0000
,  // measure 37
0000
0000
1000
0001
1000
0001
1000
0000
,  // measure 38
0010
0000
1000
0000
0001
1000
0000
0001
,  // measure 39
0000
0100
0000
0001
1000
0010
0100
0001
,  // measure 40
0010
0000
0001
0000
1000
0100
0000
1000
,  // measure 41
0000
0001
0000
1000
0100
0010
0001
0000
,  // measure 42
0010
1001
0102
1000
,  // measure 43
0013
0000
0100
0010
0100
0010
0100
0000
,  // measure 44
0010
0000
0001
0100
1100
0000
1000
0100
,  // measure 45
0101
0000
0011
0000
1010
0000
0001
0100
,  // measure 46
0010
1000
0010
1000
0010
0000
1000
0100
,  // measure 47
0010
0001
0010
0001
0010
0000
0001
1000
,  // measure 48
0010
0100
0010
0100
0010
0000
1010
0101
,  // measure 49
0000
1100
0000
0011
0010
0000
0010
0000
,  // measure 50
0010
0001
0100
0000
0001
1000
0001
1000
,  // measure 51
0100
0010
0001
0000
0000
1000
0001
0000
,  // measure 52
0100
0010
0000
1000
0000
0100
1000
0001
,  // measure 53
0000
0010
0001
0000
0100
0000
0100
0000
,  // measure 54
0100
0000
0010
1000
0000
0100
0001
1000
,  // measure 55
0010
0100
1000
0001
0011
0000
0000
0110
,  // measure 56
0000
0000
1100
0000
0000
0001
1000
0001
,  // measure 57
1000
0110
0010
0010
,  // measure 58
1000
0010
1000
0000
0100
0000
0100
0000
,  // measure 59
0001
0100
0001
0000
0100
0010
0100
0000
,  // measure 60
1000
0001
1000
0000
0010
1000
0010
0100
,  // measure 61
0001
0100
0010
0000
1000
1000
1000
0000
,  // measure 62
0001
0001
0001
0000
1000
0100
0010
0001
,  // measure 63
0100
0010
1000
0000
0010
0010
0010
0000
,  // measure 64
0100
0100
0100
0000
0001
0100
0010
1000
,  // measure 65
0001
0010
0100
0000
1100
0000
0101
0000
,  // measure 66
1100
0100
0010
0000
0001
0100
0001
0001
,  // measure 67
1000
0010
1000
1000
1010
0000
0011
0000
,  // measure 68
0011
0000
1010
0000
0010
1000
0010
0010
,  // measure 69
0100
0001
0100
0100
0001
0010
0100
0000
,  // measure 70
1000
0010
0100
0000
0001
0100
1000
0100
,  // measure 71
0001
0010
1000
0010
0001
0001
0110
0000
,  // measure 72
1000
1000
1001
0000
0010
1000
0001
0010
,  // measure 73
0100
1000
0001
0000
1001
0000
0000
0110
,  // measure 74
0000
2002
0000
0000
,  // measure 75
0000
0000
3003
0000
;
