#TITLE:Souq;
#SUBTITLE:;
#ARTIST:Thomas Gold & Uberdrop;
#TITLETRANSLIT:;
#SUBTITLETRANSLIT:;
#ARTISTTRANSLIT:;
#CREDIT:;
#BANNER:Souq.png;
#BACKGROUND:Souq - bg.png;
#LYRICSPATH:;
#CDTITLE:cdtitle.png;
#MUSIC:Souq.ogg;
#OFFSET:-1.880;
#SAMPLESTART:22.480;
#SAMPLELENGTH:12.900;
#SELECTABLE:YES;
#BPMS:0.000=128.010;
#STOPS:;
#BGCHANGES:;

//---------------dance-single - ----------------
#NOTES:
     dance-single:
     :
     Hard:
     10:
     0.606,0.574,0.378,0.138,0.581: // measure 1
0000
0000
0000
0000
,  // measure 2
0000
0000
0000
0000
,  // measure 3
0000
0000
0000
0000
,  // measure 4
1000
0000
1000
0001
0000
0001
1000
0000
1000
0100
0000
0100
1000
0000
1000
0001
,  // measure 5
0000
0001
1000
0000
0001
0100
0000
0001
0100
0000
0001
0100
0000
0001
0100
0000
,  // measure 6
0001
0000
0001
1000
0000
1000
0001
0000
0001
0100
0000
0100
0001
0000
0001
1000
,  // measure 7
0000
1000
0001
0000
1000
0100
0000
1000
0100
0000
1000
0100
0000
1000
0100
0000
,  // measure 8
0110
0000
0010
0001
0000
0001
0010
0000
0010
0001
0000
0001
1000
0000
1000
0001
,  // measure 9
0000
0001
1000
0000
0010
1000
0000
0010
1000
0000
0010
1000
0000
0010
1000
0000
,  // measure 10
0010
0000
0010
1000
0000
1000
0001
0000
0001
1000
0000
1000
0010
0000
0010
1000
,  // measure 11
0000
1000
0001
0000
0010
0001
0000
0010
0001
0000
0010
0001
0000
0010
0001
0000
,  // measure 12
1000
0000
0000
0100
0000
0000
1000
0000
0001
0000
0000
0100
0000
0000
0001
0000
,  // measure 13
1000
0000
0000
0100
0000
0000
1000
0000
0001
0000
0000
0100
0000
0000
0001
0000
,  // measure 14
1000
0000
0000
0010
0000
0000
1000
0000
0001
0000
0000
0010
0000
0000
0001
0000
,  // measure 15
1000
0000
0000
0010
0000
0000
1000
0000
0001
0000
0000
0010
0000
0000
0001
0000
,  // measure 16
2001
0000
0000
3100
0000
0000
0010
0000
0200
0000
0000
0310
0000
0000
0001
0000
,  // measure 17
0020
0000
0000
0031
0000
0000
0010
0000
0200
0000
0000
0310
0000
0000
0100
0000
,  // measure 18
2000
0000
0000
3010
0000
0000
0100
0000
0020
0000
0000
0130
0000
0000
0001
0000
,  // measure 19
0200
0000
0000
0301
0000
0000
0100
0000
0020
0000
0000
0130
0000
0000
0010
0000
,  // measure 20
2000
0000
0000
0010
0000
0000
3010
0000
2000
0000
0000
0100
0000
0000
3100
0000
,  // measure 21
2000
0000
0000
0010
0000
0000
3010
0000
2000
0000
0000
0100
0000
0000
3100
0000
,  // measure 22
0200
0000
0000
0000
0020
0000
0000
0330
,  // measure 23
0001
0000
0001
0010
0000
0010
0001
0000
0001
0000
1000
0001
0000
1000
0001
0000
,  // measure 24
1001
0000
0000
0000
1001
0000
0001
0000
0101
0000
0000
0001
1000
0000
0100
0000
,  // measure 25
1100
0000
0000
0000
1000
0000
0010
0000
0100
0000
0100
0010
0000
0010
1000
0000
,  // measure 26
1001
0000
0000
0000
1001
0000
1000
0000
1100
0000
0000
1000
0001
0000
0100
0000
,  // measure 27
0101
0000
0000
0000
0001
0000
0010
0000
0100
0000
0100
0010
0000
0010
0001
0000
,  // measure 28
1001
0000
0000
0000
1001
0000
1000
0000
1010
0000
0000
1000
0001
0000
0010
0000
,  // measure 29
0011
0000
0000
0000
0001
0000
0100
0000
0010
0000
0010
0100
0000
0100
0001
0000
,  // measure 30
1001
0000
0000
0000
1001
0000
0001
0000
0011
0000
0000
0001
1000
0000
0010
0000
,  // measure 31
1000
0000
0000
1000
0000
0000
1000
0000
0010
0000
0000
0001
0000
0000
0001
0000
,  // measure 32
1100
0000
0000
0010
0001
0000
0100
0000
0101
0000
0000
0010
1000
0000
0100
0000
,  // measure 33
1100
0000
0000
0010
0001
0000
0100
0000
0100
0000
0001
0010
0000
0010
0001
0000
,  // measure 34
0101
0000
0000
0010
1000
0000
0100
0000
1100
0000
0000
0010
0001
0000
0100
0000
,  // measure 35
0101
0000
0000
0010
1000
0000
0100
0000
0100
0000
1000
0010
0000
0010
1000
0000
,  // measure 36
1010
0000
0000
0100
0001
0000
0010
0000
0011
0000
0000
0100
1000
0000
0010
0000
,  // measure 37
1010
0000
0000
0100
0001
0000
0010
0000
0010
0000
0001
0100
0000
0100
0001
0000
,  // measure 38
0011
0000
0000
0100
1000
0000
0010
0000
1010
0000
0000
0100
0001
0000
0010
0000
,  // measure 39
0011
0000
0000
0000
1000
0000
0010
0000
0010
0000
1000
0100
0000
0100
1000
0000
,  // measure 40
1001
0000
0000
1000
0100
0000
0010
0000
0110
0000
0000
0010
0100
0000
1000
0000
,  // measure 41
1001
0000
0000
1000
0010
0000
0100
0000
0110
0000
0000
0010
0000
0000
0010
0000
,  // measure 42
1001
0000
0000
0001
0100
0000
0010
0000
0110
0000
0000
0010
0100
0000
0001
0000
,  // measure 43
1001
0000
0000
0001
0010
0000
0100
0000
0110
0000
0000
0010
0000
0000
0010
0000
,  // measure 44
1100
0000
0000
1000
0000
0000
1000
0000
0010
0000
0000
0100
0000
0000
0100
0000
,  // measure 45
1001
0000
0000
0001
0000
0000
0001
0000
0010
0000
0000
0100
0000
0000
0100
0000
,  // measure 46
1001
1000
0010
0100
0001
1000
0010
0100
,  // measure 47
0010
0000
0000
0010
0000
0000
0010
0000
0100
0000
0000
0100
0010
0100
0010
0000
,  // measure 48
1010
0000
0000
1000
0100
0000
1000
0000
0100
0000
0000
0010
0100
0000
0010
0000
,  // measure 49
0100
0000
0000
0010
0001
0000
0010
0000
0001
0000
0000
1000
0001
0000
1000
0000
,  // measure 50
0001
0000
0000
1000
0010
0000
1000
0000
0010
0000
0000
0100
0010
0000
0100
0000
,  // measure 51
0010
0000
0000
0100
0001
0000
0100
0000
0001
0000
0000
0010
0001
0000
0010
0000
,  // measure 52
0001
0000
0000
1000
0001
0000
1000
0000
0001
0000
0000
1000
0100
0000
1000
0000
,  // measure 53
0100
0000
0000
0010
0100
0000
0010
0000
0100
0000
0000
0010
0001
0000
0010
0000
,  // measure 54
0001
0000
0000
1000
0001
0000
1000
0000
0001
0000
0000
1000
0010
0000
1000
0000
,  // measure 55
0010
0000
0000
0100
0010
0000
0100
0000
0010
0000
0000
0100
0001
0000
0100
0000
,  // measure 56
0002
0000
0000
0000
,  // measure 57
0000
0000
0000
0000
0000
0003
0000
0000
;

//---------------dance-single - ----------------
#NOTES:
     dance-single:
     :
     Medium:
     7:
     0.424,0.444,0.230,0.101,0.000:
0000
0000
0000
0000
,
0000
0000
0000
0000
,
0000
0000
0000
0000
,
1000
0100
0001
0100
,
1000
0000
0001
0100
0001
0100
0001
0100
,
0001
0100
1000
0100
,
0001
0000
1000
0100
1000
0100
1000
0100
,
1100
0000
0001
0000
1000
0000
0001
1000
,
0001
0000
0010
0000
0100
0000
0010
0100
,
0010
0000
0001
0000
1000
0000
0001
1000
,
0001
0000
0010
0000
0100
0000
0010
0100
,
0010
0000
0100
0000
1000
0000
0100
1000
,
0100
0000
0010
0000
0001
0000
0010
0001
,
0010
0000
0100
0000
1000
0000
0100
1000
,
0100
0000
0010
0000
0001
0000
0010
0001
,
0011
0000
0001
0000
0001
0000
0001
0010
,
0100
0000
0100
0000
0100
0000
0100
1000
,
0001
0000
0001
0000
0001
0000
0001
0100
,
0010
0000
0010
0000
0010
0000
0010
1000
,
0100
0000
1000
0100
1000
0000
0001
0100
,
0001
0000
0001
0010
0001
0000
1000
0010
,
1000
0000
1000
0100
1000
0000
0001
0100
,
0001
0001
1000
1000
,
1001
0000
1000
0100
0001
0000
0001
0100
,
1000
0000
1000
0100
0001
0000
0100
0000
,
1001
0000
1000
0100
0001
0000
0001
0100
,
1000
0000
1000
0100
0001
0000
0100
0000
,
1001
2100
3001
0102
,
1003
0000
2100
0000
3001
0000
0010
0100
,
0110
0021
0130
1020
,
0130
0000
0100
0000
0010
0000
0010
1000
,
1001
0000
0001
0010
1000
0000
1000
0010
,
0001
0000
0001
0010
1000
0000
0010
0000
,
1001
0000
0001
0010
1000
0000
1000
0010
,
0001
0000
0001
0010
1000
0000
0010
0000
,
1001
0012
1003
2010
,
3001
0000
0012
0000
1003
0000
0100
0010
,
0110
1200
0310
0201
,
0310
0001
0001
0001
,
1001
0000
1000
0100
0010
0000
0010
0100
,
1000
0000
1000
0100
0010
0000
0010
0000
,
0110
0000
0100
0010
0001
0000
0001
0010
,
0100
0000
0100
0010
0001
0000
0001
0000
,
1001
0000
1000
0100
1000
0000
0001
0100
,
0101
0000
1000
0100
1000
0000
0001
0100
,
0010
1000
0001
0100
0010
1000
0001
0100
,
0010
1000
1000
1000
,
1010
0000
1000
0001
1000
0001
0100
0010
,
0100
0000
0100
0010
0100
0001
1000
0001
,
1000
0000
0001
0010
0001
0010
0100
1000
,
0100
0000
0100
1000
0100
0010
0001
0010
,
0001
0000
0001
0100
0001
0100
0010
1000
,
0010
0000
0010
1000
0010
0100
0001
0100
,
0001
0000
1000
0100
0010
0001
0100
0010
,
1000
0000
1000
0010
0100
0001
0010
0100
,
2000
0000
0000
0000
,
0000
0000
0000
0000
0000
3000
0000
0000
;

//---------------dance-single - ----------------
#NOTES:
     dance-single:
     :
     Easy:
     5:
     0.304,0.339,0.350,0.065,0.000:
0000
0000
0000
0000
,
0000
0000
0000
0000
,
0000
0000
0000
0000
,
1000
0001
1000
0001
,
1000
0010
0010
0010
,
1000
0001
1000
0001
,
1000
0010
0010
0010
,
0110
0001
0100
0001
,
0100
1000
0100
1000
,
0100
0010
0100
0010
,
0100
1000
0001
1000
,
0001
1000
0010
1000
,
0010
0001
0010
0001
,
0010
0100
0010
0100
,
0010
0001
1000
0001
,
1001
1000
1000
1000
,
0001
0001
0001
0001
,
0010
0010
0010
0010
,
0100
0100
0100
0100
,
0020
0030
0200
0300
,
0020
0030
0200
0300
,
2000
0000
0002
3003
,
0001
0000
1000
0000
,
1001
1000
1100
0001
,
0101
1000
0100
0000
,
1001
1000
1100
0001
,
0101
1000
0100
0000
,
1001
0001
0011
1000
,
1010
0001
0010
0000
,
1001
0001
0011
1000
,
1010
0010
0010
0010
,
1001
1000
1100
0001
,
0101
1000
0100
0000
,
1001
1000
1100
0001
,
0101
1000
0100
0000
,
1001
0001
0011
1000
,
1010
0001
0010
0000
,
1001
0001
0011
1000
,
1010
0000
0000
0000
,
1001
0010
0110
0010
,
1001
0100
0110
0000
,
1001
0010
0110
0010
,
1001
0100
0110
0000
,
0011
0000
0100
0000
,
1100
0000
0010
0000
,
0011
0001
1000
0001
,
1000
1000
1000
1000
,
1001
0010
1000
0100
,
0001
0010
1000
0100
,
0001
0010
1000
0100
,
0001
0010
1000
0100
,
0001
0100
1000
0010
,
0001
0100
1000
0010
,
0001
0100
1000
0010
,
0001
0100
1000
0010
,
0200
0000
0000
0000
,
0000
0000
0000
0000
0000
0300
0000
0000
;
