#TITLE:Solar Eclipse;
#SUBTITLE:;
#ARTIST:Hideyuki Fukasawa;
#TITLETRANSLIT:;
#SUBTITLETRANSLIT:;
#ARTISTTRANSLIT:;
#GENRE:TRANCE;
#CREDIT:;
#BANNER:Solar Eclipse-bn.png;
#BACKGROUND:Solar Eclipse-bg.png;
#LYRICSPATH:;
#CDTITLE:!rain.png;
#MUSIC:Solar Eclipse.ogg;
#OFFSET:-0.038000;
#SAMPLESTART:29.041998;
#SAMPLELENGTH:15.000000;
#SELECTABLE:YES;
#DISPLAYBPM:132.000000;
#BPMS:0.000000=132.000000
,31.000000=264.000000
,31.666666=66.000000
,32.000000=132.000000
,63.000000=264.000000
,63.666668=66.000000
,64.000000=132.000000
,127.000000=264.000000
,128.000000=132.000000
,128.750000=264.000000
,129.500000=132.000000
,130.750000=264.000000
,131.500000=132.000000
,132.750000=264.000000
,133.500000=132.000000
,134.750000=264.000000
,135.500000=132.000000
,136.750000=264.000000
,137.500000=132.000000
,138.750000=264.000000
,139.500000=132.000000
,140.750000=264.000000
,141.500000=132.000000
,142.750000=264.000000
,143.500000=132.000000
,144.500000=264.000000
,145.500000=132.000000
,146.500000=264.000000
,147.500000=132.000000
,148.500000=264.000000
,149.500000=132.000000
,150.500000=264.000000
,151.500000=132.000000
,152.500000=264.000000
,153.500000=132.000000
,154.500000=264.000000
,155.500000=132.000000
,156.500000=264.000000
,157.500000=132.000000
,158.500000=264.000000
,159.500000=132.000000
,160.000000=66.000000
,160.333328=264.000000
,161.000000=66.000000
,161.333328=264.000000
,162.000000=66.000000
,162.333328=264.000000
,163.000000=66.000000
,163.166672=264.000000
,163.500000=66.000000
,163.833328=264.000000
,164.500000=66.000000
,164.833328=264.000000
,165.500000=66.000000
,165.833328=264.000000
,166.500000=66.000000
,166.833328=264.000000
,167.500000=66.000000
,167.833328=264.000000
,168.500000=66.000000
,168.833328=264.000000
,169.500000=66.000000
,169.833328=264.000000
,170.500000=66.000000
,170.833328=264.000000
,171.500000=66.000000
,171.833328=264.000000
,172.500000=66.000000
,172.833328=264.000000
,173.500000=66.000000
,173.833328=264.000000
,174.500000=66.000000
,174.833328=264.000000
,175.500000=66.000000
,175.666672=264.000000
,176.000000=132.000000
,178.000000=264.000000
,179.500000=132.000000
,182.000000=264.000000
,183.500000=132.000000
,184.500000=66.000000
,184.833328=264.000000
,185.500000=132.000000
,186.500000=66.000000
,186.833328=264.000000
,187.500000=132.000000
,188.500000=66.000000
,188.833328=264.000000
,189.500000=132.000000
,191.000000=264.000000
,192.000000=132.000000
,255.000000=264.000000
,256.000000=132.000000
;
#STOPS:127.000000=0.114000,
127.500000=0.114000,
128.750000=0.170000,
130.750000=0.170000,
132.750000=0.170000,
134.750000=0.170000,
136.750000=0.170000,
138.750000=0.170000,
140.750000=0.170000,
142.750000=0.170000,
144.500000=0.057000,
144.750000=0.057000,
145.000000=0.057000,
145.250000=0.057000,
146.500000=0.057000,
146.750000=0.057000,
147.000000=0.057000,
147.250000=0.057000,
148.500000=0.057000,
148.750000=0.057000,
149.000000=0.057000,
149.250000=0.057000,
150.500000=0.057000,
150.750000=0.057000,
151.000000=0.057000,
151.250000=0.057000,
152.500000=0.057000,
152.750000=0.057000,
153.000000=0.057000,
153.250000=0.057000,
154.500000=0.057000,
154.750000=0.057000,
155.000000=0.057000,
155.250000=0.057000,
156.500000=0.057000,
156.750000=0.057000,
157.000000=0.057000,
157.250000=0.057000,
158.500000=0.057000,
158.750000=0.057000,
159.000000=0.057000,
159.250000=0.057000,
178.000000=0.114000,
178.500000=0.114000,
179.000000=0.114000,
182.000000=0.114000,
182.500000=0.114000,
183.000000=0.114000,
191.000000=0.227000,
255.000000=0.227000
;
#BGCHANGES:;
#KEYSOUNDS:;
#ATTACKS:;

//---------------dance-single - Profraine----------------
#NOTES:
     dance-single:
     Profraine:
     Challenge:
     12:
     0.811980,0.801249,0.525819,0.450702,0.938963,681.000000,618.000000,63.000000,54.000000,2.000000,0.000000,0.811980,0.801249,0.525819,0.450702,0.938963,681.000000,618.000000,63.000000,54.000000,2.000000,0.000000:
0000
0000
0000
0000
,
0000
0000
0000
0000
,
0000
0000
0000
0000
,
0000
0000
0000
0000
0000
0000
0000
1000
,
0100
0010
0100
0020
0001
0000
0031
1000
,
0010
0100
0001
2000
0100
0000
3100
1000
,
0001
1000
0010
0200
0010
0000
0310
0002
,
0100
1003
0000
2000
0100
3001
2002
3003
,
1000
0100
0010
0001
1000
0010
0100
0001
1000
0100
0010
0001
1000
0010
0100
0001
,
1000
0000
1000
0010
0000
0010
0100
0001
0010
0000
0010
0001
0000
0001
0010
0100
,
1000
0010
0100
0001
1000
0100
0010
0001
1000
0010
0100
0001
1000
0100
0010
0001
,
1000
0000
0001
0100
0000
0001
1000
0010
0100
0000
0010
1000
0000
1000
0100
0010
,
0001
1000
0001
1000
0010
1000
0010
1000
0001
1000
0001
0100
0001
0100
0001
0010
,
0100
0000
0100
1000
0000
1000
0001
0100
0010
0000
0100
0010
0000
0010
1000
0100
,
0010
0001
0010
0001
1000
0001
1000
0001
1000
0010
1000
0010
1000
0001
1000
0001
,
0100
0000
0010
0100
0000
0100
0001
1000
0100
0000
0010
0000
2002
0000
3003
0000
,
1000
0000
0110
0000
0001
0100
0000
0010
1000
0000
1001
0000
1000
0010
0000
0010
,
0100
0000
0101
0000
1000
0010
0000
0100
0010
0000
1001
0000
0100
0001
0000
0001
,
0010
0000
1001
0000
0100
0010
0000
1000
0001
0000
1010
0000
1000
0100
0000
0010
,
0001
0000
1100
0000
0001
0010
0000
0010
0100
0000
0011
0000
1000
0001
0000
0001
,
2000
0000
3020
0000
2030
0000
3010
0100
0001
0000
1001
0000
0001
0010
0200
0000
,
2300
0000
3200
0000
2300
0000
3001
1000
0010
0000
1001
0000
0001
1000
0020
0000
,
0230
0000
0320
0000
0230
0000
0301
1000
0100
0000
1001
0000
0001
0100
0020
0000
,
2030
0000
3010
0100
0001
0000
0020
0000
0230
0000
2300
0000
3001
0000
0100
0001
,
1000
0100
0010
0001
1000
0010
0100
0001
1000
0000
1010
0000
0010
0100
0000
0100
,
0001
0010
0100
1000
0001
0100
0010
1000
0001
0000
0101
0000
0100
0010
0000
0010
,
1000
0001
0100
0010
1000
0001
0010
0100
1000
0000
1010
0000
0010
0100
0000
0100
,
0001
0010
0100
1000
0100
0010
0001
1000
0010
0000
0110
0000
0100
0001
0000
0001
,
0010
0000
0110
0000
0100
1000
0000
0001
0010
0000
0110
0000
0100
1000
0000
1000
,
0010
0000
0110
0000
0100
0010
0000
1000
0001
0000
0011
0000
0010
0100
0000
0100
,
1000
0000
1001
0000
0001
0100
0000
0100
0010
0000
1010
0000
1000
0100
0000
0100
,
1000
0100
0010
0001
0010
0100
1000
0001
0010
0100
1000
0010
1000
0000
0101
0000
,
0001
0000
1000
0020
0000
0000
0130
0010
0100
0000
0100
0002
0000
0000
0013
0001
,
0010
0000
0010
0200
0000
0000
1300
0100
1000
0000
1000
0002
0000
0000
0103
0001
,
0100
0000
0100
0002
0000
0000
0103
0001
1000
0000
1000
0020
0000
0000
0130
0010
,
0100
0000
0100
0002
0000
0000
0013
0001
0010
0000
0010
0200
0000
0000
1300
0100
,
1000
0000
1000
0100
0010
0001
0100
0000
1001
0000
0001
0100
0010
1000
0010
0000
,
0101
0000
1000
0010
0100
0001
0010
0000
0101
0000
0001
0010
0100
1000
0100
0000
,
1010
0000
0001
1000
0010
0100
0001
0000
1100
0000
1000
0001
0100
0010
1000
0000
,
0011
0000
1000
0001
1000
0100
0010
0000
0101
0000
0001
1000
0001
0010
0100
0000
,
0020
0000
0000
0030
0021
0000
0000
0000
0230
0000
0000
0300
0210
0000
0302
0000
,
0000
0003
0102
0000
0000
0003
0020
0000
0000
0030
0021
0000
0000
0030
0200
0000
,
0000
0300
0210
0000
0000
0300
2000
0000
0000
3000
2100
0000
0000
3000
0020
0000
,
0000
0030
1020
0000
0000
0030
0200
0000
0000
0300
0210
0000
0000
0300
0210
0000
,
0301
0000
0001
0100
0010
0010
0010
1000
,
0000
0100
0000
0010
0100
0100
0100
0110
,
0000
0020
0030
0011
0000
0002
0003
1001
,
0000
2000
3000
1010
0000
0010
1001
0000
,
1100
0000
1100
0000
1000
0100
0010
0001
0010
0000
1001
0000
0100
0010
1000
0100
,
0010
0000
0011
0000
0001
0010
0100
1000
0001
0000
0101
0000
0100
0010
1000
0001
,
0010
0000
0110
0000
0100
1000
0001
0100
0010
0000
0110
0000
0100
0001
0010
0100
,
1000
0000
1100
0000
0100
0010
0001
1000
0010
0000
0110
0000
1000
0001
0100
0001
,
1000
0000
0100
0010
0001
1000
0010
0100
0001
0000
0001
0010
0100
1000
0001
0100
,
0010
0000
0010
1000
0100
0010
0001
0010
0100
0000
1000
0001
0100
0010
1000
0100
,
0010
0000
0010
0001
0100
0001
1000
0010
0100
0000
0100
0001
1000
0100
0010
0001
,
0010
0000
0100
1000
0001
0100
0010
1000
0001
0000
0100
0000
0010
0000
0000
0000
,
1001
0000
1000
0010
0000
0010
1000
0000
0010
0100
0000
0100
0010
0000
1000
0001
,
0000
0001
0010
0000
0000
1100
0000
1000
0001
0000
0100
0001
0000
1010
0000
0010
,
0100
0000
0100
0010
0000
1001
0000
0001
0010
0000
0100
1000
0000
0011
0000
0001
,
0100
0000
0010
1000
0000
1000
0100
0000
0010
0001
0000
0001
0100
0000
0100
0010
,
2000
0000
0000
0000
3100
0000
0010
0001
0000
0001
1000
0000
1000
0010
0000
0010
,
0100
0000
0100
0001
0000
0001
0010
0000
0010
0100
0000
0100
1000
0000
1000
0100
,
0000
0000
0011
0000
0001
1000
0000
0001
0100
0000
1010
0000
0010
0100
0000
0001
,
0010
0000
1100
0000
0001
0100
0000
0010
1000
0000
0100
0000
0011
0000
0000
0000
,
10MM
0000
0000
0000
;

//---------------dance-single - ----------------
#NOTES:
     dance-single:
     :
     Beginner:
     1:
     0.044116,0.080125,0.033385,0.000000,0.000000,37.000000,33.000000,4.000000,0.000000,0.000000,0.000000,0.044116,0.080125,0.033385,0.000000,0.000000,37.000000,33.000000,4.000000,0.000000,0.000000,0.000000:
0000
0000
0000
0000
,
0000
0000
0000
0000
,
0000
0000
0000
0000
,
0000
0000
0000
0000
,
1000
0000
0000
0000
,
0000
0000
0000
0000
,
0010
0000
0000
0000
,
0000
0000
0000
0100
,
0000
0000
0000
0000
,
0000
0000
0000
0000
,
0001
0000
0000
0000
,
0000
0000
0000
0000
,
1000
0000
0000
0000
,
0000
0000
0000
0000
,
0100
0000
0000
0000
,
0000
0000
0000
0000
,
1000
0000
0000
0000
,
0000
0000
0000
0000
,
0010
0000
0000
0000
,
0000
0000
0000
0000
,
0100
0000
0000
0000
,
0000
0000
0000
0000
,
0001
0000
0000
0000
,
0000
0000
0000
0000
,
1001
0000
0000
0000
,
0000
0000
0000
0000
,
0001
0000
0000
0000
,
0000
0000
0000
0000
,
1000
0000
0000
0000
,
0000
0000
0000
0000
,
0100
0000
0000
0000
,
0000
0000
0000
0000
,
0110
0000
0000
0000
,
0000
0000
0000
0000
,
0001
0000
0000
0000
,
0000
0000
0000
0000
,
1000
0000
0000
0000
,
0000
0000
0000
0000
,
0010
0000
0000
0000
,
0000
0000
0000
0000
,
0100
0000
0000
0000
,
0000
0000
0000
0000
,
0001
0000
0000
0000
,
0000
0000
0000
0000
,
1000
0000
0000
0000
,
0000
0000
0000
0000
,
0100
0000
0000
0000
,
0000
0000
0000
0000
,
0010
0000
0000
0000
,
0001
0000
0000
0000
,
0100
0000
0000
0000
,
0010
0000
0000
0000
,
1000
0000
0000
0000
,
0001
0000
0000
0000
,
1000
0000
0000
0000
,
0100
0000
0000
0000
,
0010
0000
0000
0000
,
0000
0000
0000
0000
,
0000
0000
0000
0000
,
0000
0000
0000
0000
,
1001
0000
0000
0000
,
0000
0000
0000
0000
,
0000
0000
0000
0000
,
0000
0000
0000
0000
,
1001
0000
0000
0000
;

//---------------dance-single - ----------------
#NOTES:
     dance-single:
     :
     Easy:
     2:
     0.131157,0.186958,0.025039,0.050078,0.000000,110.000000,107.000000,3.000000,6.000000,0.000000,0.000000,0.131157,0.186958,0.025039,0.050078,0.000000,110.000000,107.000000,3.000000,6.000000,0.000000,0.000000:
0000
0000
0000
0000
,
0000
0000
0000
0000
,
0000
0000
0000
0000
,
0000
0000
0000
0000
,
1000
0000
0000
0000
,
0001
0000
0000
0000
,
0100
0000
0000
0000
,
0010
0000
1000
0100
,
0010
0000
0001
0000
,
1000
0000
0010
0000
,
0100
0000
0001
0000
,
1000
0000
0010
0000
,
0100
0000
0001
0000
,
0010
0000
0100
0000
,
1000
0000
0001
0000
,
0100
0000
0010
1000
,
0100
0000
0010
0000
,
0001
0000
0100
0000
,
0010
0000
1000
0000
,
0100
0000
1000
0001
,
0100
0000
0001
0000
,
0010
0000
0100
0000
,
1000
0000
0010
0000
,
0100
0000
0001
1000
,
0100
0000
0010
0000
,
0001
0000
1000
0000
,
0001
0000
0010
0000
,
0100
0000
1000
0001
,
1000
0000
0010
0000
,
0100
0000
0001
0000
,
0010
0000
0001
0000
,
1000
0100
0010
0001
,
1000
0000
0001
0000
,
1000
0000
0001
0000
,
1000
0000
0001
0000
,
1000
0000
0001
0000
,
0100
0000
0010
0000
,
0100
0000
0010
0000
,
0100
0000
0010
0000
,
0100
0000
0010
0000
,
2002
0000
0000
0000
,
0000
0000
0000
0000
,
0000
0000
0000
0000
,
3003
0000
0000
0000
,
2020
0000
0000
0000
,
3030
0000
0000
0000
,
0022
0000
0000
0000
,
0000
0000
0033
0000
,
1000
0000
0001
0000
,
0100
0000
0010
0000
,
1000
0000
0100
0000
,
0010
0000
0001
0000
,
0100
0000
0001
0000
,
1000
0000
0100
0000
,
0010
0000
0001
0000
,
0100
0000
0010
1000
,
0100
0000
0000
0100
,
0000
0000
0000
0100
,
0000
0000
0000
0100
,
0000
0000
0000
0100
,
0010
0000
0000
0001
,
0000
0000
0000
0001
,
0000
0000
0000
0001
,
0000
0000
0000
0001
,
1000
0000
0000
0000
;

//---------------dance-single - ----------------
#NOTES:
     dance-single:
     :
     Hard:
     8:
     0.442356,0.507457,0.108502,0.150234,0.242044,371.000000,358.000000,13.000000,18.000000,2.000000,0.000000,0.442356,0.507457,0.108502,0.150234,0.242044,371.000000,358.000000,13.000000,18.000000,2.000000,0.000000:
// measure 0
0000
0000
0000
0000
,  // measure 1
0000
0000
0000
0000
,  // measure 2
0000
0000
0000
0000
,  // measure 3
0000
0000
0000
0000
,  // measure 4
1000
0000
0010
0100
0001
0000
0010
0100
,  // measure 5
1000
0001
0100
0010
1000
0000
0001
0100
,  // measure 6
1000
0100
0010
1000
0100
0000
0001
0100
,  // measure 7
1000
0010
0000
1000
0001
1000
0100
0000
,  // measure 8
0010
0000
0001
0000
0000
0100
0000
0000
0010
0000
1000
0000
0000
0001
0000
0000
,  // measure 9
0010
0000
0100
0000
0000
1000
0000
0000
0100
0000
0001
0000
0000
0100
0000
0000
,  // measure 10
0010
0000
0001
0000
0000
1000
0000
0000
0010
0000
0001
0000
0000
0010
0000
0000
,  // measure 11
0100
0000
0001
0000
0000
0010
0000
0000
0100
0000
1000
0000
0000
0010
0000
0000
,  // measure 12
0100
0000
0001
0000
0010
0000
0100
0000
1000
0000
0100
0000
0000
0010
0000
0000
,  // measure 13
1000
0000
0010
0000
0000
0001
0000
0000
0100
0000
1000
0000
0000
0100
0000
0000
,  // measure 14
0010
0000
1000
0000
0000
0001
0000
0000
0010
0000
0100
0000
0000
1000
0000
0000
,  // measure 15
0001
0000
0100
0000
0000
0010
0000
0000
1000
0000
0001
0000
1001
0000
0000
0000
,  // measure 16
0001
0010
0100
1000
0000
0001
0000
0010
,  // measure 17
0100
0001
0100
1000
0000
0010
0000
0100
,  // measure 18
1000
0100
0010
1000
0000
0001
0000
0010
,  // measure 19
0100
0010
0000
0100
0010
0100
0000
1000
,  // measure 20
0100
0010
0001
1000
0000
0010
0000
0100
,  // measure 21
0001
0100
1000
0100
0000
0010
0000
1000
,  // measure 22
0100
0010
0001
1000
0000
0010
0000
0001
,  // measure 23
0010
0100
0000
0010
1000
0100
0000
1000
,  // measure 24
0001
0000
0100
0001
0100
0000
0010
0000
0000
0000
1000
0000
0000
0000
0100
0000
,  // measure 25
0010
0000
0001
0100
0001
0000
1000
0000
0000
0000
0010
0000
0000
0000
0100
0000
,  // measure 26
0001
0000
1000
0100
1000
0000
0010
0000
0000
0000
0100
0000
0000
0000
0001
0000
,  // measure 27
0010
0000
0100
1000
0100
0000
1000
0000
0010
0000
0100
0000
0001
0000
0010
0000
,  // measure 28
0100
0000
1000
0001
1000
0000
0100
0000
0000
0000
0001
0000
0000
0000
0100
0000
,  // measure 29
1000
0000
0010
0100
0010
0000
1000
0000
0000
0000
0001
0000
0000
0000
0010
0000
,  // measure 30
0100
0000
1000
0010
0100
0000
0001
0000
0000
0000
1000
0000
0000
0000
0010
0000
,  // measure 31
0100
0000
0001
1000
0001
0000
0100
0000
0010
0000
0000
0000
1001
0000
0000
0000
,  // measure 32
0000
0000
0000
2000
0000
0000
3001
0000
0000
0000
0000
0002
0000
0000
1003
0000
,  // measure 33
0000
0000
0000
2000
0000
0000
3010
0000
0000
0000
0000
0002
0000
0000
0013
0000
,  // measure 34
0000
0000
0000
2000
0000
0000
3100
0000
0000
0000
0000
0002
0000
0000
0103
0000
,  // measure 35
0000
0000
0000
2000
0000
0000
3010
0000
0000
0000
0000
0002
0000
0000
0013
0000
,  // measure 36
0000
0000
0000
2100
0000
0000
3001
0000
0000
0000
0000
0102
0000
0000
1003
0000
,  // measure 37
0000
0000
0000
1200
0000
0000
0310
0000
0000
0000
0000
0012
0000
0000
0103
0000
,  // measure 38
0000
0000
0000
0120
0000
0000
1030
0000
0000
0000
0000
2001
0000
0000
3100
0000
,  // measure 39
0000
0000
0000
1002
0000
0000
0103
0000
0000
0000
0000
0021
0000
0000
0130
0000
,  // measure 40
1100
0000
1000
0000
0010
0000
0100
0001
,  // measure 41
0000
0010
0000
0100
0000
1000
0000
0001
,  // measure 42
0000
0100
0000
1000
0000
0100
0000
0010
,  // measure 43
0000
1000
0000
0100
0000
0010
0000
0001
,  // measure 44
1000
0000
0010
0000
1000
0000
0100
0010
,  // measure 45
0000
0001
0000
1000
0000
0010
0000
0100
,  // measure 46
0000
0001
0000
1000
0000
0100
0000
0010
,  // measure 47
0000
0001
0000
1000
0000
0010
0100
0000
,  // measure 48
0001
0000
0010
0000
0100
0000
1000
0000
0010
0000
0100
0000
0001
1000
0001
0000
,  // measure 49
0100
0000
0010
0000
1000
0000
0100
0000
0010
0000
0001
0000
1000
0010
1000
0000
,  // measure 50
0100
0000
0010
0000
0001
0000
1000
0000
0010
0000
0100
0000
0001
0010
0001
0000
,  // measure 51
1000
0000
0100
0000
0001
0000
0100
0000
0010
0000
0001
0000
1000
0010
1000
0000
,  // measure 52
0001
0000
0100
0000
1000
0000
0100
0000
0010
0000
1000
0000
0001
1000
0001
0000
,  // measure 53
0010
0000
0100
0000
1000
0000
0100
0000
0010
0000
0001
0000
0100
0010
0100
0000
,  // measure 54
0001
0000
1000
0000
0100
0000
1000
0000
0001
0000
0100
0000
0001
0010
0001
0000
,  // measure 55
0100
0010
1000
0100
0010
0001
0010
0000
,  // measure 56
0220
0000
0330
0000
,  // measure 57
0000
0000
0000
0000
0100
0000
0000
1000
0000
0000
0010
0000
0100
0000
0000
0001
,  // measure 58
0000
0000
0010
0000
0100
0000
0000
1000
0000
0000
0010
0000
0001
0000
0000
0010
,  // measure 59
0000
0000
0100
0000
0001
0000
1000
0000
0001
0000
0000
1000
0000
0000
0001
0000
,  // measure 60
1000
0000
0000
0010
0000
0000
0100
0000
0000
0001
0000
0000
0010
0000
0000
0100
,  // measure 61
0000
0000
1000
0000
0001
0000
0000
0100
0000
0000
0010
0000
0100
0000
0001
0000
,  // measure 62
0000
0010
0000
0000
0100
0000
0000
1000
0000
0000
0001
0000
0010
0000
0000
0100
,  // measure 63
0000
0000
1000
0000
0001
0000
0100
0000
0000
0010
0000
0000
1001
0000
0000
0000
,  // measure 64
M00M
0000
0000
0000
;

//---------------dance-single - ----------------
#NOTES:
     dance-single:
     :
     Medium:
     3:
     0.139503,0.212832,0.016693,0.625975,0.066771,117.000000,115.000000,2.000000,75.000000,0.000000,0.000000,0.139503,0.212832,0.016693,0.625975,0.066771,117.000000,115.000000,2.000000,75.000000,0.000000,0.000000:
0000
0000
0000
0000
,
0000
0000
0000
0000
,
0000
0000
0000
0000
,
0000
0000
0000
0000
,
2000
0000
3000
0000
,
0002
0000
0003
0000
,
0200
0000
0300
0000
,
0020
0030
2000
3000
,
0100
0000
0010
0000
,
0001
0000
0100
0000
,
0010
0000
1000
0000
,
0001
0000
0100
0000
,
0010
0000
1000
0000
,
0100
0000
0010
0000
,
0001
0000
0100
0000
,
0010
0000
1000
0100
,
0020
0000
0000
0031
0000
0000
0000
0002
,
0000
0000
0000
1003
0000
0000
0000
2000
,
0000
0000
0000
3010
0000
0000
0000
0020
,
0000
0030
0000
0200
0000
0300
0000
0001
,
2000
0000
0000
3100
0000
0000
0000
0200
,
0000
0000
0000
0310
0000
0000
0000
0020
,
0000
0000
0000
0031
0000
0000
0000
0002
,
0000
0003
0000
2000
0000
3000
0000
0010
,
0200
0000
0000
0301
0000
0000
0000
0002
,
0000
0000
0000
1003
0000
0000
0000
2000
,
0000
0000
0000
3100
0000
0000
0000
0200
,
0000
0300
0000
0020
0000
0030
0000
0001
,
0200
0000
0000
0310
0000
0000
0000
2000
,
0000
0000
0000
3001
0000
0000
0000
0002
,
0000
0000
0000
0103
0000
0000
0000
0200
,
0000
0300
0000
0020
0000
0030
0000
2000
,
0000
0000
3000
0002
0000
0000
0003
0000
0000
0000
0000
0200
0000
0000
0300
0000
,
0000
0000
0000
0020
0000
0000
0030
0000
0000
0000
0000
2000
0000
0000
3000
0000
,
0000
0000
0000
0200
0000
0000
0300
0000
0000
0000
0000
0020
0000
0000
0030
0000
,
0000
0000
0000
0002
0000
0000
0003
0000
0000
0000
0000
0200
0000
0000
0300
0000
,
0000
0000
0000
0020
0000
0000
0030
0000
0000
0000
0000
2000
0000
0000
3000
0000
,
0000
0000
0000
0200
0000
0000
0300
0000
0000
0000
0000
0020
0000
0000
0030
0000
,
0000
0000
0000
0002
0000
0000
0003
0000
0000
0000
0000
0200
0000
0000
0300
0000
,
0000
0000
0000
0020
0000
0000
0030
0000
0000
0000
0000
2000
0000
0000
3000
0000
,
0002
0000
0000
0000
2003
0000
0000
3200
,
0000
0000
0000
0320
0000
0000
0000
0032
,
0000
0000
0000
0203
0000
0000
0000
0320
,
0000
0000
0000
2030
0000
0000
0000
0000
,
3200
0000
0000
0000
0320
0000
0000
0032
,
0000
0000
0000
0203
0000
0000
0000
0320
,
0000
1000
0000
0230
0000
0001
0000
0302
,
0000
0010
0000
2003
0000
0000
3100
0000
,
0020
0000
0000
0000
0032
0000
0000
2003
,
0000
0000
0000
3020
0000
0000
0000
0230
,
0000
0000
0000
0302
0000
0000
0000
0023
,
0000
0000
0000
0230
0000
0000
0000
0000
,
2300
0000
0000
0000
3002
0000
0000
0203
,
0000
0000
0000
0320
0000
0000
0000
2030
,
0000
0000
0000
3200
0000
0000
0000
0320
,
0000
0000
0000
0032
0000
0000
1003
0000
,
1001
0000
0000
0000
,
0000
0000
0000
0000
,
0000
0000
0000
0000
,
0000
2000
0000
0000
,
3001
0000
0000
0000
,
0000
0000
0000
0000
,
0000
0000
0000
0000
,
0000
0000
0000
1001
;
