#TITLE:Small Waves;
#SUBTITLE:;
#ARTIST:dj TAKA;
#TITLETRANSLIT:;
#SUBTITLETRANSLIT:;
#ARTISTTRANSLIT:;
#GENRE:;
#CREDIT:;
#BANNER:;
#BACKGROUND:;
#LYRICSPATH:;
#CDTITLE:;
#MUSIC:Small Waves.mp3;
#OFFSET:-0.277000;
#SAMPLESTART:40.286919;
#SAMPLELENGTH:12.000000;
#SELECTABLE:YES;
#BPMS:0.000000=125.999992
,80.000000=62.999996
,82.000000=125.999992
;
#STOPS:
;
#BGCHANGES:;
#KEYSOUNDS:;
#ATTACKS:;

//---------------dance-single - ----------------
#NOTES:
     dance-single:
     :
     Beginner:
     1:
     0.081827,0.096260,0.007955,0.000000,0.000000,71.000000,1.000000,0.000000,0.000000,0.000000,0.000000,0.081827,0.096260,0.007955,0.000000,0.000000,71.000000,1.000000,0.000000,0.000000,0.000000,0.000000:
0000
0000
0000
0000
,
0000
0000
0000
0000
,
0000
0000
0000
0000
,
0000
0000
0000
0000
,
1000
0000
0000
0000
,
0001
0000
0000
0000
,
0100
0000
0100
0000
,
0010
0000
0010
0000
,
1000
0000
1000
0000
,
0001
0000
0001
0000
,
0010
0000
0010
0000
,
0100
0000
0100
0000
,
1000
0000
0000
0000
,
0001
0000
0000
0000
,
0100
0000
0100
0000
,
0010
0000
0010
0000
,
1000
0000
0000
0000
,
0100
0000
0000
0000
,
0010
0000
0010
0000
,
0001
0000
0001
0000
,
0000
0000
1000
0000
,
0000
0000
0001
0000
,
0000
0000
0100
0000
,
0100
0000
0010
0000
,
0010
0000
1000
0000
,
0000
0000
0001
0000
,
0000
0000
0010
0000
,
0010
0000
0100
0000
,
0100
0000
1000
0000
,
0000
0000
0001
0000
,
0000
0000
0100
0000
,
0000
0000
0010
0000
,
0000
0000
1000
0000
,
0000
0000
0100
0000
,
0000
0000
0010
0000
,
0000
0000
0001
0000
,
0000
0000
1000
0000
,
0000
0000
0001
0000
,
0000
0000
0100
0000
,
0000
0000
0010
0000
,
0000
0000
1000
0000
,
0000
0000
0100
0000
,
0000
0000
0010
0000
,
0000
0000
0001
0000
,
0000
0000
1000
0000
,
0000
0000
0010
0000
,
0000
0000
0100
0000
,
0000
0000
0001
0000
,
0000
0000
0010
0000
,
0000
0000
0100
0000
,
0000
0000
1000
0000
,
0000
0000
0001
0000
,
0000
0000
1000
0000
,
0000
0000
0001
0000
,
0000
0000
0100
0000
,
0000
0000
0010
0000
,
0000
0000
1000
0000
,
0000
0000
0100
0000
,
0000
0000
0010
0000
,
0000
0000
0001
0000
,
0000
0000
1001
0000
;

//---------------dance-single - ----------------
#NOTES:
     dance-single:
     :
     Easy:
     3:
     0.164790,0.288781,0.000000,0.047732,0.000000,139.000000,0.000000,6.000000,0.000000,0.000000,0.000000,0.164790,0.288781,0.000000,0.047732,0.000000,139.000000,0.000000,6.000000,0.000000,0.000000,0.000000:
0000
0000
0000
0000
,
0000
0000
0000
0000
,
0000
0000
0000
0000
,
0000
0000
0000
0000
,
1000
0000
0000
0000
,
0001
0000
0000
0000
,
0100
0000
0100
0000
,
0010
0010
0010
0010
,
1000
1000
0001
0001
,
0020
0230
2300
3002
,
1003
1000
0010
0010
,
0200
0000
0000
0000
,
0301
0000
0000
0000
,
1000
0000
0000
0000
,
0100
0000
0100
0000
,
0010
0010
0010
0010
,
0001
0000
0000
0000
,
0100
0000
0000
0000
,
0010
0000
0010
0000
,
1000
1000
1000
1000
,
0002
0000
0103
0000
,
0000
0000
0010
0000
,
0000
0000
1000
0000
,
1000
0000
0001
0001
,
0001
0001
0010
0000
,
0000
0000
0100
0000
,
0000
0000
1000
0000
,
1000
0000
0010
0010
,
0010
0010
0100
0100
,
0000
0001
0010
0100
,
0000
1000
0010
0100
,
0000
0001
0010
0100
,
0000
1000
0001
0100
,
0000
0001
1000
0100
,
0000
1000
0001
0010
,
0000
0001
1000
0010
,
0000
1000
0001
0001
,
0010
0000
0100
0100
,
1000
0000
0010
0010
,
0100
0000
0001
0001
,
1000
0000
0100
0100
,
1000
0000
0001
0001
,
0010
0000
0001
0001
,
1000
0000
0010
0010
,
1000
0000
0001
0000
,
0000
0100
0100
0000
,
0000
0010
0010
0000
,
0000
1000
1000
0000
,
0000
0001
0001
0000
,
0000
0010
0100
0000
,
0000
1000
0001
0000
,
0000
0100
0010
0010
,
0010
1000
0001
0000
,
0000
1000
0010
0000
,
0000
0100
0001
0000
,
0000
0010
0100
0000
,
0000
1000
0001
0000
,
0000
1000
0010
0000
,
0000
0100
0001
0000
,
0000
0010
0100
0100
,
0100
1000
0001
0000
;

//---------------dance-single - ----------------
#NOTES:
     dance-single:
     :
     Medium:
     5:
     0.302305,0.292360,0.055688,0.063643,0.000000,251.000000,7.000000,8.000000,0.000000,0.000000,0.000000,0.302305,0.292360,0.055688,0.063643,0.000000,251.000000,7.000000,8.000000,0.000000,0.000000,0.000000:
0000
0000
0000
0000
,
0000
0000
0000
0000
,
0000
0000
0000
0000
,
0000
0000
0000
0000
,
1000
0000
0100
0000
0010
0000
0001
0001
,
0001
0000
0100
0000
0010
0000
1000
1000
,
1000
0000
0001
0001
0001
0000
0100
0100
,
0100
0000
0010
0000
1000
1000
0001
0001
,
1000
0010
0100
0001
,
0002
0023
0230
2300
,
3001
1000
0001
1000
,
0010
0100
0010
0200
,
0301
0000
0010
0000
0100
0000
1000
0001
,
1000
0000
0010
0000
0100
0000
0001
1000
,
0001
0000
1000
0001
1000
0000
0001
1000
,
0001
0000
0001
0000
1000
0000
0001
0001
,
1000
0000
0100
0000
0010
0000
0001
1000
,
0001
0000
0100
0000
0010
0000
1000
0001
,
1000
0000
0001
1000
0001
0000
1000
0001
,
1000
0000
0001
0000
1000
0000
0001
0001
,
2000
0100
0001
0010
3001
0000
0100
0000
,
0010
0000
1000
0100
0010
0000
0001
0000
,
0100
0000
0010
0100
0001
0000
1000
0100
,
0010
0000
0100
1000
0010
0000
0100
0000
,
0010
0000
0100
0100
0001
0000
0010
0000
,
0100
0000
1000
0001
0100
0000
0001
0000
,
0010
0000
0100
1000
0001
0000
0100
0010
,
1000
0000
0100
0010
0100
0000
1000
0000
,
0010
0000
0100
0001
1000
0000
0001
0000
,
0000
0000
0001
0100
0001
0000
1000
0000
,
0000
0000
0010
1000
0010
0000
0100
0000
,
0000
0000
0001
1000
0001
0000
0100
0000
,
0000
0000
0001
0010
0100
0000
1000
0000
,
0000
0000
1000
0100
0010
0000
0001
0000
,
0000
0000
0001
0100
0010
0000
1000
0000
,
0000
0000
1000
0010
0100
0000
0001
0000
,
0000
0000
0001
1000
0001
0000
0100
0000
,
0000
0010
0000
0010
1000
0000
0100
0000
,
0000
0010
0000
0010
0001
0000
0100
0000
,
0000
0010
0000
0010
1000
0000
0100
0000
,
0000
1000
0000
1000
0001
0000
0100
0000
,
0000
0010
0000
1000
0100
0000
0010
0000
,
0000
0010
0000
0001
0100
0000
0010
0000
,
0000
1000
0000
0001
0100
0000
0001
0000
,
0000
1000
0000
0100
1000
0000
1100
0000
,
0000
1000
0001
0101
,
0000
0001
1000
1010
,
0000
1000
0001
0001
,
0001
0001
1000
1010
,
0000
1000
0001
0101
,
0000
0001
1000
1100
,
0000
1000
0010
0010
,
0010
0010
0100
0100
,
0001
0010
0100
0100
,
1000
0010
1000
1000
,
0010
0100
0001
0001
,
0010
0100
1000
1000
,
0001
0100
0001
0001
,
1000
0100
1000
1000
,
0001
0010
0001
0001
,
1000
1000
0010
0010
2002
0000
0000
0000
,
0000
3003
0000
0000
;

//---------------dance-single - ----------------
#NOTES:
     dance-single:
     :
     Hard:
     8:
     0.489825,0.538182,0.572788,0.023866,0.178996,356.000000,72.000000,3.000000,0.000000,0.000000,0.000000,0.489825,0.538182,0.572788,0.023866,0.178996,356.000000,72.000000,3.000000,0.000000,0.000000,0.000000:
// measure 0
0000
0000
0000
0000
,  // measure 1
0000
0000
0000
0000
,  // measure 2
0000
0000
0000
0000
,  // measure 3
0000
0000
0000
0000
0000
0000
0001
1000
,  // measure 4
1100
0000
0100
0000
0010
0000
0001
0100
,  // measure 5
0110
0000
0100
0000
0010
0000
1000
0001
,  // measure 6
0101
0000
0001
1000
1100
0000
1000
0001
,  // measure 7
0011
0000
1100
0000
1000
0010
0100
0001
,  // measure 8
0011
0110
1100
0110
,  // measure 9
0011
0000
0000
0001
0100
0000
0000
0100
0010
0000
0000
0010
1000
0000
0000
1000
,  // measure 10
0001
0010
0100
1000
0001
0010
0100
1000
,  // measure 11
0001
0100
0010
1000
0100
0010
0002
0000
,  // measure 12
0103
0000
0010
0000
1000
0000
0100
1000
,  // measure 13
1010
0000
0010
0000
0100
0000
0100
0001
,  // measure 14
0011
0000
0001
0100
0110
0000
0010
1000
,  // measure 15
1100
0000
1010
0000
0110
0000
0001
1000
,  // measure 16
1100
0000
0010
0000
0001
0000
0010
0100
,  // measure 17
1001
0000
0001
0000
0100
0000
0001
1000
,  // measure 18
1010
0000
1000
0001
0011
0000
0001
1000
,  // measure 19
1010
0000
0110
0000
0101
0000
0001
1000
,  // measure 20
1100
0100
0010
0001
1000
0100
0010
0001
1100
0000
0001
0000
0100
0000
1000
0000
,  // measure 21
0000
0100
0001
1000
0101
1000
0100
0001
,  // measure 22
0000
0100
1000
0001
1100
0000
0001
1000
,  // measure 23
0101
0000
1000
0001
1010
0000
0101
0000
,  // measure 24
1001
0000
0001
1000
1010
0001
0010
1000
,  // measure 25
0000
0010
0001
1000
0101
1000
0010
0001
,  // measure 26
0000
0010
1000
0001
1100
0000
0100
1000
,  // measure 27
1010
0000
0100
0001
0011
0000
1100
0000
,  // measure 28
0110
0000
0010
0010
1001
0001
0100
0010
,  // measure 29
0000
0010
1000
0100
0010
0100
1000
0001
,  // measure 30
0000
0001
0100
0010
0100
0001
1000
0100
,  // measure 31
0000
0010
0001
0100
0010
0100
0001
1000
,  // measure 32
0000
0100
1000
0010
1000
1000
0001
0001
,  // measure 33
0000
0001
0010
0100
1000
1000
0001
0001
,  // measure 34
0000
1000
0010
0100
0001
0001
1000
1000
,  // measure 35
0000
1000
0010
0100
0001
0001
1000
1000
,  // measure 36
0000
0000
1000
0000
0100
0000
0010
0000
1100
0000
0000
0000
1010
0000
0000
0100
,  // measure 37
0000
0000
0001
0000
0000
0010
0000
0000
1100
0000
0000
0000
1001
0000
0000
0000
,  // measure 38
0001
0000
0000
0000
0100
0000
0000
0000
1001
0000
0000
0000
1100
0000
0000
0100
,  // measure 39
0000
0000
0010
0000
0000
0001
0000
0000
1001
0000
0000
0000
0101
0000
0000
0000
,  // measure 40
1000
0000
0000
0000
0010
0000
0000
0000
1001
0000
0000
0000
0011
0000
0000
0010
,  // measure 41
0000
0000
0100
0000
0000
1000
0000
0000
1100
0000
0000
0000
1001
0000
0000
0000
,  // measure 42
0001
0000
0000
0000
1000
0000
0000
0000
1010
0000
0000
0000
0110
0000
0000
0100
,  // measure 43
0000
0000
0001
0000
0000
0010
0000
0000
0110
0000
0000
0000
1100
0000
0000
0000
,  // measure 44
0001
0000
0000
0000
1000
0000
0000
0000
1001
0000
0000
0000
0101
0000
0000
0001
,  // measure 45
0010
0000
0100
0000
1000
0001
0000
0000
1010
0000
0000
0000
0101
0000
0000
0000
,  // measure 46
1000
0000
0000
0000
0001
0000
0000
0000
0011
0000
0000
0000
1100
0000
0000
0001
,  // measure 47
0010
0000
0100
0000
1000
0001
0000
0000
1010
0000
0000
0000
0101
0000
0000
0000
,  // measure 48
1000
0000
0000
0000
0001
0000
0000
0000
1001
0000
0000
0000
1001
0000
0000
1000
,  // measure 49
0010
0000
0100
0000
0001
1000
0000
0000
0110
0000
0000
0000
0110
0000
0000
0000
,  // measure 50
0001
0000
0000
0000
1000
0000
0000
0000
0011
0000
0000
0000
0011
0000
0000
0001
,  // measure 51
0100
0000
0010
0000
1000
0001
0000
0000
1100
0000
0000
0000
1100
0000
0000
0000
,  // measure 52
0001
0000
0000
0000
1000
0000
0000
0000
0010
0000
1000
0000
0001
0000
0000
0100
,  // measure 53
0001
0000
1000
0000
0001
0000
0000
1000
0100
0000
1000
0000
0001
0000
0000
0010
,  // measure 54
0001
0000
1000
0000
0001
0000
0000
1000
0010
0000
1000
0000
0001
0000
0000
0010
,  // measure 55
0001
0000
0100
0000
0010
0000
0000
0010
1000
0000
0000
1000
0100
0000
0000
0100
,  // measure 56
0010
0000
0001
0000
1000
0000
0000
0001
0100
0000
0001
0000
1000
0000
0000
0100
,  // measure 57
1000
0000
0001
0000
0010
0000
0000
0001
1000
0000
0010
0000
1000
0000
0000
0001
,  // measure 58
0010
0000
0001
0000
1000
0000
0000
0100
1000
0000
0000
0010
1000
0000
0000
0001
,  // measure 59
1000
0000
0000
0010
1000
0000
0000
0100
1000
0000
1000
0000
0010
0000
0010
0000
,  // measure 60
0100
0001
0100
0001
0010
0100
0010
0002
2000
0000
0000
0000
0000
0000
0000
0000
,  // measure 61
0000
0000
3003
0000
;
