#VERSION:0.83;
#TITLE:Samba do Brasil;
#SUBTITLE:;
#ARTIST:Bellini;
#TITLETRANSLIT:;
#SUBTITLETRANSLIT:;
#ARTISTTRANSLIT:;
#GENRE:;
#ORIGIN:;
#CREDIT:;
#BANNER:[Mid Speed] - Samba do Brasil.png;
#BACKGROUND:[Mid Speed] - Samba do Brasil-bg.png;
#PREVIEWVID:;
#JACKET:[Mid Speed] - Samba do Brasil-jacket.png;
#CDIMAGE:;
#DISCIMAGE:;
#LYRICSPATH:[Mid Speed] - Samba do Brasil.lrc;
#CDTITLE:cdtitle.png;
#MUSIC:[Mid Speed] - Samba do Brasil.ogg;
#OFFSET:0.000000;
#SAMPLESTART:53.047112;
#SAMPLELENGTH:16.615391;
#SELECTABLE:YES;
#BPMS:0.000=130.000,
182.000=65.000,
200.000=130.000;
#STOPS:;
#DELAYS:;
#WARPS:;
#TIMESIGNATURES:0.000=4=4,
112.000=6=4,
118.000=4=4,
146.000=6=4,
152.000=4=4;
#TICKCOUNTS:0.000=4;
#COMBOS:0.000=1;
#SPEEDS:0.000=1.000=0.000=0,
199.000=1.042=0.000=0,
199.167=1.086=0.000=0,
199.333=1.131=0.000=0,
199.500=1.179=0.000=0,
199.667=1.228=0.000=0,
199.833=1.280=0.000=0,
200.000=1.333=0.000=0;
#SCROLLS:0.000=1.000,
192.000=1.015,
192.250=1.029,
192.500=1.044,
192.750=1.060,
193.000=1.075,
193.250=1.091,
193.500=1.107,
193.750=1.123,
194.000=1.139,
194.250=1.156,
194.500=1.173,
194.750=1.190,
195.000=1.207,
195.250=1.225,
195.500=1.243,
195.750=1.261,
196.000=1.279,
196.250=1.298,
196.500=1.317,
196.750=1.336,
197.000=1.355,
197.250=1.375,
197.500=1.395,
197.750=1.416,
198.000=1.436,
198.250=1.457,
198.500=1.478,
198.750=1.500,
200.000=0.750;
#FAKES:;
#LABELS:0.000=Song Start;
#BGCHANGES:;
#KEYSOUNDS:;
#ATTACKS:
;

//---------------dance-single - ----------------
#NOTEDATA:;
#CHARTNAME:C 01 X 03;
#STEPSTYPE:dance-single;
#DESCRIPTION:;
#CHARTSTYLE:;
#DIFFICULTY:Beginner;
#METER:1;
#RADARVALUES:0.091594,0.150340,0.029479,0.095805,0.000000,87.000000,83.000000,4.000000,13.000000,0.000000,0.000000,0.000000,0.000000,0.000000,0.091594,0.150340,0.029479,0.095805,0.000000,87.000000,83.000000,4.000000,13.000000,0.000000,0.000000,0.000000,0.000000,0.000000;
#CREDIT:vincentw;
#NOTES:
0000
0000
0000
0000
,
0000
0000
0000
0000
,
0000
0000
0000
0000
,
0000
0000
0000
0000
,
0000
0000
0000
0000
,
0000
0000
0000
0000
,
0000
0000
0000
0000
,
0000
0000
0000
0000
,
0000
0000
0000
0000
,
0000
0000
0000
0000
,
0000
0000
0000
0000
,
0000
0000
0000
0000
,
1001
0000
0000
0000
,
1000
0000
0000
0000
,
1000
0000
0000
0000
,
0001
0000
0001
0000
,
0001
0000
0000
0000
,
0200
0000
0300
0000
,
0020
0000
0030
0000
,
1000
0000
1000
0000
,
2000
0000
3000
0000
,
0001
0000
0000
0000
,
0010
0000
0000
0000
,
0001
0000
0010
0000
,
0002
0000
0000
0003
0000
0000
0000
0000
,
1000
0000
0000
0000
,
0100
0000
0000
0000
,
1000
0000
0100
0000
,
2000
0000
3000
0000
,
0000
0000
0001
0000
,
0010
0000
0001
0000
,
0000
0000
1000
0000
,
0100
0000
1000
0000
,
0000
0000
0001
0000
,
1000
0000
0001
0000
,
0000
0000
0100
0000
,
0010
0000
0200
0000
,
0000
0000
0300
0000
,
0110
0000
0010
0000
,
0010
0000
0100
0000
,
0100
0000
0100
0000
,
0100
0000
0001
0000
,
0001
0000
0001
0000
,
0001
0000
1000
0000
,
1000
0000
1000
0000
,
2000
0000
3000
0000
,
0002
0000
0003
0000
,
0020
0000
0030
0000
,
0200
0000
0300
0000
,
2000
0000
0000
0000
,
3000
0000
0000
0000
,
1001
0000
0001
0000
,
1000
0000
0001
0000
,
0100
0000
0001
0000
,
0100
0000
0001
0000
,
0100
0000
0010
0000
,
0100
0000
0010
0000
,
1000
0000
0010
0000
,
2000
0000
0000
0000
,
3000
0000
0000
0000
,
1000
0000
0100
0000
,
1000
0000
0100
0000
,
0010
0000
0100
0000
,
0010
0000
0100
0000
,
0010
0000
0001
0000
,
0010
0000
0001
0000
,
1000
0000
0001
0000
,
2000
0000
0000
3000
,
1001
0000
0000
0000
;

//---------------dance-single - ----------------
#NOTEDATA:;
#CHARTNAME:C 03 X 05;
#STEPSTYPE:dance-single;
#DESCRIPTION:;
#CHARTSTYLE:;
#DIFFICULTY:Easy;
#METER:3;
#RADARVALUES:0.194769,0.250567,0.073696,0.154762,0.000000,185.000000,175.000000,10.000000,21.000000,0.000000,0.000000,0.000000,0.000000,0.000000,0.194769,0.250567,0.073696,0.154762,0.000000,185.000000,175.000000,10.000000,21.000000,0.000000,0.000000,0.000000,0.000000,0.000000;
#CREDIT:vincentw;
#NOTES:
0000
0000
0000
0000
,
0000
0000
0000
0000
,
0000
0000
0000
0000
,
0000
0000
0000
0000
,
0000
0000
0000
0000
,
0000
0000
0000
0000
,
0000
0000
0000
0000
,
0000
0000
0000
0000
,
2000
0000
0000
0000
,
3002
0000
0000
0000
,
0203
0000
0320
0000
,
0230
0000
0000
0300
,
0110
0000
0000
0000
,
0001
0001
0001
0000
,
1000
1000
1000
0000
,
0100
0100
0100
0000
,
0010
0010
0010
0000
,
0002
0000
0000
0000
0000
0000
0000
0000
2000
0000
0000
3003
0000
0000
0000
0000
,
2000
0000
0000
0000
0000
0000
0000
0000
0002
0000
0000
3003
0000
0000
0000
0000
,
0200
0000
0320
0000
,
0130
0010
0110
0000
,
0001
0010
0001
0000
,
1000
0100
1000
0000
,
0002
0000
0023
0000
,
0230
0000
1300
0000
,
1000
0010
1000
0000
,
0001
0100
0001
0000
,
2000
0000
3020
0000
,
0100
0130
0110
0000
,
0000
0000
0001
0010
,
0100
1000
0001
0000
,
0001
0000
1000
0100
,
0010
0001
1000
0000
,
1000
0000
0001
0100
,
0010
1000
0001
0000
,
0001
0000
1000
0010
,
0100
0001
2000
0000
,
0002
3000
1003
0000
,
1001
0001
1000
0001
,
1000
0000
1010
0000
,
0010
1000
0010
1000
,
0010
0000
0110
0000
,
0100
0010
0100
0010
,
0100
0000
0101
0000
,
0001
0001
0100
0100
,
0001
0100
0101
0000
,
0001
0010
0100
0010
,
0001
0100
0010
0100
,
0001
1000
0100
1000
,
0001
0010
1000
0010
,
0002
0000
0000
0000
,
1003
0100
0010
0100
,
1000
0000
0001
0001
,
0001
0010
0100
0010
,
0001
0000
1000
1000
,
1000
0010
0100
0010
,
1000
0000
0001
0001
,
0001
0100
0010
0100
,
0002
0000
0000
0000
,
1003
0000
1000
0000
,
1001
0001
0100
0010
,
1000
0001
1000
0001
,
1000
0100
0010
0001
,
0100
0010
0100
0010
,
1000
0010
0100
0001
,
0100
0010
1000
0001
,
1000
0100
0001
0100
,
2000
0000
0001
3001
,
1001
0000
0000
0000
;

//---------------dance-single - ----------------
#NOTEDATA:;
#CHARTNAME:C 05 X 08;
#STEPSTYPE:dance-single;
#DESCRIPTION:;
#CHARTSTYLE:;
#DIFFICULTY:Medium;
#METER:5;
#RADARVALUES:0.295838,0.350794,0.058957,0.206350,0.040533,281.000000,273.000000,8.000000,28.000000,0.000000,0.000000,0.000000,0.000000,0.000000,0.295838,0.350794,0.058957,0.206350,0.040533,281.000000,273.000000,8.000000,28.000000,0.000000,0.000000,0.000000,0.000000,0.000000;
#CREDIT:vincentw;
#NOTES:
0000
0000
0000
0000
,
0000
0000
0000
0000
,
0000
0000
0000
0000
,
0000
0000
0000
0000
,
2000
0000
3002
0000
,
1003
0000
1000
1000
,
0020
0000
0230
0000
,
0310
0000
0010
0010
,
2000
0000
3200
0000
,
0310
0000
0001
0010
,
0002
0000
0203
0000
,
0320
0000
0100
1030
,
1010
0000
0000
0000
,
0101
0000
0001
0000
0100
0001
0100
0000
,
0001
0000
0010
0000
0001
0010
0001
0000
,
1000
0000
0100
0000
1000
0100
1000
0000
,
0010
0000
1000
0000
0010
1000
0010
0000
,
1000
0000
0000
0000
0001
0000
0000
0000
2000
0000
0000
3001
0000
0000
0000
0000
,
0010
0000
0000
0000
0100
0000
0000
0000
0020
0000
0000
0130
0000
0000
0000
0000
,
1000
0100
0010
0001
,
1000
0001
1001
0000
,
1000
0000
0100
0000
0010
0000
0100
1000
,
0001
0000
0100
0000
0010
0000
0100
0001
,
1000
0000
0010
0000
0001
0000
0010
1000
,
0002
0000
1000
0003
1000
0000
0001
1000
,
0001
0000
0010
0000
0100
0000
0010
0001
,
1000
0000
0010
0000
0100
0000
0010
1000
,
0001
0000
0100
0000
1000
0000
0100
0001
,
0020
0230
0310
0001
,
0200
0000
0000
0301
0010
0000
0001
0100
,
0001
0010
0100
0100
,
1000
0000
0010
0000
0100
0000
0001
0010
,
0001
0100
0001
0001
,
0010
0000
0001
0000
1000
0000
0010
0100
,
0010
1000
0001
0010
,
0100
0000
1000
0000
0001
0000
0100
0010
,
0100
0001
1000
0100
,
1000
0001
0220
0330
,
1001
1000
0010
0100
,
0001
0000
0000
0100
0000
0000
0010
0000
1000
0000
0000
0000
0010
0000
0000
0000
,
0100
0001
0010
0100
,
1000
0000
0000
0100
0000
0000
0010
0000
0001
0000
0000
0000
1000
0000
0000
0000
,
0001
0100
0010
1000
,
0001
0000
0000
1000
0000
0000
0010
0000
0100
0000
0000
0000
0001
0000
0000
0000
,
0010
1000
0010
0001
,
1000
0001
1001
0000
,
0001
0100
0002
0000
1003
0100
1000
0000
,
0001
0010
0002
0000
1003
0010
1000
0000
,
0001
1000
0002
0000
0013
0100
0010
0000
,
0001
0100
1000
0100
0002
0000
1000
1000
,
2003
0000
0000
0000
0000
0000
0000
0000
0000
0000
0000
0000
0000
0000
0000
0000
0000
0000
0000
0000
0000
0000
0000
0000
0000
0000
0000
0000
0000
0000
0000
0000
0000
0000
0000
0000
0000
0000
0000
0000
0000
0000
0000
0000
0000
0000
0000
0000
0000
0000
0000
0000
0000
0000
0000
0000
0000
0000
0000
0000
0000
0000
0000
0000
0000
0000
0000
0000
0000
0000
0000
0000
0000
0000
0000
0000
0000
0000
0000
0000
0000
0000
0000
0000
0000
0000
0000
0000
0000
0000
0000
0000
0000
0000
0000
0000
0002
0000
0000
0000
0000
0000
0000
0000
0000
0000
0000
0000
0000
0000
0000
0000
0000
0000
0000
0000
0000
0000
0000
0000
0000
0000
0000
0000
0000
0000
0000
0000
0000
0000
0000
0000
0000
0000
0000
0000
0000
0000
0000
0000
0000
0000
0000
0000
0000
0000
0000
0000
0000
0000
0000
0000
0000
0000
0000
0000
0000
0000
0000
0000
0000
0000
0000
0000
0000
0000
0000
0000
0000
0000
0000
0000
0000
0000
0000
0000
0000
0000
0000
0000
0000
0000
0000
0000
0000
0000
0000
0000
0000
0000
0000
3000
,
1003
0000
0010
1000
0200
0000
0000
0310
,
0001
0000
0000
0000
0001
0000
0000
0000
1000
0000
0000
0000
0010
0000
0000
0100
,
0000
0000
0001
0010
0200
0000
0000
0310
,
0001
0000
0000
0000
0001
0000
0000
0000
1000
0000
0000
0000
0001
0000
0000
0100
,
0000
0000
0010
1000
0200
0000
0000
1300
,
0010
0000
0000
0000
1000
0000
0000
0000
0001
0000
0000
0000
1000
0000
0000
1000
,
0000
0000
0001
0010
2000
0000
0000
3010
,
0002
0000
0000
0000
,
1003
0010
0100
0001
,
0101
0000
1000
0100
1000
0000
0001
0100
,
0001
0000
0000
0000
0001
0000
0000
0000
0010
0000
0000
0000
0100
0000
0000
1000
,
0000
0000
0001
0010
0001
0000
1000
0010
,
1000
0000
0000
0000
1000
0000
0000
0000
0001
0000
0000
0000
1000
0000
0000
0010
,
0000
0000
0100
0001
0010
0000
0100
1000
,
0010
0000
0000
0000
1000
0000
0000
0000
0100
0000
0000
0000
1000
0000
0000
1000
,
0000
0000
0001
0100
1000
0000
1000
0100
,
0001
0001
1000
0001
,
1001
0000
0000
0000
;

//---------------dance-single - ----------------
#NOTEDATA:;
#CHARTNAME:C 08 X 12;
#STEPSTYPE:dance-single;
#DESCRIPTION:;
#CHARTSTYLE:;
#DIFFICULTY:Hard;
#METER:8;
#RADARVALUES:0.503241,0.726646,0.073696,0.280046,0.534298,478.000000,468.000000,10.000000,38.000000,2.000000,0.000000,0.000000,0.000000,0.000000,0.503241,0.726646,0.073696,0.280046,0.534298,478.000000,468.000000,10.000000,38.000000,2.000000,0.000000,0.000000,0.000000,0.000000;
#CREDIT:vincentw;
#NOTES:
// measure 0
0000
0000
0000
0000
,  // measure 1
0000
0000
0000
0000
,  // measure 2
0000
0000
0000
0000
,  // measure 3
0000
0000
0000
0000
,  // measure 4
2000
0000
3200
0000
,  // measure 5
0310
0001
1000
0001
,  // measure 6
0200
0000
0320
0000
,  // measure 7
1030
1000
0001
1000
,  // measure 8
0002
0010
0023
0001
,  // measure 9
0130
0000
0000
0000
1000
0000
0000
0000
0001
0000
0000
0000
0100
0000
0000
0200
,  // measure 10
0000
0000
0000
0000
0010
0000
0000
0000
0302
0000
0000
0000
0000
0010
0000
0000
,  // measure 11
2003
0000
0000
0000
0000
0000
3010
0100
0010
0100
0010
0100
,  // measure 12
0010
0100
0100
0100
,  // measure 13
0110
0000
0001
0100
0000
0001
1000
0100
,  // measure 14
1000
0000
0001
0010
0000
0001
1000
0010
,  // measure 15
0100
0010
0100
0001
0010
0100
0010
0001
,  // measure 16
2000
0000
0000
0000
3010
0000
0010
0000
0100
0000
0000
0001
0000
0000
0001
0000
,  // measure 17
1000
0000
0010
0100
0010
0000
1000
0000
0002
0000
0000
0013
0000
0000
0001
0000
,  // measure 18
0001
0000
1000
0100
1000
0000
0001
0000
0020
0000
0000
0130
0000
0000
1000
0000
,  // measure 19
0100
1000
0010
0100
0001
0010
0001
1000
,  // measure 20
0010
0100
0001
0010
0100
1000
0001
0000
0000
1000
0000
0000
,  // measure 21
1001
0000
0000
0000
0001
0000
0100
0010
0000
0000
1000
0000
0010
0000
0100
0000
,  // measure 22
0001
0000
0001
0010
0000
0010
0000
0200
0000
0000
0300
1000
0010
0000
1000
0000
,  // measure 23
0001
0000
0000
0100
0001
0000
0010
0000
0100
0000
1000
0001
0000
0100
0000
0020
,  // measure 24
0000
0000
0000
1030
0010
0000
1000
0000
0100
0000
0001
0000
0100
0000
1000
0000
,  // measure 25
0002
0000
0000
0000
0013
0000
0001
2000
0000
0000
3000
0000
0010
0000
0100
0000
,  // measure 26
0001
0000
0001
1000
0000
0001
0000
0200
0000
0300
0000
0001
0000
0010
0000
0001
,  // measure 27
2000
0000
0000
0000
0000
0000
3001
0000
1000
0000
1000
0010
0000
0020
0000
0030
,  // measure 28
1000
0100
1000
0001
0010
0001
0020
0000
0000
0100
0000
0000
,  // measure 29
2000
0000
0000
0000
3000
0000
0100
0000
0031
0000
0000
1000
0100
0000
1000
0000
,  // measure 30
0002
0000
0000
0000
0103
0000
0010
0000
1000
0000
0000
0100
0010
0000
0100
0000
,  // measure 31
1000
0000
0000
0000
0001
0000
0000
0200
0000
0000
0000
0301
0010
0000
0100
0000
,  // measure 32
2000
0000
0000
0000
3010
0000
0100
0000
0010
0000
0000
0100
0001
0000
0100
0000
,  // measure 33
0001
0000
0000
0000
0010
0000
0000
0200
0000
0000
0000
1300
0010
0000
1000
0000
,  // measure 34
0002
0000
0000
0000
0103
0000
0010
0000
0100
0000
0000
0001
1000
0000
0010
0000
,  // measure 35
0001
0000
0000
0000
0010
0000
0000
2000
0000
0000
0000
3001
0010
0000
0001
0000
,  // measure 36
0200
0000
0000
0000
0310
0000
1000
0000
0002
0000
0000
0010
0000
0000
0010
0000
,  // measure 37
0000
0000
0000
1000
0000
0000
1003
0000
0001
0000
0000
0000
M00M
0000
0000
0000
,  // measure 38
1001
0000
0000
0001
0010
0000
0001
0000
0100
0000
0000
0010
1000
0000
0100
0000
,  // measure 39
1000
0000
0000
0001
0010
0000
0001
0000
0101
0000
0000
0010
0000
0000
0010
0000
,  // measure 40
1000
0100
0000
1000
0100
0000
0010
0000
0001
0100
0000
0001
0100
0000
0010
0000
,  // measure 41
1000
0000
0000
0001
1000
0000
0010
0000
1100
0000
0000
0001
0000
0000
0001
0000
,  // measure 42
1000
0000
0000
0010
0000
0000
0000
0000
0000
1000
0000
0000
0010
0000
0000
0000
0000
0000
0100
0000
0000
0000
0000
0000
0001
0000
0000
0000
0010
0000
0000
0000
0010
0000
0000
0000
0001
0000
0000
0000
0000
0000
0100
0000
0000
0000
0000
0000
,  // measure 43
0001
0000
0000
1000
0100
0000
0010
0000
0011
0000
0000
1000
0000
0000
1000
0000
,  // measure 44
0001
1000
0000
1000
0001
0000
0010
0000
0100
0010
0000
0010
0100
0000
1000
0000
,  // measure 45
0100
0000
0000
0000
1000
0000
0000
0000
0010
0000
0000
0000
0001
0000
0000
0000
0010
0000
0000
0000
1000
0000
0000
0000
0200
0000
0000
0000
0000
0000
0010
0000
0000
0000
0000
0000
0002
0000
0000
0000
0000
0000
0003
0000
0000
0010
0000
0000
,  // measure 46
1300
0000
0000
0000
0100
0000
1000
0000
0020
0000
0000
0000
0000
0000
0130
0000
0001
0000
0000
0000
0001
0000
0000
0000
1000
0000
0000
0000
0100
0000
0000
0010
,  // measure 47
0000
0000
0001
0100
0020
0000
0000
0130
0001
0000
1000
0000
0010
0000
1000
0000
,  // measure 48
0001
0000
0000
0100
0000
0000
0001
0000
1000
0000
0000
0100
0000
0000
1000
0000
0001
0000
0000
0010
0000
0000
0001
0000
1000
0000
0000
0010
0000
0000
1000
0000
,  // measure 49
1010
0000
0000
0000
0000
0000
0000
0000
0000
0000
0000
0000
0000
0000
0000
0000
0000
0000
0001
0000
0000
0000
0000
0000
0000
0000
0000
0000
0000
0000
0000
0000
0000
0000
0000
0000
0100
0000
0000
0000
0000
0000
0000
0000
0000
0000
0000
0000
1000
0000
0000
0000
0000
0000
0000
0000
0000
0000
0000
0000
0000
0000
0000
0000
0000
0000
0100
0000
0000
0000
0000
0000
0000
0000
0000
0000
0000
0000
0000
0000
0000
0000
0000
0000
0001
0000
0000
0000
0000
0000
0000
0000
0000
0000
0000
0000
1000
0000
0000
0000
0000
0000
0000
0000
0000
0000
0000
0000
0000
0000
0000
0000
0000
0000
0100
0000
0000
0000
0000
0000
0000
0000
0000
0000
0000
0000
0000
0000
0000
0000
0000
0000
0001
0000
0000
0000
0000
0000
0000
0000
0000
0000
0000
0000
1000
0000
0000
0000
0000
0000
0000
0000
0010
0000
0000
0000
0000
0000
0000
0000
0001
0000
0000
0000
0000
0000
0000
0000
1000
0000
0000
0000
0000
0000
0000
0000
0010
0000
0000
0000
0000
0000
0000
0000
0001
0000
0000
0000
0000
0000
0000
0000
,  // measure 50
0020
0000
0100
0000
0002
0000
0003
0100
,  // measure 51
1030
0000
0000
0010
1000
0000
0001
0000
1000
0000
0000
0100
1000
0000
0001
0000
,  // measure 52
0100
0000
0000
0010
0100
0000
1000
0000
0100
0000
0000
0010
0100
0000
0001
0100
,  // measure 53
0001
0000
0000
0100
0001
0000
1000
0000
0001
0000
0000
0010
0001
0000
1000
0000
,  // measure 54
0010
0000
0000
0100
0010
0000
0001
0000
0010
0000
0000
0100
0010
0000
1000
0100
,  // measure 55
1000
0000
0000
0100
1000
0000
0001
0000
1000
0000
0000
0010
1000
0000
0001
0000
,  // measure 56
0010
0000
0000
0100
0010
0000
1000
0000
0010
0000
0000
0100
0010
0000
0001
0010
,  // measure 57
0001
0000
0000
0010
0001
0000
1000
0000
0001
0000
0000
0100
0001
0000
1000
0000
,  // measure 58
0100
0000
0000
0010
0100
0000
0001
0000
0100
0000
0000
0010
0100
0000
1000
0000
,  // measure 59
0010
0000
0000
1000
0000
0000
0100
0000
0001
0000
0000
0100
0000
0000
1000
0000
,  // measure 60
1100
0000
0000
0100
0010
0000
0001
0000
0100
0000
0000
0010
1000
0000
0100
0010
,  // measure 61
0001
0000
0000
0010
0100
0000
1000
0000
0010
0000
0000
0100
0010
0000
0100
0001
,  // measure 62
0000
0001
0010
0000
1000
0000
0010
0000
0001
0000
0000
1000
0100
2000
0000
0000
,  // measure 63
3001
0000
0000
0100
0010
0000
0100
0000
1000
0000
0000
0100
0010
0000
1000
0001
,  // measure 64
1000
0000
0000
0010
0100
0000
0001
0000
0010
0000
0000
0100
1000
0020
0000
0000
,  // measure 65
0130
0000
0000
0001
0010
0000
0001
0000
1000
0000
0000
0100
1000
0000
1000
0010
,  // measure 66
0000
0100
0001
0000
1000
0000
0010
0000
0001
0000
0000
0010
1000
0002
0000
0000
,  // measure 67
1003
0000
0000
0000
0000
0000
0000
0000
0000
0100
0000
0000
0010
0000
0000
0000
0000
0000
0100
0000
0000
0000
0000
0000
0110
0000
0000
0000
0010
0000
0000
0000
1000
0000
0000
0000
0010
0000
0000
0000
0001
0000
0000
0000
1000
0000
0000
0000
,  // measure 68
1001
0000
0000
0000
;
