#TITLE:로꾸거!!!;
#SUBTITLE:;
#ARTIST:Super Junior;
#TITLETRANSLIT:Rokuko!!!;
#SUBTITLETRANSLIT:;
#ARTISTTRANSLIT:;
#GENRE:;
#CREDIT:usaminseijin;
#BANNER:[Mid Speed] - Rokuko!!!.png;
#BACKGROUND:[Mid Speed] - Rokuko!!!-bg.png;
#LYRICSPATH:[Mid Speed] - Rokuko!!!.lrc;
#CDTITLE:cdtitle.png;
#MUSIC:[Mid Speed] - Rokuko!!!.ogg;
#OFFSET:-0.304000;
#SAMPLESTART:8.912;
#SAMPLELENGTH:20.72;
#SELECTABLE:YES;
#BPMS:0.000000=139.000000
;
#STOPS:
;
#BGCHANGES:-1.000=[Mid Speed] - Rokuko!!!.avi=1.000=0=0=0=StretchNoLoop====,
99999=-nosongbg-=1.000=0=0=0 // don't automatically add -songbackground-
;
#KEYSOUNDS:;
#ATTACKS:;

//---------------dance-single - ----------------
#NOTES:
     dance-single:
     :
     Hard:
     9:
     0.629385,0.766107,0.521605,0.027943,0.251488,473.000000,417.000000,56.000000,3.000000,0.000000,0.000000,0.629385,0.766107,0.521605,0.027943,0.251488,473.000000,417.000000,56.000000,3.000000,0.000000,0.000000:
0000
0000
0000
0000
,
0000
0000
0000
0000
,
0000
0000
0000
0000
,
0000
0000
0000
0000
,
0000
0000
0000
0000
,
1000
0001
1001
0000
0100
0010
0110
0000
,
1000
0010
1010
0000
0001
0100
0101
0000
,
0001
1000
1001
0000
0010
0100
0110
0000
,
1000
0100
1100
0000
0001
0010
0011
0000
,
1000
0001
0100
0010
1000
0001
0100
0010
,
1000
0000
0001
0000
0100
0000
0001
0010
0001
0000
0100
0000
0001
0000
0100
0000
,
0010
1000
0001
1000
0010
0100
0001
0100
,
0010
0000
1000
0000
0001
0000
0100
0001
0100
0000
0001
0000
1000
0000
0001
0000
,
0010
0001
1000
0001
0100
0010
0000
0000
,
0100
0000
0010
0000
1000
0000
0001
0000
0100
0000
0010
0100
0010
0000
0000
0000
,
1000
0100
0000
0000
0010
0100
0010
0100
,
0001
1000
0001
1000
0001
0000
0100
0010
0100
0000
0001
0000
1000
0000
0001
0000
,
1001
0000
1000
0001
0100
0010
1000
0001
,
0100
0010
1000
0001
0110
0000
1001
0000
,
0110
0000
1000
0001
0100
0010
1000
0001
,
0110
0000
0110
0000
0000
0000
1001
0000
0000
0000
0100
0010
0100
0010
0100
0010
,
1000
0000
0001
0100
0001
1000
0000
0000
,
0010
0000
0100
0000
0001
0000
0100
0000
0001
1000
0001
1000
0001
1000
0001
1000
,
0010
0100
0000
0000
0001
1000
0001
1000
,
0010
0100
0010
0100
0010
0000
1000
0001
1000
0000
0001
0000
1000
0000
0001
0000
,
0100
0000
0010
1000
0001
0000
1000
0000
0001
0000
1000
0000
0100
0000
0010
0000
,
0001
0000
1000
0001
1000
0000
0010
0000
0100
0000
0001
0000
0010
0000
0100
0000
,
1000
0000
0001
0100
0001
0000
1000
0000
0001
0000
1000
0000
0100
0000
0010
0000
,
0001
0100
0010
1000
0011
0000
1100
0000
,
0001
0000
0100
0001
0100
0000
0001
0000
1000
0000
0010
0000
0100
0000
0010
0000
,
1000
0000
0010
0100
0010
0000
0100
0000
0001
0000
1000
0000
0010
0000
1000
0000
,
0000
1001
0000
0100
0001
1000
0001
1000
,
0110
0000
0000
1001
0000
0000
2002
0000
0000
0000
0000
0000
3003
0000
0000
0000
,
1000
0100
1000
0100
0010
0001
1000
0000
,
0001
1000
0001
1000
0010
0100
1001
0000
,
1000
0001
1001
0000
0100
0010
0110
0000
,
1000
0100
1100
0000
0010
0001
0011
0000
,
0010
0100
0110
0000
0001
1000
1001
0000
,
0100
0001
0101
0000
1000
0010
1010
0000
,
1000
0001
1000
0001
1000
0001
1000
0000
0010
0100
0010
0100
0010
0100
0010
0000
,
1000
0001
1000
0001
1000
0001
1000
0001
1000
0000
0001
0000
0110
0000
0000
0000
,
1000
0000
0100
1000
0100
0000
1000
0000
0001
0000
0010
0001
0010
0000
0001
0010
,
0001
0000
1000
0001
1000
0000
0001
1000
0001
0000
0010
0000
0011
0000
0000
0000
,
1000
0001
1000
0001
1000
0000
0001
1000
0010
0000
0100
0010
0100
0010
0100
0000
,
0001
0100
0010
1000
1001
1001
1001
0000
,
1000
0000
0010
1000
0010
0000
1000
0010
1000
0001
1000
0001
1000
0000
0001
0000
,
0100
0000
0001
0100
0001
0000
0100
0001
1000
0000
0100
0000
1100
0000
0000
0000
,
1000
0100
1100
0000
0010
0001
0011
0000
,
1000
0001
1001
0000
0100
0010
0110
0000
,
0100
1000
1100
0000
0001
0010
0011
0000
,
0010
0100
0110
0000
0001
1000
1001
0000
,
0000
2001
0000
0000
3001
1000
0001
1000
,
0010
0000
0100
0000
0010
0000
0100
0000
0001
1000
0001
1000
0001
1000
0001
1000
,
0010
0110
0000
0000
1000
0001
1000
0001
,
0100
0010
0100
0010
0100
0000
0010
0000
1000
0000
0001
0000
1000
0000
0001
0000
,
1000
0001
1001
0000
1000
0001
1001
0000
,
0100
0010
0110
0000
0100
0010
0110
0000
,
0001
1000
1001
0000
0001
1000
1001
0000
,
0010
0100
0110
0000
1001
1001
1001
0000
;

//---------------dance-single - ----------------
#NOTES:
     dance-single:
     :
     Medium:
     7:
     0.419147,0.437775,0.074515,0.195602,0.004657,315.000000,307.000000,8.000000,21.000000,0.000000,0.000000,0.419147,0.437775,0.074515,0.195602,0.004657,315.000000,307.000000,8.000000,21.000000,0.000000,0.000000:
0000
0000
0000
0000
,
0000
0000
0000
0000
,
0000
0000
0000
0000
,
0000
0000
0000
0000
,
0000
0000
0000
0000
,
1000
0001
1000
0000
0010
0100
0010
0000
,
1000
0010
1000
0000
0001
0100
0001
0000
,
1000
0001
1000
0000
0010
0100
0010
0000
,
1000
0100
1000
0000
0001
0010
0001
0000
,
0000
2000
0000
0000
3001
0100
0001
0100
,
0010
1000
0010
2000
0000
0000
3001
0000
,
0000
2000
0000
0000
3001
0100
0001
0100
,
0010
1000
0010
2000
0000
0000
3001
0000
,
0000
1000
0001
1000
0001
1000
0000
0000
,
0010
0100
0010
0200
0000
0000
0310
0000
,
1000
0001
0000
0000
0100
0010
0100
0010
,
0200
0000
0000
0310
,
1001
0000
1000
0100
1000
0100
0010
0001
,
1000
0001
1000
0001
0200
0000
0310
0000
,
0110
0000
1000
0001
1000
0001
1000
0001
,
0100
0010
0000
2002
0000
0000
3003
0000
,
1001
0000
0001
0100
0001
0100
0000
0000
,
0010
1000
0010
1000
0002
0000
1003
0000
,
0010
0100
0000
0000
0001
1000
0001
1000
,
0002
0000
0000
1003
,
0010
0100
0001
1000
0002
0000
0003
0000
,
0100
0010
1000
0001
2000
0000
3000
0000
,
0010
0100
0001
1000
0002
0000
0003
0000
,
1000
0010
0100
0001
1000
0000
1001
0000
,
1000
0010
0100
0001
2000
0000
3000
0000
,
0001
0100
0010
1000
0002
0000
0003
0000
,
0000
1001
0000
0010
0100
0010
0100
0010
,
1000
0000
0000
0001
0000
0000
2002
0000
0000
0000
0000
0000
3003
0000
0000
0000
,
1000
0100
1000
0100
0010
0001
0000
0000
,
1000
0001
1000
0001
0100
0010
0100
0000
,
0001
1000
0001
0000
0100
0010
0100
0000
,
0001
0100
0001
0000
1000
0010
1000
0000
,
0010
0100
0010
0000
1000
0001
1000
0000
,
0001
0010
0001
0000
1000
0100
1000
0000
,
0001
1000
0001
1000
0010
0100
0010
0100
,
0001
1000
0001
1000
0001
1000
0010
0000
,
1000
0100
1000
0100
0010
0001
0010
0001
,
1000
0001
1000
0001
0010
0001
0010
0000
,
0001
1000
0001
1000
0010
0100
0010
0100
,
0001
0100
0010
1000
0001
1000
0001
0000
,
1000
0010
1000
0010
1000
0001
1000
0001
,
0100
0001
0100
0001
1000
0100
1000
0000
,
0001
0100
0001
0000
1000
0010
1000
0000
,
0001
1000
0001
0000
0100
0010
0100
0000
,
0001
0100
0001
0000
1000
0010
1000
0000
,
0010
0100
0010
0000
1000
0001
1000
0000
,
0000
0002
0000
0000
1003
0001
1000
0001
,
0100
0010
0100
0010
0200
0000
0310
0000
,
0100
0010
0000
0000
1000
0001
1000
0001
,
0200
0000
0000
0310
,
1000
0001
1000
0000
0001
1000
0001
0000
,
0100
0010
0100
0000
0010
0100
0010
0000
,
1000
0001
1000
0000
0001
1000
0001
0000
,
0100
0010
0100
0000
0001
0000
1001
0000
;

//---------------dance-single - ----------------
#NOTES:
     dance-single:
     :
     Easy:
     4:
     0.364591,0.383053,0.493662,0.000000,0.000000,274.000000,221.000000,53.000000,0.000000,0.000000,0.000000,0.364591,0.383053,0.493662,0.000000,0.000000,274.000000,221.000000,53.000000,0.000000,0.000000,0.000000:
0000
0000
0000
0000
,
0000
0000
0000
0000
,
0000
0000
0000
0000
,
0000
0000
0000
0000
,
0000
0000
0000
0000
,
1000
1001
0010
0110
,
0100
0000
0110
0000
1000
0001
1000
0000
,
0001
1001
0100
0110
,
1000
0000
1001
0000
0010
0100
0010
0000
,
1000
0100
0001
0100
,
1000
0100
0001
1001
,
1000
0010
0001
0010
,
1000
0010
0001
1001
,
0100
0001
0010
1000
,
0100
0001
0010
1000
,
1001
0100
0010
0100
,
0001
1000
0010
1001
,
1000
0010
0001
0010
,
1000
0010
0001
1001
,
1000
0100
0001
0100
,
1000
0100
0001
1001
,
0100
1000
0010
0001
,
0100
1000
0010
0001
,
1000
0001
1000
0010
,
0100
0001
1000
1001
,
0100
0010
1001
0000
,
1000
0001
0110
0000
,
0010
0100
1001
0000
,
0001
1000
0001
0110
,
0100
0010
1001
0000
,
1000
0001
0110
0000
,
1000
0001
1000
0001
,
0100
0010
0100
0110
,
1000
0100
0001
0100
,
1000
0010
0001
0100
,
1000
1001
0010
0110
,
0100
0000
0110
0000
1000
0001
1000
0000
,
0001
1001
0100
0110
,
1000
0000
1001
0000
0010
0100
0010
0000
,
1000
1001
0100
0110
,
0001
1001
0010
0110
,
1000
1100
0010
0011
,
1000
0000
1010
0000
0001
0100
0001
0000
,
1000
1001
0010
0110
,
1000
0000
1001
0000
0100
0010
0100
0000
,
0001
1001
0100
0110
,
1000
0000
1001
0000
0010
0100
0010
0000
,
1000
1001
0010
0110
,
0100
0000
0110
0000
1000
0001
1000
0000
,
0001
1001
0100
0110
,
1000
0000
1001
0000
0010
0100
0010
0000
,
1000
0100
0001
0100
,
1000
0010
0001
0010
,
1000
0100
0001
0010
,
1000
0100
0001
1001
,
0100
0110
0010
0110
,
1000
1001
0001
1001
,
0100
1010
0010
0101
,
1000
0000
1001
0000
0001
1000
0001
0000
;

//---------------dance-single - ----------------
#NOTES:
     dance-single:
     :
     Beginner:
     1:
     0.133062,0.137387,0.018629,0.121087,0.000000,100.000000,98.000000,2.000000,13.000000,0.000000,0.000000,0.133062,0.137387,0.018629,0.121087,0.000000,100.000000,98.000000,2.000000,13.000000,0.000000,0.000000:
// measure 0
0000
0000
0000
0000
,  // measure 1
0000
0000
0000
0000
,  // measure 2
0000
0000
0000
0000
,  // measure 3
0000
0000
0000
0000
,  // measure 4
0000
0000
0000
0000
,  // measure 5
1000
0000
1000
0000
,  // measure 6
0001
0000
0001
0000
,  // measure 7
0100
0000
0100
0000
,  // measure 8
0010
0000
0010
0000
,  // measure 9
1000
0000
1000
0000
,  // measure 10
0001
0000
0001
0000
,  // measure 11
1000
0000
1000
0000
,  // measure 12
0010
0000
0010
0000
,  // measure 13
0100
0000
0100
0000
,  // measure 14
0001
0000
0001
0000
,  // measure 15
1000
0000
1000
0000
,  // measure 16
0010
0000
0010
0000
,  // measure 17
1000
0000
1000
0000
,  // measure 18
0001
0000
0001
0000
,  // measure 19
0100
0000
0100
0000
,  // measure 20
0010
0000
0010
0000
,  // measure 21
1000
0000
1000
0000
,  // measure 22
0100
0000
0100
0000
,  // measure 23
0010
0000
0010
0000
,  // measure 24
0001
0000
0001
0000
,  // measure 25
2000
0000
3000
0000
,  // measure 26
0002
0000
0003
0000
,  // measure 27
0200
0000
0300
0000
,  // measure 28
0020
0000
0030
0000
,  // measure 29
2000
0000
3000
0000
,  // measure 30
0200
0000
0300
0000
,  // measure 31
0020
0000
0030
0000
,  // measure 32
0002
0000
0003
0000
,  // measure 33
2002
0000
3003
0000
,  // measure 34
0220
0000
0330
0000
,  // measure 35
1000
0000
1000
0000
,  // measure 36
0001
0000
0001
0000
,  // measure 37
0100
0000
0100
0000
,  // measure 38
0010
0000
0010
0000
,  // measure 39
1000
0000
1000
0000
,  // measure 40
0001
0000
0001
0000
,  // measure 41
0100
0000
0100
0000
,  // measure 42
0001
0000
0001
0000
,  // measure 43
1000
0000
1000
0000
,  // measure 44
0010
0000
0010
0000
,  // measure 45
0100
0000
0100
0000
,  // measure 46
0010
0000
0010
0000
,  // measure 47
1000
0000
1000
0000
,  // measure 48
0001
0000
0001
0000
,  // measure 49
0100
0000
0100
0000
,  // measure 50
0010
0000
0010
0000
,  // measure 51
1000
0000
1000
0000
,  // measure 52
0100
0000
0100
0000
,  // measure 53
0010
0000
0010
0000
,  // measure 54
0001
0000
0001
0000
,  // measure 55
1000
0000
1000
0000
,  // measure 56
0001
0000
0001
0000
,  // measure 57
0100
0000
0100
0000
,  // measure 58
0010
0000
0020
0000
,  // measure 59
0030
0000
0000
0000
;
