#TITLE:ポコポンペコーリャ;
#ARTIST:NEWS;
#TITLETRANSLIT:Pokopon Pekorya;
#CREDIT:Lisek;
#BANNER:[Mid Speed] - Pokopon Pekorya.png;
#BACKGROUND:[Mid Speed] - Pokopon Pekorya-bg.png;
#LYRICSPATH:;
#CDTITLE:cdtitle.png;
#MUSIC:[Mid Speed] - Pokopon Pekorya.ogg;
#OFFSET:-0.524;
#SAMPLESTART:48.498;
#SAMPLELENGTH:14.600;
#SELECTABLE:YES;
#BPMS:0.000=130.000;
#STOPS:;
#BGCHANGES:;

//---------------dance-single - Lisek----------------
#NOTES:
     dance-single:
     Lisek:
     Hard:
     7:
     0.469,0.584,0.341,0.180,0.110: // measure 1
0000
0000
0000
0000
,  // measure 2
0000
0000
0000
0000
,  // measure 3
0000
0000
0000
0000
,  // measure 4
0000
0000
0000
0000
,  // measure 5
1000
0010
0000
0100
,  // measure 6
0000
0001
0000
0010
,  // measure 7
0000
0100
0000
1000
,  // measure 8
0001
0000
0100
0000
0010
1000
0000
0000
,  // measure 9
0002
0000
1000
0000
0010
0000
1003
0100
,  // measure 10
0001
0000
0100
0000
1000
0000
0000
0010
0100
0000
0101
0000
0101
0000
0000
0000
,  // measure 11
2000
0000
0001
0000
0100
0000
3001
0100
,  // measure 12
1000
0000
0100
0000
0001
0010
0100
0000
1000
0000
1010
0000
1010
0000
0000
0000
,  // measure 13
0002
0000
1000
0000
0010
0000
1003
0010
,  // measure 14
0001
0000
0010
0000
1000
0000
0000
0010
0100
0000
0101
0000
0101
0000
0000
0000
,  // measure 15
2000
0000
0001
0000
0100
0000
3001
0010
,  // measure 16
1000
0000
0010
0000
0001
0000
0000
0010
0100
0000
1000
0000
0001
0000
0000
0000
,  // measure 17
1001
0000
0110
0000
0000
1001
1001
0000
,  // measure 18
0001
0000
0000
1000
0010
0000
0000
0100
,  // measure 19
0000
0010
0000
1000
0100
0000
1000
0000
,  // measure 20
0001
0000
0000
0010
0100
0000
0000
0010
,  // measure 21
0000
0001
0000
1000
0001
0000
0100
0000
,  // measure 22
0001
0010
0100
0000
1000
0100
0010
0000
,  // measure 23
0001
0100
0010
0000
1000
0010
0100
0000
,  // measure 24
0001
0010
0100
0000
1000
0100
0010
0001
,  // measure 25
0100
1000
0100
0001
1000
0100
0001
0100
,  // measure 26
0000
0000
0000
1000
0100
1000
0100
0010
,  // measure 27
0001
0000
0000
0100
0001
0000
0000
0100
0010
0000
1000
0000
0000
0000
2200
0000
,  // measure 28
0000
3300
0000
0001
0010
0100
1000
0001
,  // measure 29
1000
0000
0000
0010
0100
0000
0000
0010
1000
0000
0001
0000
0000
0000
0202
0000
,  // measure 30
0000
0303
0000
1000
0100
0010
0001
1000
,  // measure 31
0001
0000
0100
0100
0000
0010
0010
0010
,  // measure 32
0000
1000
1000
1000
0000
0001
0001
1000
,  // measure 33
0001
0000
0000
0000
0010
0000
0000
0000
0100
0000
0000
1000
0000
0000
0001
0000
,  // measure 34
0010
1000
0010
0001
0100
1000
0100
0010
,  // measure 35
1000
0000
0000
0001
0100
0000
0000
0001
1000
0000
0010
0000
0000
0000
0022
0000
,  // measure 36
0000
0033
0000
1000
0010
0100
0001
1000
,  // measure 37
0001
0000
0000
1000
0010
0000
0000
1000
0001
0000
0100
0000
0000
0000
2020
0000
,  // measure 38
0000
3030
0000
0001
0100
0010
1000
0001
,  // measure 39
1000
0000
0010
0010
0000
0100
0100
0100
,  // measure 40
0000
0001
0001
0001
0000
1000
1000
0001
,  // measure 41
1001
1001
0000
0110
0110
0000
1001
1001
,  // measure 42
0000
0110
0110
0010
1000
0001
0100
0010
,  // measure 43
2000
0000
0001
0000
0100
0000
3001
0100
,  // measure 44
1000
0000
0100
0000
0001
0000
0000
0100
0010
0000
1010
0000
1010
0000
0000
0000
,  // measure 45
0002
0000
1000
0000
0010
0000
1003
0100
,  // measure 46
0001
0000
0100
0000
1000
0010
0100
0000
0001
0000
0011
0000
0011
0000
0000
0000
,  // measure 47
2000
0000
0001
0000
0100
0000
3001
0010
,  // measure 48
1000
0000
0010
0000
0001
0000
0000
0010
0100
0000
1100
0000
1100
0000
0000
0000
,  // measure 49
0002
0000
1000
0000
0010
0000
1003
0010
,  // measure 50
0001
0000
0010
0000
1000
0000
0000
0010
0100
0000
0101
0000
0101
0000
0000
0000
,  // measure 51
0001
0010
0100
1000
0001
0000
1000
0100
0010
0001
1000
0001
0100
0000
0010
0000
,  // measure 52
0110
1001
0110
2002
,  // measure 53
0000
0000
0000
0000
,  // measure 54
3003
0000
0000
0000
;

//---------------dance-single - ----------------
#NOTES:
     dance-single:
     Lisek:
     Medium:
     5:
     0.268,0.345,0.010,0.160,0.040:
0000
0000
0000
0000
,
0000
0000
0000
0000
,
0000
0000
0000
0000
,
0000
0000
0000
0000
,
1000
0001
0000
1000
,
0000
0010
0000
0100
,
0000
0001
0000
1000
,
0000
0010
0000
0000
,
2000
0100
0010
3001
,
0100
0000
0000
0000
0010
0000
0000
0100
0010
0000
0000
0000
0000
0000
0000
0000
,
2000
0001
0010
3100
,
1000
0010
0100
0000
,
0002
0010
0100
1003
,
0010
0000
0000
0000
0100
0000
0000
0010
0100
0000
0000
0000
0000
0000
0000
0000
,
0002
1000
0100
0013
,
0001
0100
0010
0000
,
1000
0000
0001
0000
0000
1000
0001
0000
,
1000
0000
0000
0000
0100
0000
0000
1000
,
0000
1000
0000
0000
0001
0000
0000
0000
,
0100
0000
0000
0000
0010
0000
0000
0100
,
0000
0100
0000
0000
0001
0000
0000
0000
,
1000
0100
0010
0001
,
1000
0010
0100
0001
,
1000
0000
0100
0000
0010
0000
0001
2000
,
0000
0001
0001
3001
,
0000
0000
0000
0000
,
0001
0000
0000
1000
0001
0000
0000
0000
1000
0000
0001
0000
0000
0000
2000
0000
,
0000
3000
0000
0000
0000
0000
0000
0000
,
0010
0000
0000
0100
0010
0000
0000
0000
0100
0000
0010
0000
0000
0000
0200
0000
,
0000
0300
0000
0000
0000
0000
0000
0000
,
0001
0000
1000
0001
0000
1000
0001
1000
,
0000
0010
0100
0010
0000
1000
0001
1000
,
0001
0000
0010
0000
0100
0000
1000
0002
,
0000
1000
1000
1003
,
0001
0000
0000
1000
0001
0000
0000
0000
1000
0000
0001
0000
0000
0000
2000
0000
,
0000
3000
0000
0000
0000
0000
0000
0000
,
0010
0000
0000
0100
0010
0000
0000
0000
0100
0000
0010
0000
0000
0000
0200
0000
,
0000
0300
0000
0000
0000
0000
0000
0000
,
0001
0000
1000
0001
0000
1000
0001
1000
,
0000
0010
0100
0010
0000
1000
0001
1000
,
0001
0001
0000
1000
1000
0000
0001
0001
,
0000
1000
1000
0000
0000
0000
0000
0000
,
0002
0010
0100
1003
,
0010
0000
0000
0000
0100
0000
0000
0010
0100
0000
0000
0000
0000
0000
0000
0000
,
0002
1000
0100
0013
,
0001
0100
0010
0000
,
2000
0100
0010
3001
,
0100
0000
0000
0000
0010
0000
0000
0100
0010
0000
0000
0000
0000
0000
0000
0000
,
2000
0001
0010
3100
,
1000
0001
1000
0000
,
0001
1000
0010
0100
,
0001
1000
0001
2002
,
0000
0000
0000
0000
,
3003
0000
0000
0000
;

//---------------dance-single - ----------------
#NOTES:
     dance-single:
     Lisek:
     Beginner:
     1:
     0.052,0.133,0.000,0.050,0.000:
0000
0000
0000
0000
,
0000
0000
0000
0000
,
0000
0000
0000
0000
,
0000
0000
0000
0000
,
0000
0000
0000
0000
,
0000
0000
0000
0000
,
0000
0000
0000
0000
,
0000
0000
0000
0000
,
1000
0000
0000
0000
,
0000
0000
0000
0000
,
0001
0000
0000
0000
,
0000
0000
0000
0000
,
0100
0000
0000
0000
,
0000
0000
0000
0000
,
0010
0000
0000
0000
,
0000
0000
0000
0000
,
0000
0000
0000
0000
,
1000
0000
0000
0000
,
0001
0000
0000
0000
,
1000
0000
0000
0000
,
0001
0000
0000
0000
,
0100
0000
0000
0000
,
0010
0000
0000
0000
,
0100
0000
0000
0000
,
0010
0000
0000
0000
,
0000
0000
0000
0000
,
2000
0000
0000
0000
,
0000
3000
0000
0000
0000
0000
0000
0000
,
0002
0000
0000
0000
,
0000
0003
0000
0000
0000
0000
0000
0000
,
1000
0000
0000
0000
,
0001
0000
0000
0000
,
1000
0000
0000
0000
,
0000
0000
0000
0000
,
0002
0000
0000
0000
,
0000
0003
0000
0000
0000
0000
0000
0000
,
2000
0000
0000
0000
,
0000
3000
0000
0000
0000
0000
0000
0000
,
0001
0000
0000
0000
,
1000
0000
0000
0000
,
0001
0000
0000
0000
,
0000
0000
0000
0000
,
1000
0000
0000
0000
,
0000
0000
0000
0000
,
0100
0000
0000
0000
,
0000
0000
0000
0000
,
0010
0000
0000
0000
,
0000
0000
0000
0000
,
0001
0000
0000
0000
,
0000
0000
0000
0000
,
1000
0000
0000
0000
,
0001
1000
0001
2000
,
0000
0000
0000
0000
,
3000
0000
0000
0000
;

//---------------dance-single - ----------------
#NOTES:
     dance-single:
     Lisek:
     Easy:
     2:
     0.132,0.186,0.010,0.040,0.000:
0000
0000
0000
0000
,
0000
0000
0000
0000
,
0000
0000
0000
0000
,
0000
0000
0000
0000
,
0000
1000
0000
1000
,
0000
0001
0000
0001
,
0000
1000
0000
1000
,
0000
0001
0000
0000
,
1000
0000
0010
0000
,
0100
0000
0001
0000
,
1000
0000
0100
0000
,
0010
0000
0001
0000
,
1000
0000
0010
0000
,
0100
0000
0001
0000
,
1000
0000
0100
0000
,
0010
0000
0001
0000
,
2000
0000
0000
3000
,
0001
0000
0010
0000
,
0001
0000
0100
0000
,
0010
0000
1000
0000
,
0010
0000
0100
0000
,
0001
0000
1000
0000
,
0010
0000
1000
0000
,
0001
0000
0010
0000
,
0002
0000
0000
0000
,
0003
0000
0000
0000
,
1000
0000
0001
0000
,
1000
0000
0000
0000
,
0010
0000
0100
0000
,
0010
0000
0000
0000
,
1000
0000
0001
0000
,
0100
0000
0010
0000
,
1000
0000
0001
0000
,
1000
0000
0000
0000
,
0001
0000
0100
0000
,
0001
0000
0000
0000
,
1000
0000
0010
0000
,
1000
0000
0000
0000
,
0001
0000
0010
0000
,
0100
0000
1000
0000
,
0001
0000
1000
0000
,
0001
0000
0000
0000
,
1000
0000
0010
0000
,
0100
0000
0001
0000
,
1000
0000
0100
0000
,
0010
0000
0001
0000
,
1000
0000
0010
0000
,
0100
0000
0001
0000
,
1000
0000
0100
0000
,
0010
0000
0001
0000
,
1000
0000
0001
0000
,
1000
0001
1000
2002
,
0000
0000
0000
0000
,
3003
0000
0000
0000
;
