#TITLE:NO LIMIT -オレ達に限界は無い-;
#SUBTITLE:;
#ARTIST:SUPER STAR 満-MITSURU- vs. 伝説のダンサー マイク;
#TITLETRANSLIT:NO LIMIT -oretachi ni genkai wa nai-;
#SUBTITLETRANSLIT:;
#ARTISTTRANSLIT:SUPER STAR MITSURU vs. Mike, The Legendary Dancer;
#GENRE:;
#CREDIT:;
#BANNER:beatmania IIDX 23 copula - NO LIMIT-bn.png;
#BACKGROUND:beatmania IIDX 23 copula - NO LIMIT-bg.png;
#LYRICSPATH:;
#CDTITLE:;
#MUSIC:beatmania IIDX 23 copula - NO LIMIT.mp3;
#OFFSET:-6.900;
#SAMPLESTART:38.880;
#SAMPLELENGTH:12.800;
#SELECTABLE:YES;
#BPMS:0.000=150.000
;
#STOPS:
;
#BGCHANGES:;
#KEYSOUNDS:;
#ATTACKS:;

//---------------dance-single - ----------------
#NOTES:
     dance-single:
     :
     Hard:
     8:
     0.547,0.489,0.491,0.059,0.207,387.000,58.000,7.000,0.000,0.000,0.000,0.547,0.489,0.491,0.059,0.207,387.000,58.000,7.000,0.000,0.000,0.000: // measure 0
1000
0100
0001
0100
1000
0100
0001
0000
,  // measure 1
0001
0010
1000
0010
0001
0010
1000
0000
,  // measure 2
0100
0001
0100
1000
0100
0001
0100
0000
,  // measure 3
2002
0000
0000
3003
,  // measure 4
1001
0000
0000
0000
0100
0000
0010
0000
0100
0000
0000
0100
0000
0000
0001
0000
,  // measure 5
0001
0000
0000
0001
0000
0000
0010
0000
0000
0000
1000
0000
0100
0000
0001
0000
,  // measure 6
1000
0000
0100
0000
1000
0000
0100
0000
0100
0000
0000
0100
0000
0000
0010
0000
,  // measure 7
0010
0000
0000
0100
0000
0000
1000
0000
0000
0000
0100
0000
0010
0000
0001
0000
,  // measure 8
1000
0000
0100
0000
1000
0000
0100
0000
0001
0000
0000
0001
0000
0000
1000
0000
,  // measure 9
0010
0000
0000
0010
0000
0000
1000
0000
0000
0000
0100
0000
1000
0000
0001
0000
,  // measure 10
0100
0000
0001
0000
0010
0000
0100
0000
0100
0000
0000
1000
0000
0000
0001
0000
,  // measure 11
0001
0000
0000
1000
0000
0000
0100
0000
0000
0000
0010
0000
0001
0000
1000
0000
,  // measure 12
0100
0000
0010
0000
0001
0000
0010
0000
0100
0000
0000
0001
0000
0000
0100
0000
,  // measure 13
1000
0000
0000
0100
0000
0000
0010
0000
0000
0000
0100
0000
0100
0000
1000
0000
,  // measure 14
0001
0000
0010
0000
0100
0000
0010
0000
0100
0000
0000
0100
0000
0000
1000
0000
,  // measure 15
0001
0000
0000
1000
0000
0000
0100
0000
0000
0000
0001
0000
0001
0000
1000
0000
,  // measure 16
0100
0000
0000
1000
0000
0000
0100
0000
0010
0000
0000
0001
0000
0000
1000
0000
,  // measure 17
0100
0000
0000
0001
0000
0000
0100
0000
0000
0000
0001
0000
1000
0000
0010
0000
,  // measure 18
0100
0000
0000
1000
0000
0000
0100
0000
0010
0000
0000
0001
0000
0000
1000
0000
,  // measure 19
0100
1000
0001
0100
0001
1000
0001
0000
,  // measure 20
1000
0100
0010
0100
0010
0000
0000
0000
,  // measure 21
1100
0000
0000
0001
0101
0000
0000
0000
,  // measure 22
0001
0010
0100
1000
0100
0000
0001
0000
,  // measure 23
0101
0000
0000
1000
1010
0000
0000
0000
,  // measure 24
1000
0100
0010
0001
0010
0000
0000
0000
,  // measure 25
1100
0000
0000
0010
0011
0000
0000
0000
,  // measure 26
0010
0100
0010
0100
0001
0000
1000
0000
,  // measure 27
0001
0000
0000
0010
0011
0000
0000
0000
,  // measure 28
1100
1100
0101
0101
,  // measure 29
0011
0011
1010
1010
,  // measure 30
1100
1100
1010
1010
,  // measure 31
0011
0011
0101
0101
,  // measure 32
1000
0010
0001
0010
1000
0010
0001
0010
,  // measure 33
1000
0010
0001
0010
1000
0010
0001
0000
,  // measure 34
1000
0100
0001
0100
1000
0100
0001
0100
,  // measure 35
2002
0000
3003
0000
,  // measure 36
1001
0000
0000
0000
0100
0000
1000
0000
1100
0000
0000
0100
0000
0000
0010
0000
,  // measure 37
0000
0000
0001
0000
1000
0100
1000
0000
0100
0000
0000
0010
0000
0000
0001
0000
,  // measure 38
1000
0000
0000
0000
0001
0000
0001
0000
0100
0000
0000
0001
0000
0000
0100
0000
,  // measure 39
0000
0000
0010
0000
1000
0010
1000
0000
0100
0000
0000
1100
0000
0000
0100
0000
,  // measure 40
0001
0000
0000
0000
0010
0000
0001
0000
0010
0000
0000
0010
0000
0000
0011
0000
,  // measure 41
0000
0000
1000
0000
0001
1000
0001
0000
0100
0000
0000
1100
0000
0000
0000
0000
,  // measure 42
0001
0000
0000
0000
0100
0000
0001
0000
0101
0000
0000
0001
0000
0000
0010
0000
,  // measure 43
0000
0000
0001
0000
1000
0010
1000
0000
0010
0000
0000
1010
0000
0000
0010
0000
,  // measure 44
0100
0000
0000
0000
0001
0000
0010
0000
0001
0000
0000
0001
0000
0000
1001
0000
,  // measure 45
0000
0000
0010
0000
1000
0010
1000
0000
0100
0000
0000
0101
0000
0000
0001
1000
,  // measure 46
0001
0000
0000
0000
0100
0000
0010
0000
0001
0000
0000
0001
0000
0000
0100
0000
,  // measure 47
0000
0000
1000
0000
1000
0100
1000
0000
0001
0000
0000
0001
0010
0001
0010
0001
,  // measure 48
0010
0000
0000
0000
0010
0000
1000
0000
0100
0000
0000
0001
0000
0000
0100
0000
,  // measure 49
0000
0000
1000
0000
0100
1000
0100
0000
1000
0000
0000
0001
0000
0000
1000
0000
,  // measure 50
0100
0000
0000
0000
1000
0000
0001
0000
0100
0000
0000
1000
0000
0000
0001
0000
,  // measure 51
0000
0000
0000
0000
0000
0000
1000
0000
0000
0001
0000
0000
1000
0000
0000
0000
0100
0000
0000
0000
0010
0000
0000
0000
0001
0000
0000
0000
0010
0000
0000
0000
0100
0000
0000
0000
1000
0000
0000
0000
0100
0000
0000
0000
0010
0000
0000
0000
,  // measure 52
0001
0001
0100
1000
2000
0000
3000
0000
,  // measure 53
0100
0000
0000
0001
1001
0000
0000
0000
,  // measure 54
0100
0100
0010
0100
0100
0000
1000
0000
,  // measure 55
1100
0000
0000
0010
0110
0000
0000
0000
,  // measure 56
1000
0010
0001
0010
2000
0000
3000
0000
,  // measure 57
0100
0000
0000
1000
1100
0000
0000
0000
,  // measure 58
0100
0001
0100
0010
0100
0000
0001
0000
,  // measure 59
1001
0000
0000
0001
0101
0000
0000
0000
,  // measure 60
0110
0110
0110
0110
,  // measure 61
0110
0110
0110
0110
,  // measure 62
0110
0110
0110
0110
,  // measure 63
0110
0110
0110
0110
,  // measure 64
1000
1000
0001
0001
1000
1000
0001
0001
,  // measure 65
1000
1000
0001
0001
1000
1000
0001
0001
,  // measure 66
0100
0100
0010
0010
0100
0100
0010
0010
,  // measure 67
0200
0000
0000
0000
0300
0000
0001
0100
,  // measure 68
1001
0000
0000
0000
;

//---------------dance-single - ----------------
#NOTES:
     dance-single:
     :
     Medium:
     5:
     0.350,0.288,0.076,0.136,0.131,264.000,9.000,16.000,0.000,0.000,0.000,0.350,0.288,0.076,0.136,0.131,264.000,9.000,16.000,0.000,0.000,0.000:
1000
0000
1000
0000
1000
0100
0001
0000
,
0001
0000
0001
0000
0001
0100
1000
0000
,
1000
0000
1000
0000
1000
0010
0001
0000
,
2002
0000
0000
3003
,
0100
0000
0000
0000
0001
0000
0000
0000
0100
0000
0000
0100
0000
0000
0000
0000
,
0001
0000
0000
0001
0000
0000
0000
0000
0100
0000
0000
0000
1000
0000
0000
0000
,
0100
0000
0000
0000
0001
0000
0000
0000
0010
0000
0000
0010
0000
0000
0000
0000
,
1000
0000
0000
1000
0000
0000
0000
0000
0100
0000
0000
0000
0001
0000
0000
0000
,
0100
0000
0000
0000
1000
0000
0000
0000
0010
0000
0000
0010
0000
0000
0000
0000
,
0001
0000
0000
0001
0000
0000
0000
0000
1000
0000
0000
0000
1000
0000
0000
0000
,
0100
0000
0000
0000
0001
0000
0000
0000
0010
0000
0000
0010
0000
0000
0000
0000
,
1000
0000
0000
1000
0000
0000
0000
0000
0100
0000
0000
0000
0001
0000
0000
0000
,
0100
0000
0000
0000
0001
0000
0000
0000
0010
0000
0000
0010
0000
0000
0000
0000
,
0100
0000
0000
0100
0000
0000
0000
0000
0001
0000
0000
0000
0100
0000
0000
0000
,
1000
0000
0000
0000
0100
0000
0000
0000
1000
0000
0000
1000
0000
0000
0000
0000
,
0001
0000
0000
0001
0000
0000
0000
0000
0100
0000
0000
0000
0001
0000
0000
0000
,
0100
0000
0000
0000
1000
0000
0000
0000
0001
0000
0000
0001
0000
0000
0000
0000
,
1000
0000
0000
1000
0000
0000
0000
0000
0100
0000
0000
0000
0001
0000
0000
0000
,
0010
0000
0000
0000
0100
0000
0000
0000
0001
0000
0000
0100
0000
0000
0000
0000
,
1000
0000
0000
0100
0000
0000
0000
0000
2002
0000
0000
0000
3003
0000
0000
0000
,
0100
1000
0100
0000
,
0001
0000
0000
1000
2000
0000
3000
0000
,
0001
0100
1000
0010
,
0100
0000
0000
0001
0002
0000
0003
0000
,
1000
0100
0001
0010
,
0100
0000
0000
0010
0020
0000
0030
0000
,
1000
0100
0001
0001
,
0010
0000
0000
0000
0000
0000
0100
0000
0200
0000
0000
0300
0000
0000
0000
0000
,
0001
0001
0010
0010
,
1000
1000
0100
0100
,
1000
1000
0010
0010
,
0001
0001
0100
0100
,
1000
0001
1000
0000
0100
0000
0100
0000
,
0010
0100
0010
0000
0001
0000
0001
0000
,
0100
0010
0100
0000
1000
0000
1000
0000
,
2002
0000
0000
3003
,
0100
0000
0000
0000
1000
0000
0000
0000
0100
0000
0000
0100
0000
0000
0000
0000
,
0001
0000
0000
0000
0001
0000
0000
0000
0010
0000
0000
0010
0000
0000
0000
0000
,
0100
0000
0000
0000
0001
0000
0000
0000
0100
0000
0000
0100
0000
0000
0000
0000
,
1000
0000
0000
0000
1000
0000
0000
0000
0010
0000
0000
0010
0000
0000
0000
0000
,
0001
0000
0000
0000
1000
0000
0000
0000
0001
0000
0000
0001
0000
0000
0000
0000
,
0100
0000
0000
0000
1000
0000
0000
0000
1000
0000
0000
1000
0000
0000
0000
0000
,
0001
0000
0000
0000
0100
0000
0000
0000
0010
0000
0000
0010
0000
0000
0000
0000
,
0001
0000
0000
0000
0100
0000
0000
0000
1000
0000
0000
0001
0000
0000
0000
0000
,
1000
0000
0000
0000
0100
0000
0000
0000
0010
0000
0000
0100
0000
0000
0000
0000
,
0001
0000
0000
0000
1000
0000
0000
0000
0001
0000
0000
0100
0000
0000
0000
0000
,
0001
0000
0000
0000
1000
0000
0000
0000
0100
0000
0000
1000
0000
0000
0000
0000
,
0001
0000
0000
0000
0100
0000
0000
0000
0010
0000
0000
1000
0000
0000
0000
0000
,
0001
0000
0000
0000
0100
0000
0000
0000
0010
0000
0000
0001
0000
0000
0000
0000
,
1000
0000
0000
0000
0100
0000
0000
0000
0001
0000
0000
0100
0000
0000
0000
0000
,
1000
0000
0000
0000
0001
0000
0000
0000
0100
0000
0000
1000
0000
0000
0000
0000
,
1000
0100
0001
0100
,
0001
0100
0001
0100
,
1000
0000
0000
0010
0020
0000
0030
0000
,
1000
0100
1000
0100
,
0001
0000
0000
0100
0200
0000
0300
0000
,
0001
0010
0001
0010
,
1000
0000
0000
0001
0002
0000
0003
0000
,
1000
0100
0001
0100
,
1000
0000
0000
0001
0002
0000
0003
0000
,
1100
0100
0100
0100
,
0101
0001
0001
0001
,
0011
0010
0010
0010
,
1010
1000
1000
1000
,
0001
0100
0001
0000
0100
0000
0001
0000
,
1000
0100
1000
0000
0100
0000
1000
0000
,
0010
0100
0010
0000
0100
0010
0100
0000
,
2002
0000
0000
3003
,
1001
0000
0000
0000
;

//---------------dance-single - ----------------
#NOTES:
     dance-single:
     :
     Easy:
     4:
     0.287,0.288,0.119,0.102,0.000,211.000,14.000,12.000,0.000,0.000,0.000,0.287,0.288,0.119,0.102,0.000,211.000,14.000,12.000,0.000,0.000,0.000:
1000
1000
1000
1000
,
0001
0001
0001
0001
,
0100
0000
0010
0000
,
0220
0000
0000
0330
,
1000
0100
0001
0000
,
0001
0000
0100
1000
,
0100
1000
0010
0000
,
0010
0000
0001
0001
,
0100
0001
0100
0000
,
0100
0000
1000
1000
,
0010
0001
0010
0000
,
0010
0000
1000
0100
,
0001
0001
0100
0100
,
0001
0100
0001
0100
,
1000
1000
0100
0100
,
1000
0100
1000
0100
,
1000
1000
0010
0010
,
1000
0010
1000
0010
,
0001
0001
0010
0010
,
0001
0010
0001
0010
,
2200
0000
0000
0000
,
0000
0000
3300
0000
,
0202
0000
0000
0000
,
0000
0000
0303
0000
,
0022
0000
0000
0000
,
0000
0000
0033
0000
,
2020
0000
0000
0000
,
0000
0000
3030
0000
,
1000
1000
0001
0001
,
1000
1000
0001
0001
,
1000
0001
1000
0001
,
1000
0001
1000
0001
,
0010
0010
0100
0100
,
0010
0010
0100
0100
,
0010
0100
0010
0100
,
0020
0000
0000
0030
,
1000
0100
0001
0000
,
0001
0100
1000
0000
,
1000
0010
0001
0000
,
0001
0010
1000
0000
,
1000
0100
0001
0000
,
0001
0100
1000
0000
,
1000
0010
0001
0000
,
0001
0010
1000
0000
,
0001
0100
1000
0100
,
0001
0100
1000
0000
,
1000
0010
0001
0010
,
1000
0010
0001
0000
,
1000
0100
0001
0100
,
1000
0100
0001
0000
,
1000
0010
0001
0010
,
1000
0010
0001
0100
,
1000
1000
0001
0001
,
1000
0001
1001
0000
,
0010
0010
0100
0100
,
0010
0100
0110
0000
,
0001
0001
1000
1000
,
0001
1000
1001
0000
,
0100
0100
0010
0010
,
0100
0010
0110
0000
,
1000
0100
1000
1100
,
0001
0100
0001
0101
,
0001
0010
0001
0011
,
1000
0010
1000
1010
,
0100
1000
0100
0001
,
0100
1000
0010
0001
,
0010
1000
0100
0001
,
0002
0000
0000
0003
,
1001
0000
0000
0000
;

//---------------dance-single - ----------------
#NOTES:
     dance-single:
     :
     Beginner:
     2:
     0.137,0.144,0.008,0.008,0.000,111.000,1.000,1.000,0.000,0.000,0.000,0.137,0.144,0.008,0.008,0.000,111.000,1.000,1.000,0.000,0.000,0.000:
0000
0000
0000
0000
,
0000
0000
0000
0000
,
0000
0000
0000
0000
,
0000
0000
0000
0000
,
1000
0000
0001
0000
,
1000
0000
0001
0000
,
1000
0000
0001
0000
,
1000
0000
0000
0000
,
0001
0000
1000
0000
,
0001
0000
1000
0000
,
0001
0000
1000
0000
,
0001
0000
0000
0000
,
0010
0000
0010
0000
,
0100
0000
0100
0000
,
0010
0000
0010
0000
,
0100
0000
0100
0000
,
0010
0000
0010
0000
,
0100
0000
0100
0000
,
0010
0000
0000
0000
,
0000
0000
0000
0000
,
1000
0000
0000
0000
,
0001
0000
0000
0000
,
1000
0000
0000
0000
,
0001
0000
0000
0000
,
0010
0000
0000
0000
,
0100
0000
0000
0000
,
0010
0000
0000
0000
,
0100
0000
0000
0000
,
1000
0000
1000
0000
,
0001
0000
0001
0000
,
1000
0000
1000
0000
,
0001
0000
0001
0000
,
0010
0000
0010
0000
,
0100
0000
0100
0000
,
0010
0000
0010
0000
,
0200
0000
0000
0300
,
0001
0000
1000
0000
,
0001
0000
1000
0000
,
0001
0000
1000
0000
,
0001
0000
1000
0000
,
0010
0000
0100
0000
,
0010
0000
0100
0000
,
0010
0000
0100
0000
,
0010
0000
0100
0000
,
1000
0000
0001
0000
,
1000
0000
0001
0000
,
1000
0000
0001
0000
,
1000
0000
0001
0000
,
0100
0000
0010
0000
,
0100
0000
0010
0000
,
0100
0000
0010
0000
,
0100
0000
0000
0000
,
0001
0000
0001
0000
,
1000
1000
1000
0000
,
0010
0000
0010
0000
,
0100
0100
0100
0000
,
1000
0000
1000
0000
,
0001
0001
0001
0000
,
0010
0000
0010
0000
,
0100
0100
0100
0000
,
1000
0000
1000
1000
,
0000
0000
0001
0001
,
0000
0000
0010
0010
,
0000
0000
0100
0100
,
0000
0000
0000
0000
,
0000
0000
0000
0000
,
0000
0000
0000
0000
,
0000
0000
0000
0000
,
1001
0000
0000
0000
;
