#VERSION:0.83;
#TITLE:Motivation is Dead;
#SUBTITLE:;
#ARTIST:Pinocchio-P;
#TITLETRANSLIT:;
#SUBTITLETRANSLIT:;
#ARTISTTRANSLIT:;
#GENRE:;
#ORIGIN:;
#CREDIT:;
#BANNER:Motivation is Dead-banner.png;
#BACKGROUND:Motivation is Dead-bg.png;
#PREVIEWVID:;
#JACKET:Motivation is Dead-jacket.png;
#CDIMAGE:;
#DISCIMAGE:;
#LYRICSPATH:;
#CDTITLE:;
#MUSIC:Motivation is Dead.ogg;
#OFFSET:-0.440000;
#SAMPLESTART:37.939995;
#SAMPLELENGTH:12.000000;
#SELECTABLE:YES;
#BPMS:0.000=128.000;
#STOPS:;
#DELAYS:;
#WARPS:;
#TIMESIGNATURES:0.000=4=4;
#TICKCOUNTS:0.000=4;
#COMBOS:0.000=1;
#SPEEDS:0.000=1.000=0.000=0;
#SCROLLS:0.000=1.000;
#FAKES:;
#LABELS:0.000=Song Start;
#BGCHANGES:;
#KEYSOUNDS:;
#ATTACKS:
;

//---------------dance-single - ----------------
#NOTEDATA:;
#CHARTNAME:;
#STEPSTYPE:dance-single;
#DESCRIPTION:;
#CHARTSTYLE:;
#DIFFICULTY:Hard;
#METER:9;
#RADARVALUES:0.573085,0.680228,0.348835,0.207121,0.539604,368.000000,336.000000,32.000000,19.000000,0.000000,0.000000,0.000000,0.000000,0.000000,0.573085,0.680228,0.348835,0.207121,0.539604,368.000000,336.000000,32.000000,19.000000,0.000000,0.000000,0.000000,0.000000,0.000000;
#CREDIT:;
#NOTES:
// measure 0
0000
0000
0000
0000
,  // measure 1
0000
0000
0000
0000
,  // measure 2
0000
0000
0000
0000
,  // measure 3
0000
0000
0000
0000
,  // measure 4
1000
0000
1000
0000
1000
0000
1000
0001
,  // measure 5
0100
0000
0100
0000
0100
0010
0100
0000
,  // measure 6
0001
0000
0001
0000
0001
1000
0001
1000
,  // measure 7
0100
0000
0100
0010
0100
0010
0200
0300
,  // measure 8
1000
0000
1000
0010
1000
0010
0100
0000
,  // measure 9
0001
0010
0001
0010
0001
0010
0100
0000
,  // measure 10
1000
0000
1000
0001
1000
0010
0200
0300
,  // measure 11
0001
1000
0001
0010
0200
0000
0310
0000
,  // measure 12
1100
0000
0101
0000
1100
0001
0101
1000
,  // measure 13
1010
0000
0011
0000
1010
0001
0011
1000
,  // measure 14
1001
0000
0110
0000
1001
0000
0110
0001
,  // measure 15
0101
0000
1100
0000
0101
1000
1100
0001
,  // measure 16
0101
0001
1001
0001
0011
0001
1000
0100
,  // measure 17
1100
1000
1001
1000
1010
0010
0100
0001
,  // measure 18
2000
0000
0000
0000
,  // measure 19
3000
0000
0000
0000
0000
0000
0000
0000
0000
0000
0000
0000
0000
0001
0100
0010
,  // measure 20
1000
0100
0000
0010
0000
0000
0001
0000
2000
0000
0000
0000
3010
0000
0100
0010
,  // measure 21
1000
0100
0000
0010
0000
0000
0100
0000
1000
0000
1000
0010
0000
1000
0100
0010
,  // measure 22
0001
0100
0000
0010
0000
0000
1000
0000
0002
0000
0000
0000
0013
0000
0100
0010
,  // measure 23
0001
0100
0000
0010
0000
0000
0100
0000
0001
0000
0001
1000
0000
0001
0010
0100
,  // measure 24
1000
0010
0000
0100
0000
0000
0010
0000
1000
0000
1000
0001
0000
1000
0100
0010
,  // measure 25
0001
0100
0000
0010
0000
0000
0100
0000
0001
0000
0001
0000
1000
0000
0001
0000
,  // measure 26
0021
0000
0000
0000
0100
0000
0000
0000
1000
0000
0000
0000
0130
0000
1000
0001
,  // measure 27
0200
0000
0000
0000
0010
0000
0000
0000
0001
0000
0000
0000
0310
1000
0100
0010
,  // measure 28
0001
0000
0001
0100
0000
0010
1000
0000
0002
0000
0000
0000
0013
0000
0100
0010
,  // measure 29
0001
0100
0000
0010
0000
0000
0100
0000
0001
0000
0001
1000
0000
0001
0100
0010
,  // measure 30
1000
0000
1000
0100
0000
0010
0001
0000
2000
0000
0000
0000
3010
0000
0100
0010
,  // measure 31
1000
0100
0000
0010
0000
0000
0100
0000
1000
0000
1000
0001
0000
1000
0010
0100
,  // measure 32
0001
0010
0000
0100
0000
0000
0010
0000
0001
0000
0001
1000
0000
0001
0100
0010
,  // measure 33
1000
0100
0000
0010
0000
0000
0100
0000
1001
0000
0000
1001
0000
0000
1001
0000
,  // measure 34
2002
0000
3003
1001
,  // measure 35
1000
0010
0000
0100
0000
0000
0010
0000
1000
0000
1000
0100
0000
1000
0010
0100
,  // measure 36
0001
0000
0001
0010
0000
0100
1000
0000
0002
0000
0000
0000
0103
0000
0010
0100
,  // measure 37
0001
0010
0000
0100
0000
0000
0010
0000
0001
0000
0000
0100
0000
0000
0010
0000
,  // measure 38
1000
0000
0200
0000
0001
0000
0000
0000
1300
0000
0000
0000
0001
0000
0100
0010
,  // measure 39
1000
0000
0000
0010
0000
0000
0100
0000
0001
0000
0000
0010
0000
0000
0100
0000
,  // measure 40
1000
0000
0001
0000
2001
0000
0000
3010
0000
0010
1000
0010
0100
0000
0000
0000
,  // measure 41
0001
0000
0001
0000
1000
0100
0000
0010
0000
0010
0100
1000
0001
0000
0000
0000
,  // measure 42
1001
0000
0000
0000
1002
0000
0000
0013
0000
0010
0001
0010
0100
0000
1000
0000
,  // measure 43
0001
0000
0001
0000
0100
0010
0000
1000
0000
0010
0100
0000
2002
0000
3003
0000
,  // measure 44
1000
0000
1000
0000
0001
0010
0000
0001
1000
0010
1000
0010
1000
0000
0001
0000
,  // measure 45
0010
0100
0010
0100
1000
0100
1000
0100
0010
0100
0010
0001
0020
0000
0030
0000
,  // measure 46
0100
0000
0100
0000
1000
0001
0000
1000
0001
0100
0001
0100
0010
0100
0010
0000
,  // measure 47
1000
0000
1000
0000
0001
0010
0001
0010
0100
0010
0100
0000
1000
0100
0010
0001
,  // measure 48
1000
0000
0000
0000
;

//---------------dance-single - ----------------
#NOTEDATA:;
#CHARTNAME:;
#STEPSTYPE:dance-single;
#DESCRIPTION:;
#CHARTSTYLE:;
#DIFFICULTY:Medium;
#METER:5;
#RADARVALUES:0.333262,0.416421,0.316131,0.098110,0.005451,214.000000,185.000000,29.000000,9.000000,0.000000,0.000000,0.000000,0.000000,0.000000,0.333262,0.416421,0.316131,0.098110,0.005451,214.000000,185.000000,29.000000,9.000000,0.000000,0.000000,0.000000,0.000000,0.000000;
#CREDIT:;
#NOTES:
0000
0000
0000
0000
,
0000
0000
0000
0000
,
0000
0000
0000
0000
,
0000
0000
0000
0000
,
1000
0000
1000
0000
1000
0000
1000
0001
,
0100
0100
0200
0300
,
0001
0000
0001
0000
0001
0000
0001
1000
,
0100
0100
0200
0300
,
1000
0000
1000
0000
1000
0010
1000
0000
,
0001
0000
0001
0000
0001
0010
0001
0000
,
1000
0000
1000
0000
1000
0100
0010
0000
,
0001
1000
0001
1000
0001
0000
0100
0000
,
1000
1010
0100
0001
,
0010
1100
0010
0001
,
0100
1010
0100
1010
,
0100
0001
1000
0100
,
0010
1100
0010
0001
,
1000
1010
0001
0101
,
2000
0000
0000
0000
,
3000
0000
0000
0000
,
0001
0000
0011
0000
0010
0100
1000
0000
,
0010
0101
0010
1100
,
1000
0000
1010
0000
0010
0100
0001
0000
,
0010
1100
0010
0101
,
0001
0000
1100
0000
0100
0010
0001
0000
,
1000
0000
0101
0000
0100
0010
1000
0001
,
0020
0000
0100
0000
0001
0000
0130
1000
,
0002
1000
1000
1003
,
0010
0000
0101
0000
0100
0010
1000
0000
,
0001
0011
1000
1010
,
0001
0000
0011
0000
0100
1000
0001
0000
,
0100
1010
0100
0101
,
1000
0000
1100
0000
0100
0010
0001
1000
,
0010
0000
0000
0000
0110
0000
0000
0000
1001
0000
0000
1001
0000
0000
2002
0000
,
0000
0000
0000
3003
,
1000
0000
1100
0000
0100
0010
0001
0000
,
0100
1010
0100
0101
,
1000
0100
0001
0100
,
2000
0010
0100
3100
,
0020
0000
0000
0030
,
0001
0100
0010
0100
,
0001
0001
0001
0001
,
1000
0100
1000
1000
,
0001
1000
0010
0010
,
1000
0000
1000
0001
0100
0001
0010
0001
,
1000
0001
0100
0010
,
1000
0000
1000
0001
0100
0001
1000
0100
,
1000
0010
0100
0001
;

//---------------dance-single - ----------------
#NOTEDATA:;
#CHARTNAME:;
#STEPSTYPE:dance-single;
#DESCRIPTION:;
#CHARTSTYLE:;
#DIFFICULTY:Easy;
#METER:3;
#RADARVALUES:0.238267,0.338342,0.098110,0.087209,0.000000,153.000000,144.000000,9.000000,8.000000,0.000000,0.000000,0.000000,0.000000,0.000000,0.238267,0.338342,0.098110,0.087209,0.000000,153.000000,144.000000,9.000000,8.000000,0.000000,0.000000,0.000000,0.000000,0.000000;
#CREDIT:;
#NOTES:
0000
0000
0000
0000
,
0000
0000
0000
0000
,
0000
0000
0000
0000
,
0000
0000
0000
0000
,
1000
0000
1000
0000
,
0001
0000
0001
0000
,
0010
0000
0010
0000
,
0100
0000
0100
0000
,
1000
0000
0010
0000
,
1000
0000
0100
0000
,
0010
0000
0001
0000
,
0100
0000
0100
0000
,
1001
0100
0010
0000
,
1001
0010
0100
0000
,
1001
0100
0010
0100
,
1001
0010
0100
0000
,
1001
1000
0100
0010
,
1001
0001
1001
1000
,
2002
0000
0000
0000
,
3003
0000
0000
0000
,
1000
0010
0100
0100
,
0001
0010
0100
0010
,
0001
0100
0010
0010
,
1000
0100
0010
0100
,
1000
0010
0100
0001
,
1000
0100
0010
0001
,
2000
0010
0010
3010
,
0200
0001
0001
0301
,
1000
0100
0010
0001
,
1000
0010
0100
0010
,
1000
0100
0001
0100
,
1000
0010
0001
0010
,
1000
0100
0010
0001
,
1000
0001
0200
0000
,
0310
0000
0000
1001
,
1000
0100
0010
0001
,
0100
0010
0100
0001
,
1000
0100
0010
0001
,
2000
0010
3002
0010
,
2003
0000
0000
3000
,
0001
0001
0100
0100
,
0010
0010
1000
1000
,
0001
0010
0100
1000
,
0001
0100
0010
0010
,
1000
1000
0100
0100
,
0010
0010
0001
0001
,
1000
0010
0100
0001
,
1000
0100
0010
0001
;
