#TITLE:みんなのきもち;
#SUBTITLE:;
#ARTIST:市原仁奈;
#TITLETRANSLIT:Minna no Kimochi;
#SUBTITLETRANSLIT:;
#ARTISTTRANSLIT:Nina Ichihara;
#GENRE:;
#CREDIT:usaminseijin;
#BANNER:[Mid Speed] - Minna no Kimochi.png;
#BACKGROUND:[Mid Speed] - Minna no Kimochi-bg.png;
#LYRICSPATH:[Mid Speed] - Minna no Kimochi.lrc;
#CDTITLE:cdtitle.png;
#MUSIC:[Mid Speed] - Minna no Kimochi.ogg;
#OFFSET:-0.846000;
#SAMPLESTART:12.594000;
#SAMPLELENGTH:15.105000;
#SELECTABLE:YES;
#BPMS:0.000000=143.000000
;
#STOPS:28.000000=0.839000,
90.000000=1.259000,
211.000000=0.839157,
273.000000=1.258743
;
#BGCHANGES:;
#KEYSOUNDS:;
#ATTACKS:;

//---------------dance-single - ----------------
#NOTES:
     dance-single:
     :
     Hard:
     8:
     0.593378,0.596107,0.415364,0.074902,0.047665,610.000000,549.000000,61.000000,11.000000,0.000000,0.000000,0.593378,0.596107,0.415364,0.074902,0.047665,610.000000,549.000000,61.000000,11.000000,0.000000,0.000000:
0000
0000
0000
0000
,
0000
0000
0000
0000
,
0000
0000
0000
0000
,
0000
0000
0000
0000
,
1000
0000
1001
0000
0001
0001
1001
0000
,
0100
0000
0110
0000
0010
0010
0110
0000
,
1001
1001
1001
1001
,
2002
3003
0000
0000
1001
0000
0000
0000
1000
0000
0100
0000
1000
0000
0100
0000
,
0010
0001
0010
0001
1000
0010
1000
0010
,
0100
0001
0100
0001
1000
0001
1000
0001
,
0100
0010
0100
0010
1000
0100
1000
0100
,
0010
0001
0010
0001
1000
0001
1000
0001
,
1000
0010
1000
0010
0100
0001
0100
0001
,
1000
0001
1000
0001
1000
0000
1001
0000
,
0100
0000
0000
0000
0010
0000
0100
0000
0000
0000
0001
1000
0001
1000
0001
1000
,
0001
0100
0010
1000
0001
1000
0001
1000
,
0010
0100
0010
0100
0001
0010
0001
0010
,
0100
1000
0100
1000
0010
1000
0010
1000
,
0001
0100
0001
0100
0001
1000
0001
1000
,
0010
0100
0010
0100
0001
1000
0001
1000
,
0010
1000
0010
1000
0001
1000
0001
1000
,
0001
0010
0001
0010
0001
0000
1001
0000
,
0100
0000
0010
0100
0000
0000
1000
0001
,
1000
0001
0100
0010
0100
0010
1000
0100
,
1000
0010
1000
0001
1001
0000
0010
0100
,
0010
0100
0001
1000
0001
1000
0010
1000
,
0001
1000
0010
0100
0110
0000
1000
0001
,
1000
0001
0100
0001
0100
0001
1000
0010
,
1000
0100
1000
0001
1001
0000
1000
0001
,
1000
0001
0100
0010
0100
0010
1000
0100
,
1000
0100
0010
0001
0011
0000
2002
0000
,
0000
0000
0000
0000
,
0000
0000
0000
0000
3003
0000
1000
0100
,
1000
0100
0010
0001
0010
0001
1001
1000
,
1001
0000
1001
0001
1001
0000
1000
0010
,
1000
0010
0100
0001
0100
0001
0110
0100
,
0110
0000
0110
0010
0110
0000
1000
0001
,
1000
0001
0100
0010
0100
0010
1001
0001
,
1001
0000
0000
0000
1000
0001
1000
0000
0001
0000
1000
0001
0100
0000
0100
0000
,
0110
0000
0001
0001
1001
0000
0110
0000
,
1001
0000
0220
0000
0330
0000
1000
0010
,
1000
0010
0100
0001
0100
0001
1001
0001
,
1001
0000
1001
1000
1001
0000
0000
0100
,
0000
0100
0000
0010
0000
0010
0000
1000
,
0000
0000
1000
0000
0000
0000
0001
0000
1000
0000
0001
1000
0001
0000
1000
0000
,
0001
1000
0010
0100
0010
0100
0110
0100
,
0110
0000
0000
0000
0100
0010
0100
0000
0010
0000
0100
0010
1000
0000
1000
0000
,
1001
0000
0010
0010
0110
0000
1001
0000
,
0110
0000
2002
0000
3003
0000
1000
0100
,
1000
0010
1000
0001
0100
0001
0010
0001
,
0010
0002
0000
0000
0003
0000
1000
0001
,
1000
0001
1000
0100
1000
0100
4000
0000
,
0001
0000
0000
0000
0001
0000
0000
0000
3001
0000
0000
0000
2002
3003
0000
0000
,
1001
0000
0001
0010
0001
0010
0100
1000
,
0100
1000
0001
0100
0001
0100
0010
1000
,
0010
1000
0001
1000
0001
1000
0010
0100
,
0010
0100
0001
0010
0001
0010
0100
1000
,
0100
1000
0001
1000
0001
1000
0001
0100
,
0001
0100
0010
1000
0010
1000
0001
1000
,
0001
1000
0001
0000
1001
0000
0010
0000
,
0100
0000
0010
0000
0000
0000
1000
0001
1000
0001
1000
0001
1000
0000
0010
0000
,
0100
0001
1000
0001
1000
0001
0100
0010
,
0100
0010
1000
0100
1000
0100
0010
0001
,
0010
0001
0100
0001
0100
0001
1000
0010
,
1000
0010
1000
0001
1000
0001
0100
0010
,
0100
0010
1000
0001
1000
0001
0100
0001
,
0100
0001
1000
0001
1000
0001
1000
0100
,
1000
0100
1000
0000
1001
0000
0010
0000
,
0100
0010
0000
0000
1000
0001
1000
0001
,
0100
0001
0100
0001
0010
0001
0010
0001
,
1000
0001
1001
0000
1000
0100
1000
0100
,
1000
0010
1000
0010
1000
0001
1000
0001
,
1000
0100
1100
0000
1000
0010
1000
0010
,
0100
0010
0100
0010
0100
0001
0100
0001
,
0100
0010
0110
0000
1001
0000
0110
0000
,
1001
0000
0000
0000
0100
0000
0010
0000
0000
0000
1000
0001
1000
0001
1000
0001
,
1000
0100
0010
0001
1000
0100
1000
0100
,
1000
0010
1000
0010
0100
0001
0100
0001
,
0010
0001
0011
0000
1000
0001
1000
0001
,
1000
0010
1000
0010
1000
0001
1000
0001
,
0100
0001
0101
0000
0100
0010
0100
0010
,
1000
0001
1000
0001
1000
0010
1000
0010
,
0100
0010
0110
0000
1001
0000
0110
0000
,
1001
0000
0110
0110
0000
0000
0000
0000
;

//---------------dance-single - ----------------
#NOTES:
     dance-single:
     :
     Medium:
     6:
     0.491239,0.482563,0.061283,0.074902,0.000000,505.000000,496.000000,9.000000,11.000000,0.000000,0.000000,0.491239,0.482563,0.061283,0.074902,0.000000,505.000000,496.000000,9.000000,11.000000,0.000000,0.000000:
0000
0000
0000
0000
,
0000
0000
0000
0000
,
0000
0000
0000
0000
,
0000
0000
0000
0000
,
1000
0000
1000
0000
0001
0001
0001
0000
,
0100
0000
0100
0000
0010
0010
0010
0000
,
1000
0001
1000
0001
,
2002
3003
0000
0000
1001
0000
0000
0000
1000
0000
0100
0000
1000
0000
0100
0000
,
0010
0001
0010
0000
0001
0100
0001
0100
,
0010
1000
0010
0000
1000
0001
1000
0001
,
0100
0010
0100
0000
0001
0010
0001
0010
,
0100
1000
0100
0000
1000
0001
1000
0001
,
1000
0010
1000
0000
0010
1000
0010
1000
,
0001
1000
0001
0000
1000
0000
0001
0000
,
0100
0000
0010
0100
0000
0001
1000
0001
,
0000
0100
0010
0100
0001
1000
0001
1000
,
0010
0100
0010
0000
1000
0010
1000
0010
,
0100
0001
0100
0000
0010
1000
0010
1000
,
0001
0100
0001
0000
1000
0001
1000
0001
,
0100
0010
0100
0000
0001
1000
0001
1000
,
0010
1000
0010
0000
1000
0001
1000
0001
,
1000
0100
1000
0000
0001
0000
1000
0000
,
0010
0000
0100
0010
0000
0000
1000
0001
,
1000
0001
0100
0010
0100
0000
0001
0100
,
0001
0010
0001
1000
0001
0000
0100
0010
,
0100
0010
1000
0001
1000
0000
0010
1000
,
0001
1000
0010
0100
0010
0000
1000
0001
,
1000
0001
0100
0001
0100
0000
0001
0010
,
0001
0100
0001
1000
0001
0000
1000
0001
,
1000
0001
0100
0010
0100
0000
0001
0100
,
0001
0100
0010
1000
0010
0000
2002
0000
,
0000
0000
0000
0000
,
0000
0000
0000
0000
3003
0000
0000
0100
,
1000
0100
0010
0001
0010
0001
1000
1000
,
1000
0000
0001
0001
0001
0000
0000
1000
,
0010
1000
0001
0100
0001
0100
0010
0010
,
0010
0000
0100
0100
0100
0000
0000
0001
,
1000
0001
0100
0010
0100
0010
1000
1000
,
1000
0000
0001
0001
0001
0000
0100
0100
,
0100
0000
0010
0010
0010
0000
1000
0000
,
0001
0000
0220
0000
0330
0000
0000
1000
,
0010
1000
0001
0100
0001
0100
0001
0001
,
0001
0000
1000
1000
1000
0000
0000
0010
,
0000
0010
0000
0100
0000
0100
0000
0001
,
0000
0001
0000
1000
0000
1000
0000
0001
,
1000
0001
0100
0010
0100
0010
0100
0100
,
0100
0000
0010
0010
0010
0000
1000
1000
,
1000
0000
0001
0001
0001
0000
1000
0000
,
0001
0000
2002
0000
3003
0000
1000
0100
,
1000
0100
0010
0001
0010
0001
1000
0001
,
1000
0002
0000
0000
0003
0000
1000
0010
,
1000
0010
0100
0001
0100
0001
0100
0000
,
0010
0000
0000
0000
0100
0000
0000
0000
0010
0000
0000
0000
2002
3003
0000
0000
,
1001
0000
0001
0010
0001
0010
0100
1000
,
0100
0000
1000
0010
1000
0010
0100
0001
,
0100
0000
0001
1000
0001
1000
0010
0100
,
0010
0000
1000
0100
1000
0100
0010
0001
,
0010
0000
0001
1000
0001
1000
0001
0100
,
0001
0000
0100
0001
0100
0001
1000
0001
,
1000
0001
1000
0010
,
0100
0010
0000
1000
0001
1000
0000
0010
,
0100
0010
1000
0001
1000
0001
0100
0010
,
0100
0000
0001
0100
0001
0100
0010
1000
,
0010
0000
0100
0001
0100
0001
1000
0010
,
1000
0000
0001
1000
0001
1000
0010
0100
,
0010
0000
1000
0001
1000
0001
0100
0001
,
0100
0000
0001
1000
0001
1000
0001
0010
,
0001
1000
0001
0100
,
0010
0100
0000
0000
1000
0001
1000
0001
,
0100
0010
0100
0010
1000
0001
1000
0001
,
0100
0010
0100
0000
0001
0010
0001
0010
,
0100
1000
0100
1000
0001
0010
0001
0010
,
0100
1000
0100
0000
1000
0010
1000
0010
,
0100
0001
0100
0001
1000
0010
1000
0010
,
0100
0001
0100
0000
0001
0000
1000
0000
,
0001
0000
0100
0010
0000
1000
0001
1000
,
0000
0001
1000
0001
1000
0100
1000
0100
,
1000
0010
1000
0010
1000
0001
1000
0001
,
1000
0010
1000
0000
0001
0100
0001
0100
,
0001
1000
0001
1000
0001
0010
0001
0010
,
0001
1000
0001
0000
1000
0010
1000
0010
,
0100
0001
0100
0001
1000
0010
1000
0010
,
0100
0001
0100
0000
0001
0000
1000
0000
,
0010
0000
1001
1001
0000
0000
0000
0000
;

//---------------dance-single - ----------------
#NOTES:
     dance-single:
     :
     Easy:
     3:
     0.289880,0.284286,0.088520,0.027237,0.000000,298.000000,285.000000,13.000000,4.000000,0.000000,0.000000,0.289880,0.284286,0.088520,0.027237,0.000000,298.000000,285.000000,13.000000,4.000000,0.000000,0.000000:
0000
0000
0000
0000
,
0000
0000
0000
0000
,
0000
0000
0000
0000
,
0000
0000
0000
0000
,
1000
1000
0001
0001
,
1000
1000
0001
0001
,
0100
0100
0010
0010
,
1001
0000
1000
1000
,
0001
0001
0100
0010
,
0100
0010
1000
0001
,
1000
0001
0100
0100
,
0010
0010
1000
0100
,
1000
0100
0010
0001
,
0010
0001
1000
0001
,
1000
0001
1001
0000
,
0000
0000
1000
1000
,
0001
0001
0100
0010
,
0100
0010
1000
0001
,
1000
0001
0100
0100
,
0010
0010
1000
0010
,
1000
0010
0100
0001
,
0100
0001
1000
0001
,
1000
0001
1001
1000
,
1000
0001
0001
1000
,
0100
0010
0001
0100
,
0100
0010
0010
1000
,
0001
1000
0001
0100
,
0010
1000
0001
1000
,
1000
0001
0001
1000
,
0010
0100
0001
1000
,
0100
0010
0001
1001
,
0000
0000
0000
0000
,
0000
0000
0000
1000
,
1000
0001
0001
0100
,
0100
0010
0010
1000
,
0001
0100
0010
1000
,
1000
0001
0001
1000
,
1000
0010
0010
0100
,
0100
0001
0001
1000
,
1000
0001
0001
1000
,
0001
1001
0000
0100
,
0100
0010
0010
1000
,
0001
1000
0001
0000
,
0000
0000
0000
0000
,
0000
0000
0000
1000
,
0001
0100
0010
1000
,
1000
0001
0001
0100
,
0100
0010
0010
1000
,
0001
1001
0000
1000
,
0100
0001
0010
1000
,
0100
0001
0010
2002
,
0000
0000
3003
0220
,
0000
0000
0330
1001
,
0000
0001
0001
1000
,
1000
0010
0100
0010
,
0100
0001
1000
0001
,
1000
0010
0010
0100
,
0100
0001
0010
0001
,
0010
0100
1000
0100
,
1000
0001
1000
0001
,
1000
1001
0000
0000
,
0000
0001
0001
1000
,
1000
0010
0100
0010
,
0100
0001
1000
0001
,
1000
0010
0010
0100
,
0100
0001
0100
0001
,
0100
0010
1000
0010
,
1000
0001
1000
0001
,
1000
1001
1000
0100
,
0001
0100
1000
0100
,
0001
0100
1000
0010
,
0001
0010
1000
0010
,
0001
0010
1000
0100
,
0001
0010
1000
0100
,
0001
0010
1000
0001
,
1000
0001
1001
0000
,
0000
0000
0001
0100
,
1000
0100
0001
0100
,
1000
0100
0001
0010
,
1000
0010
0001
0010
,
1000
0010
0001
0100
,
1000
0010
0001
0100
,
1000
0010
0001
1000
,
0001
1000
1001
0000
;

//---------------dance-single - ----------------
#NOTES:
     dance-single:
     :
     Beginner:
     1:
     0.147858,0.170572,0.061283,0.000000,0.000000,152.000000,143.000000,9.000000,0.000000,0.000000,0.000000,0.147858,0.170572,0.061283,0.000000,0.000000,152.000000,143.000000,9.000000,0.000000,0.000000,0.000000:
// measure 0
0000
0000
0000
0000
,  // measure 1
0000
0000
0000
0000
,  // measure 2
0000
0000
0000
0000
,  // measure 3
0000
0000
0000
0000
,  // measure 4
0000
0000
0000
0000
,  // measure 5
0000
0000
0000
0000
,  // measure 6
1000
0000
0001
0000
,  // measure 7
1001
0000
1000
0000
,  // measure 8
1000
0000
0001
0000
,  // measure 9
0001
0000
1000
0000
,  // measure 10
1000
0000
0001
0000
,  // measure 11
0001
0000
0100
0000
,  // measure 12
0100
0000
0010
0000
,  // measure 13
0010
0000
1000
0000
,  // measure 14
0001
0000
1001
0000
,  // measure 15
0000
0000
1000
0000
,  // measure 16
1000
0000
0001
0000
,  // measure 17
0001
0000
1000
0000
,  // measure 18
1000
0000
0001
0000
,  // measure 19
0001
0000
0100
0000
,  // measure 20
0100
0000
0010
0000
,  // measure 21
0010
0000
1000
0000
,  // measure 22
0001
0000
1001
1000
,  // measure 23
0000
1000
0000
1000
,  // measure 24
0000
1000
0000
0001
,  // measure 25
0000
0001
0000
0001
,  // measure 26
0000
0001
0000
0100
,  // measure 27
0000
0100
0000
0010
,  // measure 28
0000
0010
0000
1000
,  // measure 29
0000
1000
0000
0001
,  // measure 30
0000
0001
0000
0000
,  // measure 31
0000
0000
0000
0000
,  // measure 32
0000
0000
0000
1000
,  // measure 33
0000
1000
0000
0001
,  // measure 34
0000
0001
0000
0100
,  // measure 35
0000
0100
0000
0010
,  // measure 36
0000
0010
0000
1000
,  // measure 37
0000
1000
0000
0001
,  // measure 38
0000
0001
0000
0100
,  // measure 39
0000
0010
0000
0100
,  // measure 40
0000
0010
0000
1000
,  // measure 41
0000
1000
0000
0001
,  // measure 42
0000
0001
0000
0000
,  // measure 43
0000
0000
0000
0000
,  // measure 44
0000
0000
0000
1000
,  // measure 45
0000
1000
0000
0001
,  // measure 46
0000
0001
0000
0100
,  // measure 47
0000
0010
0000
1000
,  // measure 48
0000
1001
0000
1000
,  // measure 49
0000
1000
0000
0001
,  // measure 50
0000
0001
0000
0000
,  // measure 51
0000
0000
0000
0000
,  // measure 52
0000
0000
0000
1001
,  // measure 53
0000
1000
0000
1000
,  // measure 54
0000
0001
0000
0001
,  // measure 55
0000
1000
0000
1000
,  // measure 56
0000
0001
0000
0001
,  // measure 57
0000
0100
0000
0100
,  // measure 58
0000
0010
0000
0010
,  // measure 59
0000
1000
0000
0001
,  // measure 60
0000
1001
0000
0000
,  // measure 61
0000
1000
0000
1000
,  // measure 62
0000
0001
0000
0001
,  // measure 63
0000
1000
0000
1000
,  // measure 64
0000
0001
0000
0001
,  // measure 65
0000
0100
0000
0100
,  // measure 66
0000
0010
0000
0010
,  // measure 67
0000
1000
0000
0001
,  // measure 68
0000
1001
1000
0000
,  // measure 69
1000
0000
1000
0000
,  // measure 70
1000
0000
0001
0000
,  // measure 71
0001
0000
0001
0000
,  // measure 72
0001
0000
0100
0000
,  // measure 73
0100
0000
0100
0000
,  // measure 74
0100
0000
0010
0000
,  // measure 75
0010
0000
0010
0000
,  // measure 76
0110
0000
1000
0000
,  // measure 77
1000
0000
1000
0000
,  // measure 78
1000
0000
0001
0000
,  // measure 79
0001
0000
0001
0000
,  // measure 80
0001
0000
0100
0000
,  // measure 81
0100
0000
0010
0000
,  // measure 82
0010
0000
1000
0000
,  // measure 83
0001
0000
1001
0000
;
