#VERSION:0.81;
#TITLE:Lost And Found;
#SUBTITLE:;
#ARTIST:Ellie Goulding;
#TITLETRANSLIT:;
#SUBTITLETRANSLIT:;
#ARTISTTRANSLIT:;
#GENRE:;
#ORIGIN:;
#CREDIT:;
#BANNER:;
#BACKGROUND:;
#PREVIEWVID:;
#JACKET:;
#CDIMAGE:;
#DISCIMAGE:;
#LYRICSPATH:;
#CDTITLE:;
#MUSIC:Lost And Found.ogg;
#OFFSET:-0.385452;
#SAMPLESTART:38.319977;
#SAMPLELENGTH:12.000000;
#SELECTABLE:YES;
#BPMS:0.000=137.000;
#STOPS:;
#DELAYS:;
#WARPS:;
#TIMESIGNATURES:0.000=4=4;
#TICKCOUNTS:0.000=4;
#COMBOS:0.000=1;
#SPEEDS:0.000=1.000=0.000=0;
#SCROLLS:0.000=1.000;
#FAKES:;
#LABELS:0.000=Song Start;
#BGCHANGES:;
#KEYSOUNDS:;
#ATTACKS:
;

//---------------dance-single - ----------------
#NOTEDATA:;
#CHARTNAME:;
#STEPSTYPE:dance-single;
#DESCRIPTION:;
#CHARTSTYLE:;
#DIFFICULTY:Beginner;
#METER:1;
#RADARVALUES:0.111208,0.106812,0.000000,0.000000,0.000000,86.000000,0.000000,0.000000,0.000000,0.000000,0.000000,0.000000,0.000000,0.111208,0.106812,0.000000,0.000000,0.000000,86.000000,0.000000,0.000000,0.000000,0.000000,0.000000,0.000000,0.000000;
#CREDIT:;
#NOTES:
0000
0000
0000
0000
,
0000
0000
0000
0000
,
0000
0000
0000
0000
,
0000
0000
0000
0000
,
1000
0000
1000
0000
,
1000
0000
1000
0000
,
0000
0000
0000
0000
,
0000
0000
0001
0000
,
0001
0000
0001
0000
,
0001
0000
0000
0000
,
0000
0000
0000
0000
,
0100
0000
0100
0000
,
0100
0000
0100
0000
,
0000
0000
0000
0000
,
0000
0000
0010
0000
,
0010
0000
0010
0000
,
0010
0000
1000
0000
,
0001
0000
0000
0000
,
1000
0000
1000
0000
,
1000
0000
0000
0000
,
0001
0000
0001
0000
,
0001
0000
0000
0000
,
1000
0000
1000
0000
,
1000
0000
1000
0000
,
0000
0000
0000
0000
,
0000
0000
0010
0000
,
0010
0000
0010
0000
,
0010
0000
0000
0000
,
0000
0000
0000
0000
,
0100
0000
0100
0000
,
0100
0000
0100
0000
,
0000
0000
0000
0000
,
0000
0000
0001
0000
,
0001
0000
0001
0000
,
0001
0000
1000
0000
,
0001
0000
0000
0000
,
0000
1000
0000
1000
,
0000
0001
0001
0000
,
0100
0000
0100
0000
,
0010
0000
0010
0000
,
0000
1000
0000
1000
,
0000
0010
0010
0000
,
0100
0000
0100
0000
,
0001
0000
0001
0000
,
1000
0000
1000
0000
,
0001
0000
0001
0000
,
0100
0000
0100
0000
,
0100
0000
0000
0000
,
0001
0000
0001
0000
,
1000
0000
1000
0000
,
0010
0000
0010
0000
,
0010
0000
0000
0000
,
1000
0000
1000
0000
,
0001
0000
0001
0000
,
0010
0000
0010
0000
,
0100
0000
0000
0000
,
1000
0000
1000
0000
,
0010
0000
0010
0000
,
0100
0000
0100
0000
,
0001
0000
0000
0000
;

//---------------dance-single - ----------------
#NOTEDATA:;
#CHARTNAME:;
#STEPSTYPE:dance-single;
#DESCRIPTION:;
#CHARTSTYLE:;
#DIFFICULTY:Easy;
#METER:4;
#RADARVALUES:0.272848,0.328581,0.144829,0.099570,0.000000,184.000000,16.000000,11.000000,0.000000,0.000000,0.000000,0.000000,0.000000,0.272848,0.328581,0.144829,0.099570,0.000000,184.000000,16.000000,11.000000,0.000000,0.000000,0.000000,0.000000,0.000000;
#CREDIT:;
#NOTES:
0000
0000
0000
0000
,
0000
0000
0000
0000
,
0000
0000
0000
0000
,
0000
0000
0000
0000
,
1000
0001
1000
0001
,
1000
0010
0100
0100
,
0000
0100
0000
0001
,
0000
0001
0001
0010
,
0001
0010
0100
1000
,
0100
0100
0000
1000
,
0000
1000
0000
0010
,
0010
0100
0001
0010
,
0100
1000
0001
0001
,
0000
1000
0000
0001
,
0000
1000
1000
0100
,
0010
0001
0100
0010
,
1000
1000
0000
0001
,
0000
0001
0000
1000
,
1000
0100
0010
0001
,
0100
0010
1000
1000
,
0001
0010
0100
1000
,
0010
0100
0001
0001
,
1000
0100
0010
0100
,
1000
0001
0100
0100
,
0000
0010
0000
0010
,
0000
0100
0100
0001
,
0010
0100
0010
0100
,
1000
1000
0000
0001
,
0000
0001
0000
1000
,
1000
0010
0100
0001
,
0010
0100
0010
0010
,
0000
0001
0000
0001
,
0000
1000
0010
0010
,
0100
0001
0100
0010
,
1000
0100
0000
1000
,
0000
0100
0000
1000
,
0010
1010
0000
0202
,
0303
0001
0010
0100
,
1000
1100
0001
0101
,
0110
1001
0001
0100
,
0010
0110
0000
1010
,
0000
1000
0100
0010
,
0001
0101
1000
1100
,
0110
1001
0001
0100
,
0010
1000
0200
0300
,
0200
0300
1000
0010
,
0100
0001
0200
0000
,
0000
0310
1000
0100
,
0010
0001
2000
3000
,
2000
3000
0001
0100
,
0010
0100
0002
0000
,
0000
1003
0100
1000
,
0010
1001
0100
1001
,
0001
1000
0010
0100
,
0001
0010
0200
0000
,
0000
1300
0100
1000
,
0010
1001
0100
1001
,
0001
0010
0001
0100
,
0010
0100
0002
0000
,
0000
1003
0010
0200
,
0000
0000
0300
0000
;

//---------------dance-single - ----------------
#NOTEDATA:;
#CHARTNAME:;
#STEPSTYPE:dance-single;
#DESCRIPTION:;
#CHARTSTYLE:;
#DIFFICULTY:Medium;
#METER:5;
#RADARVALUES:0.386642,0.355963,0.343969,0.108622,0.000000,249.000000,38.000000,12.000000,0.000000,0.000000,0.000000,0.000000,0.000000,0.386642,0.355963,0.343969,0.108622,0.000000,249.000000,38.000000,12.000000,0.000000,0.000000,0.000000,0.000000,0.000000;
#CREDIT:;
#NOTES:
0000
0000
0000
0000
,
0000
0000
0000
0000
,
0000
0000
0000
0000
,
0000
0000
0000
0000
0000
0000
1000
0100
,
0010
0000
1001
0000
0100
0000
1001
0001
,
0100
1001
1000
0010
,
0100
0001
0010
0100
,
1000
0000
0001
0100
0010
0000
1010
0000
,
1000
0000
1100
0100
0010
0000
0011
0000
,
0001
0100
0010
1000
,
0100
0000
0010
0000
0001
0000
1000
0010
,
0100
0000
1001
0000
0010
0000
1001
0001
,
0100
0101
0001
0010
,
0100
1000
0010
0100
,
0001
0000
1000
0100
0010
0000
0011
0000
,
0001
0000
0101
0100
0010
0000
1010
0000
,
1000
0100
0010
0100
,
1000
0000
0001
0000
,
1000
0010
1000
0010
1000
0000
0001
1000
,
0001
1000
0002
0000
0000
0000
0003
0000
,
1000
0100
1000
0100
1000
0000
0001
1000
,
0001
1000
0002
0000
0000
0003
1000
0010
,
0100
0000
0101
0000
0001
0000
0011
0010
,
0100
1100
1000
0010
,
0100
0001
0010
0100
,
1000
0000
0001
1000
0010
0000
0110
0000
,
0100
0000
0101
0001
0010
0000
0110
0000
,
0010
0100
1000
0010
,
0100
0000
0001
0000
1000
0000
0100
1000
,
0010
0000
1010
0000
0010
0000
0110
0100
,
0001
0011
0001
0100
,
0010
1000
0100
0010
,
0001
0000
1000
0010
0100
0000
0101
0000
,
0001
0011
0010
0110
,
0100
1000
0010
0100
,
0001
1000
0100
0010
,
0100
1100
1000
2020
,
3030
0000
0010
0010
0100
0000
0001
0001
,
1000
1100
0001
0101
,
1001
0000
0101
0000
0001
0001
1000
0000
,
0010
1010
0001
0202
,
0303
0000
1000
1000
0100
0000
1000
1000
,
0010
1001
0100
1001
,
0001
0000
1000
0000
0010
0010
0100
0000
,
0010
1000
1100
0001
,
0101
0000
0001
0100
,
0010
1000
0200
0000
,
0000
0310
0100
1000
,
0010
0100
0101
0001
,
1001
0000
1000
0010
,
0100
0001
0020
0000
,
0000
0130
1000
0001
,
1000
0010
1000
0010
1000
0000
0010
1000
,
0010
1000
0020
0000
0100
0000
0130
0000
,
0001
0001
1000
1000
,
0001
0001
1000
1000
,
0001
0010
0001
0010
0001
0000
0010
0001
,
0010
0001
0020
0000
0100
0000
0130
0000
,
1000
1000
0001
0001
,
1000
2000
0001
0002
,
0000
0000
3003
0000
;

//---------------dance-single - ----------------
#NOTEDATA:;
#CHARTNAME:;
#STEPSTYPE:dance-single;
#DESCRIPTION:;
#CHARTSTYLE:;
#DIFFICULTY:Hard;
#METER:8;
#RADARVALUES:0.523713,0.438108,0.407332,0.506902,0.022630,304.000000,45.000000,56.000000,0.000000,0.000000,0.000000,0.000000,0.000000,0.523713,0.438108,0.407332,0.506902,0.022630,304.000000,45.000000,56.000000,0.000000,0.000000,0.000000,0.000000,0.000000;
#CREDIT:;
#NOTES:
// measure 0
0000
0000
0000
0000
,  // measure 1
0000
0000
0000
0000
,  // measure 2
0000
0000
0000
0000
,  // measure 3
0000
0000
0000
0000
0000
0000
1000
0100
,  // measure 4
0010
0000
0011
0000
0001
0000
0101
0100
,  // measure 5
0010
1010
0002
0100
,  // measure 6
1000
0000
0000
0000
0103
0000
0020
0000
0100
0030
0020
0000
0001
0030
0020
0000
,  // measure 7
1000
0030
0000
0000
1000
0000
0010
0000
0100
0000
0000
0000
0101
0000
0000
0000
,  // measure 8
0001
0000
1100
0001
1000
0000
0011
0000
,  // measure 9
2000
0000
0100
0000
0001
0000
3100
0020
,  // measure 10
0100
0030
0020
0000
1000
0030
0020
0000
0001
0030
0000
0000
0001
0000
0100
0000
,  // measure 11
0010
0000
1010
0000
1000
0000
0101
1000
,  // measure 12
0001
1100
0200
1000
,  // measure 13
0001
0000
0000
0000
0310
0000
0002
0000
1000
0003
0002
0000
0100
0003
0002
0000
,  // measure 14
1000
0003
0000
0000
0001
0000
1000
0000
0100
0000
0000
0000
1010
0000
0000
0000
,  // measure 15
0100
0000
0011
0001
0100
0000
0010
0000
,  // measure 16
1000
0000
1000
0100
0010
0000
0010
0001
,  // measure 17
0100
0010
1000
0001
,  // measure 18
1000
0010
0001
0020
1000
0000
1030
0010
,  // measure 19
0001
0010
2000
0000
3002
0000
2003
0000
,  // measure 20
3001
0010
1000
0020
0001
0000
0031
0010
,  // measure 21
1000
0000
0020
0000
0001
0000
0000
0000
0031
0000
0000
0100
0010
0000
0010
0000
,  // measure 22
1000
0000
1100
0000
0001
0000
0101
1000
,  // measure 23
0001
1100
0002
0100
,  // measure 24
0010
0000
0000
0000
1003
0000
0002
0000
0010
0003
0002
0000
0100
0003
0002
0000
,  // measure 25
1000
0003
0000
0000
0001
0000
0010
0000
0100
0000
0000
0000
1100
0000
0000
0000
,  // measure 26
1000
0010
0100
0001
1000
0000
0101
0000
,  // measure 27
2000
0000
0100
0000
0010
0000
3001
2000
,  // measure 28
0010
3000
2000
0000
0100
3000
2000
0000
0001
3000
0000
0000
1000
0000
0010
0000
,  // measure 29
0100
0000
1010
0000
0100
0000
0011
1000
,  // measure 30
0001
0101
0200
1000
,  // measure 31
0001
0000
0000
0000
0310
0000
0200
0000
0001
0300
0200
0000
1000
0300
0200
0000
,  // measure 32
0010
0300
0000
0000
0010
0000
1000
0000
0001
0000
0000
0000
1100
0000
0000
0000
,  // measure 33
0011
0000
1000
0000
0010
0010
0100
0000
,  // measure 34
0001
0000
0010
0100
1000
0000
0010
0100
,  // measure 35
0001
1000
0100
0010
,  // measure 36
0100
1010
0100
0022
,  // measure 37
0033
0000
1000
0010
0100
0100
1000
0100
,  // measure 38
0001
0101
1000
1100
,  // measure 39
0101
0000
1100
0000
0010
0010
0100
0000
,  // measure 40
0010
1010
0001
0202
,  // measure 41
0303
0000
1000
0100
0010
0010
1000
0010
,  // measure 42
0001
0011
1000
1010
,  // measure 43
0011
0000
1010
0000
0010
0010
0100
0000
,  // measure 44
0001
0001
2100
3001
,  // measure 45
0102
0000
0000
0000
1003
0000
0000
0000
2000
0000
0000
0010
0000
0000
3010
0000
,  // measure 46
0100
0102
1003
2100
,  // measure 47
3001
0000
0001
0100
0010
0010
0001
0010
,  // measure 48
1000
0001
2010
3001
,  // measure 49
0012
0000
0000
0000
1003
0000
0000
0000
2000
0000
0000
0100
0000
0000
3100
0000
,  // measure 50
0010
0012
1003
2010
,  // measure 51
3001
0000
0001
0010
0100
0100
0001
0100
,  // measure 52
1000
0010
0001
0020
1000
0000
1030
0010
,  // measure 53
0001
0000
0020
0000
1000
0000
0000
0000
2030
0000
0000
0100
0000
0000
3100
0000
,  // measure 54
0010
2010
3001
0102
,  // measure 55
1003
0000
1000
0010
0100
1000
0100
0001
,  // measure 56
1000
0100
0001
0200
1000
0000
1300
0100
,  // measure 57
0001
0000
0200
0000
1000
0000
0000
0000
2300
0000
0000
0010
0000
0000
3010
0000
,  // measure 58
0100
0102
1003
2010
,  // measure 59
3001
0000
0001
0010
1000
0010
0100
2000
,  // measure 60
0002
0000
3003
0000
;
