#TITLE:Lookin' Like Magic;
#SUBTITLE:;
#ARTIST:Daniella Monet feat. Drake Bell;
#TITLETRANSLIT:;
#SUBTITLETRANSLIT:;
#ARTISTTRANSLIT:;
#GENRE:;
#CREDIT:;
#BANNER:;
#BACKGROUND:;
#LYRICSPATH:;
#CDTITLE:CDTitle.png;
#MUSIC:Lookin' Like Magic.ogg;
#OFFSET:-0.412480;
#SAMPLESTART:0.000000;
#SAMPLELENGTH:12.000000;
#LASTBEATHINT:48.666668;
#SELECTABLE:YES;
#BPMS:0.000000=144.000000
;
#STOPS:
;
#BGCHANGES:0.000=Daniella Monet - Lookin' Like Magic feat. Drake Bell ( Official Music Video ).avi=1.000=0=0=0=StretchNoLoop====,
99999=-nosongbg-=1.000=0=0=0 // don't automatically add -songbackground-
;
#KEYSOUNDS:;
#ATTACKS:;

//---------------dance-single - ----------------
#NOTES:
     dance-single:
     :
     Challenge:
     8:
     0.464667,0.517389,0.190633,0.071487,0.697001,273.000000,257.000000,16.000000,6.000000,0.000000,0.000000,0.464667,0.517389,0.190633,0.071487,0.697001,273.000000,257.000000,16.000000,6.000000,0.000000,0.000000:
// measure 0
0000
0000
0000
0000
0000
0000
0000
0000
1000
1000
0000
0000
,  // measure 1
0001
0000
1000
0001
0000
0000
1001
0000
0000
1001
0000
0000
,  // measure 2
0100
0000
0010
0100
0000
0000
0110
0000
0000
0110
0000
0000
,  // measure 3
0000
0000
0000
1000
0000
1000
0100
0000
0000
0010
0000
0000
,  // measure 4
0001
0000
0010
0001
0000
1000
0000
0000
0010
0100
0000
0001
,  // measure 5
1000
0000
0100
1000
0000
0010
1000
0000
0000
0100
0000
0001
,  // measure 6
0100
0000
0000
1000
0000
0100
0000
0000
1000
0001
0000
1000
,  // measure 7
0000
0000
0010
0000
0000
0000
0000
0000
0000
1000
0000
0100
,  // measure 8
0000
0000
1000
0000
0000
0000
0100
1000
0000
1000
0100
0000
,  // measure 9
1000
0000
0010
1000
0000
0000
1010
0000
0000
1010
0000
0000
,  // measure 10
0001
0000
0001
0100
0000
0000
0101
0000
0000
0101
0000
0100
,  // measure 11
0010
0000
0000
0001
0000
0000
0100
0010
1000
0001
0000
1000
,  // measure 12
0010
0000
1000
0000
0000
0100
0000
0000
0000
0000
0000
0100
,  // measure 13
1000
0000
0100
1000
0000
0000
1000
0000
0001
1000
0000
0000
,  // measure 14
1000
0000
0010
0000
1000
0000
0100
0000
0000
1000
0100
0000
,  // measure 15
1000
0000
0100
0000
0000
0000
0000
0000
0000
1000
0000
1000
,  // measure 16
0000
1000
0000
0000
0000
0000
1000
0100
0000
1000
0100
0000
,  // measure 17
1000
0000
0010
1000
0000
0000
1010
0000
0000
1010
0000
0000
,  // measure 18
0100
0000
0001
0100
0000
0000
0101
0000
0000
0101
0000
0000
,  // measure 19
1000
0000
0100
1000
0000
0000
1000
0000
0000
0001
0000
0000
,  // measure 20
1000
0100
0010
0001
,  // measure 21
2000
0000
0000
0000
0000
0000
3010
0000
0001
0000
0010
0000
,  // measure 22
0001
0000
0000
0000
0000
0100
0001
0000
0100
0000
0001
0000
,  // measure 23
0100
0000
0000
0000
1000
0000
0001
0000
0010
0100
0000
1000
,  // measure 24
0000
0000
1000
0010
0000
0010
0000
0010
0000
0010
0000
0000
,  // measure 25
2000
0000
0000
0000
0000
3000
0010
0010
0000
1000
0010
0000
,  // measure 26
1000
0000
0000
0000
0000
0010
0001
0000
0010
0001
0000
0010
,  // measure 27
0000
0000
0000
0000
0000
0010
1000
0000
1100
0100
0000
2000
,  // measure 28
0000
0000
0000
0000
3000
0000
2000
0000
0000
0000
3000
0100
,  // measure 29
0200
0000
0000
0300
0000
0200
0000
0000
0000
0000
0300
0000
,  // measure 30
0000
0000
1000
0000
0000
0110
0000
0000
0100
0000
0000
0000
,  // measure 31
0001
1001
0110
0000
,  // measure 32
1000
0000
0100
1000
0000
0000
0010
0000
0000
1000
0000
0001
,  // measure 33
0000
0000
1000
0001
0000
0000
1000
0000
0000
1000
0000
0000
,  // measure 34
0100
0000
1000
0100
0000
0000
0010
0000
0000
0001
0000
0100
,  // measure 35
0000
0000
0000
0001
1000
0001
1000
0001
1000
0001
1000
0001
,  // measure 36
1000
0000
1000
0010
0000
0000
0010
0000
1000
0000
0000
0001
,  // measure 37
0000
0000
0010
0001
0000
0000
1000
0000
0100
1000
0000
0100
,  // measure 38
0000
0000
0100
0000
0000
0000
0001
0000
0000
0100
0000
0010
,  // measure 39
0000
0000
0100
0100
0000
0000
1000
0000
0000
0100
0000
1000
,  // measure 40
1000
0001
0000
1000
0010
0000
1000
0100
0000
1000
0010
0000
,  // measure 41
1000
0001
0000
1000
0010
0000
1000
0100
0000
1000
0010
0000
,  // measure 42
0010
0000
0000
1000
0000
0000
1000
0000
0000
0000
0001
0000
,  // measure 43
0000
0000
1000
0100
0000
1000
0000
0100
1000
0010
1000
0001
,  // measure 44
0000
0000
0000
0100
0000
0010
0100
0000
0000
0001
0000
0010
,  // measure 45
0100
0010
0100
0000
0000
0000
1000
0000
1000
0000
0000
0000
0000
0000
0000
0000
0000
0000
0001
0000
0000
0000
0001
0000
,  // measure 46
0001
1000
0000
0000
0000
0000
0000
0000
0001
0000
0000
0000
0100
0000
0000
0000
0000
0000
0000
0000
0001
0000
0000
0000
0100
0000
0001
0000
0100
0000
0000
0000
0000
0000
0000
0000
0010
0000
0000
0000
0000
0000
0000
0000
1000
0000
0000
0000
,  // measure 47
0100
0000
1000
0100
0000
0100
0010
0000
0000
0001
0000
0001
,  // measure 48
0000
0000
1000
1000
0000
0000
0000
0000
0000
0000
0000
0000
;

//---------------dance-single - ----------------
#NOTES:
     dance-single:
     :
     Easy:
     3:
     0.194037,0.287438,0.166804,0.119145,0.000000,114.000000,100.000000,14.000000,10.000000,0.000000,0.000000,0.194037,0.287438,0.166804,0.119145,0.000000,114.000000,100.000000,14.000000,10.000000,0.000000,0.000000:
0000
0000
0000
0000
,
0001
0000
0010
0000
,
0100
0000
1000
0000
,
1000
0000
1000
0000
,
0100
0000
0100
0000
,
0010
0000
0010
0000
,
0001
0000
0001
0000
,
1000
1000
0000
0010
,
0010
0010
0000
0000
,
0001
0001
0001
0000
,
1000
1000
1000
0000
,
1000
1000
0001
0001
,
0010
0010
0100
0000
,
1000
0000
1000
0000
,
0001
0000
0001
0000
,
0010
0000
0010
0000
,
1000
0000
1000
0000
,
1000
1000
1000
0000
,
0010
0010
0010
0000
,
0001
0001
0001
0000
,
0100
0100
0100
0000
,
2000
0000
3000
0000
,
0200
0000
0300
0000
,
0020
0000
0030
0000
,
0002
0000
0003
0000
,
0020
0000
0030
0000
,
0200
0000
0300
0000
,
2000
0000
3000
0200
,
0000
0000
0000
0320
,
0000
0000
0000
0000
,
0032
0000
0000
0000
,
0003
1001
1001
0000
,
0001
0001
0001
0000
,
1000
1000
1000
0000
,
0100
0100
0100
0000
,
0010
0010
0010
0001
,
0001
0011
0000
0010
,
0110
0000
0100
1100
,
0000
1000
1000
0000
,
0000
0000
0000
0000
,
1100
0000
1000
0000
,
0011
0000
0001
0000
,
1010
0000
0010
0000
,
0101
0000
0100
0000
,
1100
0000
0100
0000
,
0011
0000
0001
0000
,
1001
0000
1000
0000
,
0110
0000
0010
0000
,
0000
1001
0000
0000
;

//---------------dance-single - ----------------
#NOTES:
     dance-single:
     :
     Medium:
     5:
     0.277439,0.431158,0.119145,0.178718,0.184676,163.000000,153.000000,10.000000,15.000000,0.000000,0.000000,0.277439,0.431158,0.119145,0.178718,0.184676,163.000000,153.000000,10.000000,15.000000,0.000000,0.000000:
0000
0000
0000
0000
,
0000
0000
1000
1000
0000
0000
0001
0000
0000
1000
0000
0000
,
0000
0000
0001
0001
0000
0000
1000
0000
0000
0001
0000
0000
,
1000
0000
0000
0100
0000
0010
0010
0000
0000
0001
0000
0000
,
0010
0000
0100
0100
0000
0000
1000
0000
0000
0001
0000
0010
,
0010
0000
0000
0100
0000
1000
1000
0000
0000
0100
0000
0000
,
0010
0001
0010
0100
,
0010
0100
0000
0010
,
0100
0010
0000
0000
,
1000
0000
1000
1000
0000
0000
1000
0000
0000
0000
0000
0000
,
0001
0000
0001
0001
0000
0000
0001
0000
0000
0000
0000
0000
,
1000
1000
0000
0010
0000
0100
0100
0000
0001
0001
0000
0000
,
0100
0010
1000
0000
,
0001
0001
0000
0100
0000
0000
0010
0010
0000
1000
0000
0000
,
0010
0100
0001
1000
,
0001
1000
0000
0001
,
1000
0001
0000
1000
,
0001
0000
0001
0001
0000
0000
0001
0000
0000
0000
0000
0000
,
0010
0000
0010
0010
0000
0000
0010
0000
0000
0000
0000
0000
,
0100
0000
0100
0100
0000
0000
0100
0000
0000
0000
0000
0000
,
1000
1000
1000
0000
,
2000
0000
0000
0000
0000
0000
3000
0000
0000
0000
0100
0000
,
0200
0000
0000
0000
0000
0000
0300
0000
0000
0000
0010
0000
,
0020
0000
0000
0000
0000
0000
0030
0000
0000
0000
0001
0000
,
0002
0000
0003
0000
,
2002
0000
0000
0000
0000
0000
3003
0000
0000
0000
0000
2000
,
0000
0000
0000
0000
0000
3000
0000
0000
0020
0000
0000
0000
,
0000
0000
0030
0000
0000
0200
0000
0000
0000
0000
0000
0000
,
0000
0000
0000
0302
,
0000
0000
0000
0000
0000
0000
0000
0000
0000
0000
0003
0000
,
1010
0101
1010
0101
,
1001
0110
1001
0000
,
1000
0000
1000
1000
0000
0000
1000
0000
0000
0000
0000
0000
,
0010
0000
0010
0010
0000
0000
0010
0000
0000
0000
0000
0000
,
0100
0000
0100
0100
0000
0000
0100
0000
0000
0000
0000
0000
,
0001
0001
0001
0000
,
1000
0000
1000
1000
0000
0000
0100
0100
0000
0010
0000
0000
,
0001
0000
0000
0010
0000
0000
0100
0100
0000
1000
1000
0000
,
1000
0001
1000
0001
,
1000
0000
1000
1000
0000
0000
1000
0000
0000
0000
0000
0000
,
0001
0000
0010
0010
0000
0000
0100
0000
0000
1000
0000
0000
,
0100
0010
0001
2000
,
0000
0000
3001
0001
,
1001
0000
0000
0000
,
2000
0000
0000
0000
,
3020
0000
0000
0000
0000
0000
0000
0000
0000
0000
0000
0030
,
0200
0000
0000
0000
0000
0000
0000
0000
0000
0000
0000
0300
,
0002
0000
0000
0000
0000
0000
0000
0000
0000
0000
0000
0003
,
0000
1001
0000
0000
;

//---------------dance-single - ----------------
#NOTES:
     dance-single:
     :
     Hard:
     7:
     0.418711,0.488645,0.226376,0.202547,0.542112,246.000000,227.000000,19.000000,17.000000,0.000000,0.000000,0.418711,0.488645,0.226376,0.202547,0.542112,246.000000,227.000000,19.000000,17.000000,0.000000,0.000000:
0000
0000
0000
0000
0000
0000
0000
0000
0001
1000
0000
0000
,
1000
0000
0001
1000
0000
0000
1000
0000
0000
1001
0000
0000
,
0100
0000
0010
0100
0000
0000
0100
0000
0000
0110
0000
0000
,
1000
0000
0000
1000
0000
1000
0010
0000
0000
0010
0000
0000
,
0100
0000
0100
0001
0000
0001
0000
0000
1000
0000
0000
1000
,
0100
0000
0000
0100
0000
0100
0010
0000
0000
0010
0000
0010
,
0001
0000
0000
0001
0000
0000
1000
0000
0000
1000
0010
0000
,
0010
0000
0000
0010
0000
0000
0000
0000
0000
0100
0000
0100
,
0000
0000
0100
0000
0000
0001
1000
0000
1000
0001
0000
0000
,
1000
0000
0010
1000
0000
0000
1000
0000
0000
1010
0000
0000
,
0001
0000
0100
0001
0000
0000
0001
0000
0000
0101
0000
1000
,
0001
0000
0000
0001
0000
0000
0001
1000
0001
1000
0000
0001
,
0010
0000
0010
0000
0100
0000
0000
0000
1000
0001
0000
0001
,
1000
0000
1000
0001
0000
0000
1000
0001
0000
1000
0000
0000
,
0010
0000
0001
0000
0100
0000
1000
0000
0000
1000
0010
0000
,
0010
0000
0010
0000
0000
0000
0000
0000
0000
0100
0000
0100
,
0000
0100
0000
0000
0000
0001
1000
0000
1000
0001
0000
0000
,
1000
0000
0010
1000
0000
0000
1000
0000
0000
1010
0000
0000
,
0001
0000
0100
0001
0000
0000
0001
0000
0000
0101
0000
0000
,
1000
0000
0001
1000
0000
0000
1000
0000
0000
1001
0000
0000
,
0100
0110
0010
0110
,
2000
0000
0000
0000
0000
0000
0001
0000
0001
0001
0000
0000
,
3002
0000
0000
0000
0000
1000
1000
0000
1000
0000
1000
0000
,
2003
0000
0000
0000
0000
0001
0001
0000
0001
0001
0000
0000
,
3001
0000
0001
1000
0000
0100
0000
0010
0000
0001
0000
0000
,
2002
0000
0000
3003
0000
0000
1000
0010
0000
1000
0010
0000
,
1000
0000
0000
0000
0001
0100
0000
0001
0100
0000
0001
0000
,
0000
0000
0000
2000
,
0000
0000
0000
0000
0000
0000
0000
0000
3000
0000
0000
0200
,
0000
0000
0000
0000
,
0000
0300
0000
0020
0000
0000
0032
0000
0000
0023
0000
0000
,
1030
1010
0101
0000
,
1000
0000
0100
1000
0000
0000
1000
0000
0000
1100
0000
0000
,
0001
0000
0010
0001
0000
0000
0001
0000
0000
0011
0000
0000
,
1000
0000
0010
1000
0000
0000
1010
0000
0000
1010
0000
0000
,
0001
0000
0000
2000
0000
3000
0002
0000
0003
2000
0000
3000
,
1000
0000
0010
1000
0000
0010
1000
0000
0010
0000
1000
0000
,
0000
0000
0000
1000
0001
0000
1000
0001
0000
1000
0001
0000
,
0100
0110
0010
0110
,
0010
0000
0010
0100
0000
0000
0100
0000
0000
0110
0000
0000
,
0010
1000
0000
0001
1000
0000
0010
1000
0000
0100
1000
0000
,
0010
1000
0000
0001
1000
0000
0010
1000
0000
0100
1000
0000
,
0002
0000
0000
0000
0000
0000
0003
1000
0000
0000
0001
0000
,
0000
1000
0000
0000
0000
0000
0000
0000
0000
0002
0000
0000
,
0003
0000
1000
0000
1000
0000
0000
0000
0001
0000
0001
0000
,
0000
0000
1000
0000
1000
0000
0000
1000
0000
2000
0000
0000
,
3000
0000
0100
0000
0100
0000
0000
0010
0000
0000
0001
0000
,
0000
1000
0000
0000
0001
0000
0002
0000
0000
1000
0000
0000
,
1000
0000
1000
1003
0000
0000
0000
0000
0000
0000
0000
0000
;

//---------------dance-single - ----------------
#NOTES:
     dance-single:
     :
     Beginner:
     1:
     0.153187,0.229951,0.047658,0.000000,0.000000,90.000000,86.000000,4.000000,0.000000,0.000000,0.000000,0.153187,0.229951,0.047658,0.000000,0.000000,90.000000,86.000000,4.000000,0.000000,0.000000,0.000000:
0000
0000
0000
0000
,
1000
0000
1000
0000
,
0001
0000
0001
0000
,
1000
0000
1000
0000
,
0100
0000
0100
0000
,
0010
0000
0010
0000
,
0001
0000
0001
0000
,
0010
0000
0010
0000
,
0100
0000
0100
0000
,
1000
0000
1000
0000
,
0001
0000
1000
0000
,
0001
0000
1000
0000
,
0010
0000
0100
0000
,
0010
0000
0100
0000
,
0001
0000
0001
0000
,
1000
0000
1000
0000
,
0100
0000
0100
0000
,
0010
0000
0010
0000
,
0001
0000
0001
0000
,
1000
0000
1000
0000
,
0100
0000
0100
0000
,
0010
0000
0000
0000
,
0001
0000
0000
0000
,
1000
0000
0000
0000
,
0100
0000
0000
0000
,
0010
0000
0000
0000
,
0001
0000
0000
0000
,
1000
0000
0000
0000
,
0100
0000
0000
0000
,
0010
0000
0000
0000
,
0001
0000
0000
0000
,
1000
0000
1001
0000
,
1000
0000
1000
0000
,
1001
0000
0001
0000
,
1001
0000
1000
0000
,
1001
0000
0001
0000
,
0010
0000
0010
0000
,
0100
0000
0100
0000
,
0010
0000
0010
0000
,
0100
0000
0100
0000
,
1000
0000
1000
0000
,
0001
0000
0001
0000
,
1000
0000
1000
0000
,
0001
0000
1000
0000
,
0001
0000
1000
0000
,
0100
0000
0010
0000
,
0001
0000
0010
0000
,
0100
0000
1000
0000
,
0100
0100
0000
0000
;
