#TITLE:Koko Soko;
#SUBTITLE:(2016 Radio Mix);
#ARTIST:SMILE.dk;
#TITLETRANSLIT:;
#SUBTITLETRANSLIT:;
#ARTISTTRANSLIT:;
#CREDIT:;
#BANNER:[Mid Speed] - Koko Soko (2016 Radio Mix)-jacket.png;
#BACKGROUND:[Mid Speed] - Koko Soko (2016 Radio Mix)-bg.png;
#LYRICSPATH:;
#CDTITLE:;
#MUSIC:[Mid Speed] - Koko Soko (2016 Radio Mix).ogg;
#OFFSET:-2.276;
#SAMPLESTART:77.231;
#SAMPLELENGTH:12.000;
#SELECTABLE:YES;
#BPMS:0.000=128.000;
#STOPS:;
#BGCHANGES:;

//---------------dance-single - ----------------
#NOTES:
     dance-single:
     :
     Hard:
     7:
     0.478,0.644,0.122,0.272,0.118: // measure 1
0000
0000
0000
0000
,  // measure 2
0000
0000
0000
0000
,  // measure 3
0000
0000
0000
0000
,  // measure 4
0000
0000
0000
0000
,  // measure 5
2000
0000
3200
0000
,  // measure 6
0320
0000
0031
0000
,  // measure 7
0002
0000
0203
0000
,  // measure 8
0320
0000
1030
0000
,  // measure 9
1000
0010
1000
0010
0100
0001
0100
0001
,  // measure 10
1000
0010
1000
0001
0100
0100
0100
0000
,  // measure 11
0001
0010
0001
0010
0100
1000
0100
1000
,  // measure 12
0001
1000
0010
1000
0100
0100
0100
0000
,  // measure 13
0010
0000
0000
0001
1000
0000
0010
0000
0100
0000
0000
0000
0100
0000
0000
0000
,  // measure 14
0010
0000
0000
1000
0001
0000
0010
0000
0002
0000
0000
0000
0003
0000
0000
0000
,  // measure 15
0010
0000
0000
0001
1000
0000
0010
0000
0100
0000
0000
0000
0100
0000
0000
0000
,  // measure 16
0001
0000
0000
1000
0100
0000
0010
0000
0001
0000
1000
0000
1001
0000
0000
0000
,  // measure 17
1000
0100
1000
0001
1000
0100
1000
0001
,  // measure 18
1000
0100
0010
0001
2000
0000
3000
0000
,  // measure 19
0001
0100
0001
1000
0001
0000
0001
0100
,  // measure 20
0001
1000
0100
1000
0020
0000
0030
1000
,  // measure 21
0010
0100
0001
0010
0100
0010
0001
0100
,  // measure 22
0010
0000
1000
0001
2002
0000
3003
0000
,  // measure 23
1000
0010
0100
0001
0010
0100
1000
0001
,  // measure 24
1000
0100
0001
0010
2000
0000
3000
0000
,  // measure 25
2002
0003
0200
0300
,  // measure 26
0020
0030
0002
3003
,  // measure 27
0002
0000
0203
0000
,  // measure 28
0320
0000
2030
3000
,  // measure 29
2000
0100
3200
0010
,  // measure 30
0320
0001
0032
0003
,  // measure 31
0002
0100
0203
0010
,  // measure 32
0320
1000
2030
3000
,  // measure 33
1000
0000
0000
0010
0100
0000
0001
0000
0010
0000
0001
0000
0100
0000
0010
0000
,  // measure 34
1000
0000
0000
0100
0010
0000
0001
0000
1000
0000
0001
0000
0100
0000
0001
0000
,  // measure 35
0010
0000
0000
0010
0001
0000
1000
0000
0001
0000
0100
0000
1000
0000
0100
0000
,  // measure 36
0001
1000
0010
1000
0100
0100
0100
0000
,  // measure 37
1000
0000
0000
0100
0010
0000
0001
0000
0100
0000
0010
0000
1000
0000
0001
0000
,  // measure 38
1000
0000
0000
0100
0010
0000
0001
0000
0010
0000
1000
0000
0010
0000
0100
0000
,  // measure 39
1000
0100
1000
0100
1000
0100
1000
0100
0010
0100
0010
0100
0010
0100
0010
0100
,  // measure 40
1000
0001
1000
1000
0100
0010
1001
0000
,  // measure 41
1000
1000
0001
0001
0010
0100
0010
0000
,  // measure 42
0010
0001
1000
0010
0200
0000
0300
0000
,  // measure 43
0010
0010
0100
0100
0001
1000
0001
0100
,  // measure 44
1000
0100
0001
1000
0002
0000
0003
0000
,  // measure 45
1000
1000
0001
0001
0100
0010
0100
0001
,  // measure 46
0010
0001
0100
1000
0200
0000
0300
0000
,  // measure 47
0010
0010
0100
0100
0001
1000
0001
0010
,  // measure 48
1000
0010
0001
0100
0010
1000
1001
0000
,  // measure 49
1000
0100
0010
0100
1000
0010
0100
0001
,  // measure 50
0010
0100
1000
0200
0000
0000
0300
0000
,  // measure 51
0000
0010
0001
0100
1000
0100
0001
1000
,  // measure 52
0010
0000
0010
0100
0001
1000
0001
0000
,  // measure 53
0001
0010
0100
0010
0001
0100
0010
1000
,  // measure 54
0001
0000
0001
0000
1000
0100
0010
1001
,  // measure 55
0000
0101
0000
1100
0000
1000
0001
0000
,  // measure 56
1000
0100
0001
0100
1000
0001
1001
0000
,  // measure 57
1000
0000
0000
0010
0100
0000
0001
0000
1000
0000
0000
0100
0010
0000
0001
0000
,  // measure 58
1000
0000
0000
0010
0100
0000
0001
0000
1000
0000
0000
0000
1000
0000
1000
0000
,  // measure 59
0001
0000
0000
0010
0100
0000
1000
0000
0001
0000
0000
0100
0010
0000
1000
0000
,  // measure 60
0001
0000
0001
0100
0000
0010
1000
0000
,  // measure 61
1000
0000
0000
0010
1000
0000
0001
0000
0100
0000
0000
0001
0100
0000
0010
0000
,  // measure 62
1000
0000
0000
0010
1000
0000
0001
0000
1001
0000
0000
0001
0000
0000
1000
0000
,  // measure 63
0020
0000
0000
0000
0000
0000
1030
0001
1000
0000
0100
0000
0010
0000
0100
0000
,  // measure 64
1000
0010
0100
0001
1000
0001
1001
0000
,  // measure 65
1001
0000
0000
1000
0010
0000
0100
0000
0001
0000
0010
0000
0100
0000
1000
0000
,  // measure 66
1001
0000
0000
0001
1000
0000
0010
0000
0200
0000
0000
0000
0300
0000
0000
0000
,  // measure 67
1001
0000
0000
1000
0100
0000
0010
0000
0001
0000
0100
0000
1000
0000
0100
0000
,  // measure 68
0001
0010
0100
1000
0002
0000
0003
0000
,  // measure 69
1001
0000
0000
0001
0010
0000
0100
0000
0010
0000
0001
0000
0100
0000
0010
0000
,  // measure 70
1001
0000
0000
1000
0010
0000
0100
0000
0002
0000
0000
0000
0003
0000
0000
0000
,  // measure 71
1001
0000
0000
0001
0100
0000
0010
0000
1000
0000
0100
0000
0001
0000
0100
0000
,  // measure 72
2000
0000
0000
0000
,  // measure 73
3000
0000
0000
0000
;

//---------------dance-single - ----------------
#NOTES:
     dance-single:
     :
     Medium:
     6:
     0.345,0.438,0.279,0.157,0.004:
0000
0000
0000
0000
,
0000
0000
0000
0000
,
0000
0000
0000
0000
,
0000
0000
0000
0000
,
2000
0000
3200
0000
,
0302
0000
0013
0000
,
0020
0000
2030
0000
,
3002
0000
0013
0000
,
0010
0001
0010
0001
,
1000
0000
0010
0000
1000
0010
1000
0000
,
0010
1000
0010
1000
,
0001
0000
0010
0000
0001
0010
0001
0000
,
1000
1000
0100
0010
,
0001
0001
0200
0300
,
0001
0001
0010
0100
,
1000
1000
0001
1001
,
1000
0100
1000
0000
0100
0000
0010
0000
,
0001
0000
1000
0001
1000
0000
0000
0000
,
0001
0010
0100
1000
,
0001
0000
1000
0001
1000
0000
0000
0000
,
1000
0010
0100
0010
,
1000
0000
0100
1000
0001
0000
0000
0000
,
0010
0001
1000
0001
,
0100
0000
0001
1000
0100
0000
0000
0000
,
2100
0000
0001
0000
,
0010
0000
0001
0000
,
0100
0000
0001
0000
,
0010
0000
3001
0000
,
0002
0000
2003
3000
,
0200
0000
0020
0330
,
0020
0000
0032
0003
,
2000
0000
0002
3003
,
1001
0000
1000
0000
0001
1000
0001
0000
,
1000
0000
0001
1000
0002
0000
0003
0000
,
0010
0000
0100
0000
0010
0100
0010
0000
,
0001
1000
0001
0000
1000
1000
1000
0000
,
1001
0000
1000
0000
0001
1000
0100
0000
,
0010
0000
0001
1000
0020
0000
0030
0000
,
1000
0000
0001
0000
0100
0010
1000
0000
,
0100
0010
0001
0000
1001
0000
0110
0000
,
1001
0000
1000
0000
0001
1000
0100
0000
,
1000
0000
0001
0100
0001
0000
0000
0000
,
1000
0000
0001
0000
1000
0001
0100
0000
,
0001
0000
1000
0100
0010
0000
0000
0000
,
0001
0000
1000
0000
0001
1000
0010
0000
,
1000
0000
0100
1000
0100
0000
0000
0000
,
1000
0000
0001
0000
1000
0001
0010
0000
,
0001
0000
1000
0100
0010
0000
1001
0000
,
0001
0000
0100
0001
0100
0000
0100
1000
,
0100
0001
0100
0020
0000
0000
0030
0000
,
1000
0000
0100
0010
0100
1000
0100
0000
,
0010
0000
0001
0000
1000
0001
1000
0000
,
0000
0000
0001
0000
0100
0010
1000
0000
,
0100
0000
0010
0000
0100
1000
0001
0100
,
0000
0001
0000
1000
0000
0100
1000
0000
,
0001
1000
0100
1000
0001
0001
0001
0000
,
1001
0101
1001
1100
,
1001
0101
1001
0000
,
1001
1010
1001
0011
,
1001
0000
0000
0000
0001
0001
0001
0000
,
1001
1010
1001
0011
,
1001
0000
0000
0000
0110
0000
0000
0000
1001
0000
0000
1000
0000
0000
0001
0000
,
0020
0000
0031
0011
,
1010
0000
1100
0000
0101
0001
1000
0000
,
1100
0000
1000
0100
0010
0100
1000
0000
,
1001
0000
1000
0001
0100
0000
0000
0000
,
0101
0000
0001
0100
0010
0100
0001
0000
,
0001
1000
0001
0000
1001
0000
0000
0000
,
1001
0000
1000
0010
0100
0010
1000
0000
,
1001
0000
1000
0010
0100
0000
0000
0000
,
1001
0000
0001
0010
0100
0010
0001
0000
,
2002
0000
0000
0000
,
3003
0000
0000
0000
;

//---------------dance-single - ----------------
#NOTES:
     dance-single:
     :
     Easy:
     3:
     0.220,0.257,0.057,0.122,0.000:
0000
0000
0000
0000
,
0000
0000
0000
0000
,
0000
0000
0000
0000
,
0000
0000
0000
0000
,
2000
0000
0000
0000
,
3002
0000
0003
0000
,
0020
0000
0000
0000
,
0230
0000
0300
0000
,
1000
0000
0001
0000
,
1000
0000
0100
0010
,
0100
0000
0010
0000
,
0001
0000
1000
0001
,
1000
1000
0000
0000
,
0001
0001
0020
0030
,
0100
0100
0000
0000
,
0010
0010
0001
1001
,
1000
0000
0100
0000
,
1000
0100
1000
0000
,
0001
0000
0100
0000
,
0001
0100
0001
0000
,
1000
0000
0010
0000
,
1000
0010
1000
0000
,
0001
0000
0010
0000
,
0001
0010
0001
0000
,
2002
0000
0000
0000
,
0000
0000
3003
0000
,
0002
0000
0000
0000
,
0000
0000
0003
0000
,
2000
0000
0100
0000
,
0001
0000
3010
0000
,
0020
0000
0001
0000
,
0100
0000
1030
0000
,
1000
0000
0010
0100
,
0001
0000
0001
0000
,
0001
0000
0001
0010
,
0100
0010
0001
1000
,
0001
0000
0001
1000
,
0001
0000
0010
0000
,
0001
0000
1000
0001
,
1000
0000
0010
1001
,
1000
0001
1000
0100
,
1000
0001
2000
3000
,
0001
1000
0001
0100
,
0001
1000
0002
0003
,
1000
0010
0100
0001
,
1000
0010
0200
0300
,
0001
0010
0100
1000
,
0001
0010
0100
1001
,
1000
0100
0010
0100
,
1000
0001
1000
0000
,
0001
0100
0010
1000
,
0001
0001
0100
0101
,
0000
0001
0100
0010
,
0100
0000
0001
0000
2000
0000
0000
3001
,
0000
1000
0100
0001
,
0100
1000
0001
1001
,
0001
0001
0100
0100
,
0010
0010
2000
3000
,
1000
1000
0100
0100
,
0010
0000
0000
0010
0000
0000
0010
0000
,
0001
0001
0100
0100
,
1000
1000
0020
0030
,
0010
0010
1000
1000
,
0100
0000
0000
0100
0000
0000
0100
0000
,
0001
0100
1000
0100
,
0001
1000
1001
0000
,
1000
0100
0010
0100
,
1000
0001
0100
0000
,
0001
0010
1000
0010
,
0001
1000
1001
0000
,
0001
0010
0100
0010
,
0002
0000
0000
0000
,
0003
0000
0000
0000
;

//---------------dance-single - ----------------
#NOTES:
     dance-single:
     :
     Beginner:
     2:
     0.136,0.178,0.021,0.000,0.000:
0000
0000
0000
0000
,
0000
0000
0000
0000
,
0000
0000
0000
0000
,
0000
0000
0000
0000
,
1000
0000
0000
0000
,
0000
0000
0000
0000
,
0001
0000
0000
0000
,
0000
0000
0000
0000
,
1000
0000
0000
0000
,
0000
0000
0100
0100
,
0000
0000
0000
0000
,
0000
0000
0010
0010
,
0010
0000
0000
0000
,
0010
0000
0010
0000
,
0001
0000
0000
0000
,
0001
0000
0001
0001
,
0001
0000
1000
0000
,
0001
0000
0100
0000
,
0001
0000
1000
0000
,
0100
0000
0010
0000
,
0001
0000
0010
0000
,
0100
0000
0010
0000
,
0001
0000
1000
0000
,
0010
0000
0100
0000
,
1001
0000
0000
0000
,
0000
0000
0000
0000
,
0000
0000
0000
0000
,
0000
0000
0000
0000
,
1000
0000
0000
0000
,
0000
0000
0000
0000
,
0001
0000
0000
0000
,
0000
0000
0000
0000
,
1000
0000
1000
0000
,
0100
0000
0010
0000
,
0001
0000
0001
0000
,
0100
0000
0010
0000
,
1000
0000
0100
0000
,
0001
0000
0100
0000
,
1000
0000
0010
0000
,
0001
0000
0010
0000
,
1000
0000
1000
0000
,
0100
0100
0100
0000
,
0010
0000
0010
0000
,
0001
0001
0001
0000
,
0100
0000
0100
0000
,
0010
0010
0010
0000
,
1000
0000
1000
0000
,
0001
0000
0100
0100
,
0100
0000
0001
0000
,
0010
0000
0001
0000
,
0000
0000
1000
0000
,
0100
0100
0100
0100
,
0100
0000
1000
0000
,
0001
0000
0010
0010
,
0010
0000
0001
0000
,
1000
0000
1001
0000
,
1000
0000
0100
0100
,
0100
0000
0010
0000
,
0001
0000
0100
0100
,
0100
0000
0000
0001
,
0001
0000
0010
0010
,
0010
0000
0100
0000
,
1000
0000
0010
0010
,
0010
0000
0000
1001
,
1000
1000
1000
0000
,
0001
0001
0001
0000
,
0010
0010
0010
0000
,
0100
0100
0100
0000
,
1000
1000
1000
0000
,
0010
0010
0010
0000
,
0100
0100
0100
0100
,
0100
0000
0000
0000
;

//---------------dance-double - ----------------
#NOTES:
     dance-double:
     :
     Hard:
     7:
     0.500,0.644,0.186,0.207,0.168:
00000000
00000000
00000000
00000000
,
00000000
00000000
00000000
00000000
,
00000000
00000000
00000000
00000000
,
00000000
00000000
00000000
00000000
,
00002000
00000000
00023000
00000000
,
00030020
00000000
00000031
00000000
,
00000020
00000000
00020030
00000000
,
00032000
00000000
01003000
00000000
,
00010000
01000000
00010000
01000000
00100000
10000000
00100000
10000000
,
01000000
00100000
01000000
00100000
00001000
00001000
00001000
00000000
,
00000100
00000001
00000100
00000001
00000010
00000100
00000010
00000100
,
00010000
00001000
00010000
00001000
01000000
01000000
01000000
00000000
,
01100000
00000000
00000000
00100000
10000000
00000000
00010000
00000000
10000000
00000000
01000000
00000000
00100000
00000000
00001000
00000000
,
00010000
00000000
00000000
00001000
00010000
00000000
00001000
00000000
00000020
00000000
00000000
00000000
00000030
00000000
00000000
00000000
,
00000001
00000000
00000000
00000010
00000001
00000000
00001000
00000000
00000100
00000000
00000010
00000000
00000100
00000000
00010000
00000000
,
00001000
00000000
00000000
00010000
00001000
00000000
00100000
00000000
00010000
00000000
00010000
00000000
10010000
00000000
00000000
00000000
,
10000000
01000000
00100000
01000000
10000000
01000000
00010000
01000000
,
10000000
00100000
01000000
00001000
00020000
00000000
00030000
00000000
,
00010000
00000100
00000001
00000100
00001000
00000000
00001000
00000001
,
00001000
00000100
00001000
00000001
00000020
00000000
00000030
00000010
,
00000001
00000100
00000010
00000100
00000001
00000010
00000100
00000010
,
00000001
00000100
00001000
00010000
00002000
00000000
00003000
00000000
,
00100000
00010000
01000000
00010000
00100000
01000000
10000000
01000000
,
00100000
00001000
00010000
00000100
00020000
00000000
00030000
00000000
,
00022000
00030000
02000000
03000000
,
00020000
00030000
00200000
00303000
,
00200000
00000000
00320000
00000000
,
20030000
00000000
32000000
03000000
,
02000000
03010000
00020000
00031000
,
00010000
00100000
00010000
00000000
,
00002000
00013000
00020000
00030100
,
00002000
00003010
00010000
00000000
,
00010000
00000000
00000000
00000010
00001000
00000000
00000001
00000000
00000100
00000000
00001000
00000000
00000100
00000000
00000001
00000000
,
00000010
00000000
00000000
00000001
00001000
00000000
00000010
00000000
00010000
00000000
00001000
00000000
00100000
00000000
00010000
00000000
,
10000000
00000000
00000000
00100000
10000000
00000000
00010000
00000000
00100000
00000000
00001000
00000000
00010000
00000000
00000100
00000000
,
00001000
00000001
00000100
00001000
00000100
00000100
00000100
00000000
,
00001001
00000000
00000000
00000001
00000010
00000000
00000001
00000000
00001000
00000000
00000100
00000000
00010000
00000000
01000000
00000000
,
10000000
00000000
00000000
00010000
10000000
00000000
01000000
00000000
00100000
00000000
00001000
00000000
00010000
00000000
00000100
00000000
,
00010000
00001000
00010000
00001000
00010000
00001000
00010000
00001000
00010000
00001000
00010000
00001000
00010000
00001000
00010000
00001000
,
00010000
01000000
00001000
00000100
00010000
00001000
00011000
00000000
,
00010000
00001000
00100000
00010000
10000000
00010000
01000000
00000000
,
01000000
00010000
00001000
00010000
10000000
00000000
00010000
10000000
,
00010000
00100000
00010000
00001000
00000100
00000001
00000100
00001000
,
00010000
00001000
01000000
00100000
01000000
00000000
10010000
00000000
,
10000000
00100000
01000000
00100000
10000000
01000000
00010000
00001000
,
00010000
00000100
00001000
00000001
00000010
00000000
00000001
00000010
,
00000001
00001000
00000100
00010000
01000000
10000000
01000000
00100000
,
00001000
00010000
00000010
00000100
00000001
00000001
00001001
00000000
,
00000001
00000100
00000001
00000010
00000001
00001000
00000100
00000010
,
00000001
00000100
00001000
00010000
01000000
10000000
00010000
01000000
,
00100000
10000000
01000000
10000000
00100000
01000000
00001000
00010000
,
00011000
00000000
00010000
00000100
00000010
00000001
00001000
00000000
,
00001000
00000010
00001000
00000001
00001000
00000100
00010000
00001000
,
00100000
00000000
00110000
00000000
00010000
01000000
00100000
10000000
,
00000000
11000000
00000000
01010000
01000000
00001000
00010000
00000010
,
00001000
00000100
00000001
00000010
00001000
00001000
00001000
00000000
,
00001001
00000000
00000000
00000001
00000100
00000000
00001000
00000000
00010000
00000000
00000000
00001000
00010000
00000000
01000000
00000000
,
00100000
00000000
00000000
00100000
00010000
00000000
10000000
00000000
20000000
00000000
00000000
00000000
30000000
00000000
00000000
00000000
,
10000000
00000000
00000000
10000000
00100000
00000000
01000000
00000000
00001000
00000000
00000000
00001000
00010000
00000000
00000100
00000000
,
00001100
00001000
00000010
00000110
00000100
00000001
00001001
00000000
,
00001001
00000000
00000000
00000001
00000010
00000000
00001000
00000000
00010000
00000000
00000000
00001000
00010000
00000000
01000000
00000000
,
00010000
00000000
00000000
00010000
00001000
00000000
00010000
00000000
00000010
00000000
00000000
00000010
00000000
00000000
00000010
00000000
,
00001000
00000000
00000000
00000100
00001000
00000000
00000001
00001000
00000001
00000000
00000100
00000000
00001000
00000000
00010000
00000000
,
00011000
00001000
01000000
01100000
00100000
10000000
10010000
00000000
,
10010000
00000000
00000000
10000000
01000000
00000000
00000000
01000000
00100000
00000000
00000000
00100000
00001000
00000000
00000000
00001000
,
00010000
00000000
00000000
00010000
00000010
00000000
00000000
00000010
00000100
00000000
00000000
00000000
00000101
00000000
00000000
00000000
,
00001001
00000000
00000000
00000001
00000010
00000000
00000000
00000010
00000100
00000000
00000000
00000100
00010000
00000000
00000000
00010000
,
00001000
00010000
01000000
00010000
00000200
00000000
00000300
00000000
,
00000110
00000000
00000000
00000010
00000001
00000000
00000000
00000001
00000100
00000000
00000000
00000100
00001000
00000000
00000000
00001000
,
00010000
00000000
00000000
00010000
00100000
00000000
00000000
00100000
10000000
00000000
00000000
00000000
10100000
00000000
00000000
00000000
,
10010000
00000000
00000000
10000000
01000000
00000000
00000000
01000000
00010000
00000000
00000000
00010000
00001000
00000000
00010000
00000000
,
00022000
00000000
00000000
00000000
,
00033000
00000000
00000000
00000000
;

//---------------dance-double - ----------------
#NOTES:
     dance-double:
     :
     Medium:
     6:
     0.348,0.412,0.186,0.172,0.004:
00000000
00000000
00000000
00000000
,
00000000
00000000
00000000
00000000
,
00000000
00000000
00000000
00000000
,
00000000
00000000
00000000
00000000
,
00000002
00000000
00000203
00000000
,
00002300
00000000
00003010
00000000
,
00000020
00000000
00020030
00000000
,
02030000
00000000
23000000
00000000
,
30010000
01000000
00001000
00010000
,
00000100
00000000
00001000
00000000
00000001
00001000
00000001
00000000
,
00001000
00000001
00010000
00000100
,
00010000
00000000
00100000
00000000
10000000
00010000
10000000
00000000
,
00100000
00000000
10000000
00100000
10000000
00000000
01000000
00000000
,
00010000
00000000
00001000
00010000
00001000
00000000
00010000
00000000
,
00000100
00000000
00001000
00000100
00001000
00000000
00000001
00000000
,
00000010
00000000
00000001
00000010
00000001
00000010
00000100
00000000
,
00000100
00010000
00001000
00000000
00001000
00010000
00000100
00000000
,
00001000
00000000
00000001
00000100
00001000
00000000
00000000
00000000
,
00001000
00000000
00010000
00001000
00010000
00000000
01000000
00000000
,
10000000
00000000
00010000
10000000
00100000
00000000
00000000
00000000
,
01000000
00001000
00010000
00000010
,
00000100
00000000
00000001
00001000
00000010
00000000
00000000
00000000
,
00000010
00010000
00001000
00010000
,
01000000
00000000
10000000
01000000
00100000
00000000
00000000
00000000
,
20020000
00000000
00000000
00030000
,
00200000
00000000
30300000
00000000
,
20000000
00000000
32000000
00000000
,
03020000
00000000
00032000
00003000
,
00002000
00000000
00003200
00000000
,
00000302
00000000
00000020
00000033
,
00000020
00000000
00000032
00000000
,
00000203
00000000
00002300
00003000
,
00010000
00000000
00001000
00000000
00010000
01000000
00010000
00000000
,
00001000
00000000
00010000
00100000
00010000
00000000
00000000
00000000
,
00001000
00000000
00010000
00000000
00001000
00000100
00001000
00000000
,
00010000
00000000
00001000
00000010
00001000
00010000
00001000
00000000
,
00000010
00000000
00000001
00000000
00000100
00001000
00000100
00000000
,
00000001
00000000
00000010
00000001
00000010
00000000
00000100
00000000
,
00010000
00000000
00001000
00000000
01000000
00010000
10000000
01000000
,
10000000
00010000
01000000
00010000
10000000
00000000
10010000
00000000
,
10000000
00000000
01000000
00000000
00100000
00001000
00010000
00000000
,
00000100
00000000
00001000
00000001
00000100
00000000
00000000
00000000
,
00000001
00000000
00000100
00000000
00000010
00010000
00001000
00000000
,
00001000
01000000
00010000
00000000
01000000
00000000
00000000
00000000
,
00010000
01000000
00100000
00000000
00010000
01000000
00100000
00000000
,
00100000
00010000
10000000
00000000
00010000
00000000
00100000
00000000
,
00001000
00010000
00000100
00000000
00001000
00010000
00000100
00000000
,
00000100
00000001
00001000
00000000
00000100
00000100
00001000
00000000
,
00000001
00000000
00000100
00001000
00010000
00000000
01000000
00000000
,
10000000
00010000
10000000
02000000
00000000
00000000
03000000
00000000
,
01000000
00000000
10000000
00000000
00100000
01000000
00001000
00000000
,
00010000
00000000
00001000
00000000
00000100
00000001
00000100
00000000
,
00000001
00000010
00000100
00010000
,
00001000
00000000
00100000
00000000
00010000
01000000
00100000
10000000
,
00000000
01000000
00000000
00010000
00001000
00010000
00000100
00000000
,
00000000
00001000
00000100
00001000
00000001
00000001
00000001
00000000
,
00001001
00000000
00000001
00001000
00000100
00000000
00000100
00010000
,
00001000
00000000
00001000
00100000
00010000
00000000
00000000
00000000
,
00010000
00000000
10000000
00010000
01000000
00000000
01000000
00001000
,
00010000
00000000
00000000
00011000
00000000
00000000
00001100
00000000
,
00001001
00000000
00000001
00000100
00000010
00000000
00000010
00010000
,
00001000
00000000
00000000
00000000
00001000
00000000
00100000
00000000
00010000
00000000
00000000
00010000
00000000
00000000
01000000
00000000
,
00010000
00000000
00010000
10000000
01000000
00000000
01000000
10000000
,
00010000
00000000
00000000
00110000
00000000
00000000
00011000
00000000
,
00010100
00000000
00001100
00000000
00001000
00000100
00000010
00000000
,
00000011
00001001
00000101
00000000
,
00001001
00000000
00001100
00000000
00000100
00010000
00001000
00000000
,
00001000
01000000
10000000
00000000
01010000
00000000
10010000
00000000
,
10100000
00000000
10010000
00000000
10000000
01000000
00010000
00000000
,
00011000
00010100
00001100
00000000
,
00001001
00000000
00000101
00000000
00001010
00000000
00010010
00010000
,
00002000
00000000
00000000
00000000
,
00003000
00000000
00000000
00000000
;

//---------------dance-double - ----------------
#NOTES:
     dance-double:
     :
     Easy:
     4:
     0.237,0.257,0.043,0.143,0.000:
00000000
00000000
00000000
00000000
,
00000000
00000000
00000000
00000000
,
00000000
00000000
00000000
00000000
,
00000000
00000000
00000000
00000000
,
20000000
00000000
32000000
00000000
,
03020000
00000000
00030000
00000000
,
00002000
00000000
00003200
00000000
,
00000302
00000000
00000003
00000000
,
00001001
00000000
00001000
00000000
,
00000100
00000000
00010000
00001000
,
00010000
00000000
01000000
00000000
,
10000000
00000000
00010000
10000000
,
00010000
00100000
00000000
00000000
,
00001000
00010000
00000020
00000030
,
00001000
00000001
00000000
00000000
,
00000010
00000100
00010000
00011000
,
00001000
00010000
00001000
00000000
,
00100000
00010000
01000000
00000000
,
00010000
10000000
01000000
00000000
,
01000000
10000000
00100000
00000000
,
00100000
10000000
01000000
00010000
,
00001000
00000100
00000001
00000000
,
00000010
00000001
00000100
00001000
,
00010000
01000000
10000000
00000000
,
20020000
00000000
00000000
00000000
,
00000000
00000000
30030000
00000000
,
20000000
00000000
32000000
00000000
,
03020000
00000000
00030000
00000000
,
00002000
00000000
00003200
00000000
,
00000302
00000000
00000003
00000000
,
00000002
00000000
00000023
00000000
,
00002030
00000000
00003000
00000000
,
00010000
00001000
00010000
01000000
,
00010000
00001000
00010000
00000000
,
00001000
00010000
00001000
00000100
,
00001000
00010000
00001000
00001000
,
00010000
00001000
00000010
00001000
,
00010000
00001000
00000010
00000000
,
00001000
00010000
00100000
00010000
,
00001000
00010000
01000000
10010000
,
10000000
10000000
01000000
00010000
,
01000000
10000000
00010000
00000000
,
00010000
00100000
00001000
00000100
,
00001000
00010000
00001000
00000000
,
00000100
00000100
00001000
00000001
,
00000010
00001000
00010000
00000000
,
00001000
00001000
00000001
00000001
,
00000100
00001000
00010000
00011000
,
00001000
00010000
01000000
00010000
,
00001000
01000000
00020000
00000000
,
10030000
01000000
00100000
01000000
,
10000000
01000000
00010000
00001000
,
00000000
00010000
00000100
00001000
,
00000010
00000100
00000001
00000010
,
00000001
00000100
00001000
00010000
,
01000000
10000000
00010000
10010000
,
10000000
00010000
01000000
00010000
,
10000000
01000000
00100000
00000000
,
00100000
00001000
00010000
00000100
,
00001000
00000000
00000000
00001000
00000000
00000000
00001000
00000000
,
00000001
00000010
00000001
00000100
,
00000001
00001000
00000010
00000000
,
00000010
00010000
00001000
01000000
,
00010000
00000000
00000000
00010000
00000000
00000000
00010000
00000000
,
10000000
00010000
10000000
01000000
,
10000000
00100000
00010000
00000000
,
00001000
00010000
00000100
00001000
,
00000001
00000100
00000001
00000000
,
00000001
00000100
00000001
00001000
,
00000001
00000010
00001000
00000000
,
00010000
00001000
00010000
01000000
,
00020000
00000000
00000000
00000000
,
00030000
00000000
00000000
00000000
;
