#TITLE:Jungle Bae;
#SUBTITLE:(feat. Bunji Garlin);
#ARTIST:Skrillex X Diplo;
#TITLETRANSLIT:;
#SUBTITLETRANSLIT:;
#ARTISTTRANSLIT:;
#GENRE:EDM;
#CREDIT:;
#BANNER:Jungle_Bae_Banner.png;
#BACKGROUND:Jungle_Bae_Background.png;
#LYRICSPATH:;
#CDTITLE:;
#MUSIC:Jungle_Bae.ogg;
#OFFSET:-0.110000;
#SAMPLESTART:60.050003;
#SAMPLELENGTH:13.000000;
#SELECTABLE:YES;
#DISPLAYBPM:128.000000;
#BPMS:0.000000=128.000000
,62.000000=192.000000
,64.000000=128.000000
,96.000000=192.000000
,96.250000=96.000000
,96.500000=128.000000
,97.000000=192.000000
,97.250000=96.000000
,97.500000=128.000000
,98.000000=192.000000
,98.250000=96.000000
,98.500000=128.000000
,99.000000=192.000000
,99.250000=96.000000
,99.500000=128.000000
,100.000000=192.000000
,100.250000=96.000000
,100.500000=128.000000
,101.000000=192.000000
,101.250000=96.000000
,101.500000=128.000000
,102.000000=192.000000
,102.250000=96.000000
,102.500000=128.000000
,103.000000=192.000000
,103.250000=96.000000
,103.500000=128.000000
,104.000000=192.000000
,104.250000=96.000000
,104.500000=128.000000
,105.000000=192.000000
,105.250000=96.000000
,105.500000=128.000000
,106.000000=192.000000
,106.250000=96.000000
,106.500000=128.000000
,107.000000=192.000000
,107.250000=96.000000
,107.500000=128.000000
,108.000000=192.000000
,108.250000=96.000000
,108.500000=128.000000
,109.000000=192.000000
,109.250000=96.000000
,109.500000=128.000000
,110.000000=192.000000
,110.250000=96.000000
,110.500000=128.000000
,111.000000=192.000000
,111.250000=96.000000
,111.500000=128.000000
,129.000000=192.000000
,129.375000=64.000000
,129.500000=128.000000
,133.000000=192.000000
,133.375000=64.000000
,133.500000=128.000000
,140.000000=64.000000
,140.125000=192.000000
,140.500000=128.000000
,145.000000=192.000000
,145.375000=64.000000
,145.500000=128.000000
,149.000000=192.000000
,149.375000=64.000000
,149.500000=128.000000
,157.000000=192.000000
,157.375000=64.000000
,157.500000=128.000000
,161.000000=192.000000
,161.375000=64.000000
,161.500000=128.000000
,165.000000=192.000000
,165.375000=64.000000
,165.500000=128.000000
,173.000000=192.000000
,173.375000=64.000000
,173.500000=128.000000
,177.000000=192.000000
,177.375000=64.000000
,177.500000=128.000000
,181.000000=192.000000
,181.375000=64.000000
,181.500000=128.000000
,205.000000=192.000000
,205.250000=96.000000
,205.500000=128.000000
,206.000000=192.000000
,206.250000=96.000000
,206.500000=128.000000
,207.000000=192.000000
,207.250000=96.000000
,207.500000=128.000000
,208.000000=192.000000
,208.250000=96.000000
,208.500000=128.000000
,209.000000=192.000000
,209.250000=96.000000
,209.500000=128.000000
,210.000000=192.000000
,210.250000=96.000000
,210.500000=128.000000
,211.000000=192.000000
,211.250000=96.000000
,211.500000=128.000000
,212.000000=192.000000
,212.250000=96.000000
,212.500000=128.000000
,213.000000=192.000000
,213.250000=96.000000
,213.500000=128.000000
,214.000000=192.000000
,214.250000=96.000000
,214.500000=128.000000
,215.000000=192.000000
,215.250000=96.000000
,215.500000=128.000000
,216.000000=192.000000
,216.250000=96.000000
,216.500000=128.000000
,217.000000=192.000000
,217.250000=96.000000
,217.500000=128.000000
,218.000000=192.000000
,218.250000=96.000000
,218.500000=128.000000
,219.000000=192.000000
,219.250000=96.000000
,219.500000=128.000000
,220.000000=192.000000
,220.250000=96.000000
,220.500000=128.000000
,234.000000=192.000000
,234.375000=64.000000
,234.500000=128.000000
,242.000000=192.000000
,242.375000=64.000000
,242.500000=128.000000
,250.000000=192.000000
,250.375000=64.000000
,250.500000=128.000000
,258.000000=192.000000
,258.375000=64.000000
,258.500000=128.000000
,266.000000=96.000000
,266.500000=192.000000
,267.000000=128.000000
,274.000000=192.000000
,274.375000=64.000000
,274.500000=128.000000
,282.000000=192.000000
,282.375000=64.000000
,282.500000=128.000000
,286.000000=192.000000
,286.375000=64.000000
,286.500000=128.000000
,290.000000=192.000000
,290.375000=64.000000
,290.500000=128.000000
;
#STOPS:62.000000=0.098000,
62.750000=0.039000,
63.000000=0.078000,
63.500000=0.078000,
124.000000=1.406000,
233.000000=1.406000
;
#BGCHANGES:;
#KEYSOUNDS:;
#ATTACKS:;

//---------------dance-single - ----------------
#NOTES:
     dance-single:
     :
     Challenge:
     10:
     0.652186,0.844188,0.143735,0.184802,0.694720,667.000000,646.000000,21.000000,27.000000,39.000000,2.000000,0.652186,0.844188,0.143735,0.184802,0.694720,667.000000,646.000000,21.000000,27.000000,39.000000,2.000000:
0000
0000
0000
0000
0000
000M
0M00
000M
,
0M00
0000
0000
0000
0000
00M0
M000
00M0
,
M000
0000
0000
0000
0000
0M00
00M0
0M00
,
00M0
0000
0000
0000
0000
000M
M000
000M
,
0004
0000
0000
0000
0000
M000
0M00
00M0
,
0M00
0000
0000
0000
0000
M000
00M0
0000
,
0000
0000
0000
0000
0000
0000
M000
0M00
,
00M0
0000
0000
0000
0M00
0000
0000
0000
1003
0000
0100
0010
0100
0000
1000
0000
,
0100
0000
0100
0000
0010
0000
0100
0000
0010
0000
0000
0000
0001
0100
0001
0100
,
0001
0000
0010
0100
0010
0000
0001
0000
0010
0000
0000
0000
0100
1000
0100
1000
,
0010
0000
0100
0010
1000
0000
0010
0000
0010
0000
0000
0000
0010
0100
0001
0010
,
0001
0000
1000
0010
1000
0000
0010
0000
0010
0000
0000
0000
1000
0000
1001
0000
,
0000
0000
1000
0000
0010
0000
0100
0000
0010
0000
0000
0000
1000
0100
0010
0001
,
0100
0000
0001
0010
0001
0000
0100
0000
0010
0000
0000
0000
0010
0100
0001
0010
,
0100
0000
0100
0010
0001
0000
1000
0000
0010
0000
0000
0000
0100
0001
0100
0001
,
0010
0000
0100
1000
0100
0000
1000
0000
0010
0000
0000
1000
0001
0000
1000
0000
,
1001
0000
0001
0000
0010
0000
1000
0000
0010
0000
0000
0000
0100
0010
0100
0010
,
0001
0000
0100
1000
0100
0000
0010
0000
0010
0000
1010
0000
0001
0100
0001
0000
,
1000
0000
0100
1000
0001
0000
0100
0000
0010
0000
0000
0000
1000
0100
1000
0100
,
0001
0000
0100
0010
0001
0000
0100
0000
0001
0000
1000
0010
0000
0100
0001
0000
,
1001
0000
1000
0000
0010
0000
0100
0000
1000
0000
0000
0000
0100
0010
0100
0001
,
0010
0000
0010
0001
0010
0000
0100
0000
0010
0000
0011
0000
1000
0100
1000
0010
,
0100
0000
0001
0100
0001
0000
0001
0000
0010
0000
0000
0000
0010
0100
0010
0001
,
1000
0000
0010
0100
0010
0000
1000
0000
0010
0000
0100
0010
0000
1000
0001
1000
,
0001
0010
0001
0000
1000
0010
1000
0000
0001
0100
0001
0000
1000
0100
1000
0000
,
0010
0100
0010
0000
1000
0001
1000
0000
0100
0010
0100
0000
0010
0001
0010
0000
,
0001
0010
0100
0000
0100
0010
0001
0000
0100
0010
1000
0000
0001
0100
0010
0000
,
1000
0100
0010
0000
0100
0010
0001
0000
0100
0001
0100
0000
0010
0100
0010
0000
,
1000
0100
0010
0100
1000
0001
0100
0001
1000
0010
1000
0100
0010
0001
0010
0001
,
1000
0010
1000
0010
0100
0001
0010
0100
0010
0001
1000
0010
0100
0010
1000
0001
,
4000
0040
0000
0000
0000
0000
0000
0000
0000
0000
0000
0000
0000
0000
0000
0000
0000
0000
0000
0000
0000
0000
0000
0000
0000
0000
0000
0000
0000
0000
0000
0000
,
3131
0000
0000
0000
1000
0000
M000
0100
0001
0000
010M
0000
0000
1000
0010
0000
,
0100
0000
10M0
0000
0200
0000
0300
0010
0000
0000
1000
0000
0100
M001
0000
0100
,
0010
0000
0001
0000
2000
0000
3000
0001
0000
0000
0100
0000
0010
0100
0000
10M0
,
0100
0000
0001
0000
0021
0000
0030
1000
0000
0000
0100
0000
0000
1000
0010
0000
,
0200
0000
0310
0000
0110
0000
0000
0001
0000
0000
0010
0000
0000
1000
0010
0000
,
0100
0000
1000
0000
0020
0000
0030
0100
0000
0000
0010
0000
0000
1000
0000
0001
,
1000
0000
0010
0000
0200
0000
0300
1000
0000
0000
M100
0000
0000
0010
0000
1000
,
0100
0000
1000
0000
0001
0100
0001
0000
1000
0100
1000
0000
0010
0000
0010
0000
,
1000
0100
0010
0000
0012
MM00
0003
0100
0000
0MM0
1000
0000
0001
1000
0000
0000
,
0010
0000
1000
0000
0200
0000
0300
0010
0000
00MM
1000
0000
0100
0001
0000
0100
,
0010
0000
0001
0000
2001
0000
3000
0010
0000
0MM0
0001
0000
0010
1000
0000
0010
,
0100
0000
1000
0000
0010
0100
0000
0001
0000
0000
0010
0000
0001
0100
0000
0100
,
0010
0000
1000
0000
1200
0000
0300
1000
0000
0000
0100
0000
0000
0010
0000
0100
,
0010
0000
0001
0000
0201
0000
0300
0001
0000
0000
1000
0000
0000
0001
0000
1000
,
0001
0000
0100
0000
0120
0000
0030
0100
0000
0000
0001
0000
0000
0010
0000
0100
,
1000
0000
0001
0000
1000
0001
1000
0000
0001
0100
0001
0000
0010
0000
1000
0010
,
0001
0100
0010
1000
0010
0001
0010
0000
,
1000
0100
0010
0100
1000
0000
0001
0010
0100
0000
0010
0000
0010
0000
0001
0000
,
1000
0100
1000
0000
0001
0000
0100
0010
0100
0001
1000
0000
0010
0000
0000
0000
,
1000
0100
0010
0001
0100
0000
0001
0010
0100
0000
1000
0000
0010
0000
1010
0000
,
0001
0100
0001
0000
0010
0001
1000
0000
0010
1000
0001
0000
0100
0010
1000
0000
,
0100
0010
0001
0000
1000
0010
1000
0000
0001
0010
0001
0000
1000
0100
1000
0000
,
0001
0100
0001
0000
0100
0010
0100
0000
0001
1000
0001
0000
0010
0100
1000
0000
,
1000
0100
0010
0000
0001
0010
0100
0000
0010
0100
1000
0000
0001
0100
0001
0000
,
0010
0100
1000
0000
0001
0010
0001
0010
0100
1000
0100
1000
0010
0100
0010
0100
,
0001
1000
0001
1000
0010
0100
0001
1000
0010
0100
0001
1000
0001
0010
0100
1000
,
0001
0000
0010
0000
0100
0000
1000
0000
0004
0400
0000
0000
0000
0000
0000
0000
0000
0000
0000
0000
0000
0000
0000
0000
0000
0000
0000
0000
0000
0000
0000
0000
,
0000
0000
1313
0000
2002
3003
0001
1000
,
0100
0001
0100
0000
1000
0000
0010
0000
0400
0000
0000
0000
0301
0000
0010
0000
,
1000
0010
1000
0000
0010
0000
0100
0000
2100
0000
3000
0000
0010
0000
0100
0000
,
0001
0010
0001
0000
0100
0000
1000
0100
1000
0100
0001
0000
0010
0100
0010
0001
,
0100
0001
1000
0100
0021
0030
1000
0010
,
1000
0100
1000
0001
0100
0000
0001
0010
0400
0000
0000
0000
1300
0000
0010
0000
,
0100
0010
0100
1000
0100
0000
0001
0000
0210
0000
0300
0000
0001
0000
1000
0000
,
0001
0100
0001
0000
1000
0000
0100
1000
0010
1000
0001
0000
0010
0100
0001
0100
,
1000
0010
0100
0001
2000
0000
3001
0100
,
0010
0100
0010
0000
1000
0000
0100
0000
0001
0000
0000
0000
0100
0000
0010
0000
,
0001
0010
0100
0010
0001
0000
1000
0000
1002
0000
0003
0000
0100
0000
0001
0000
,
0010
0100
1000
0100
0001
0000
0100
0010
0001
0100
1000
0000
0100
0010
1000
0100
,
0001
0200
0320
0032
2003
3000
0100
1000
,
0010
1000
0001
0100
0001
0000
0010
0000
0200
0000
0300
0000
1000
0000
0010
0000
,
0100
1000
0100
0001
0010
0000
0100
0000
0020
0000
0030
0000
0001
0000
0010
0000
,
0001
0100
0001
0010
0100
0000
0010
0001
0010
0100
1000
0000
0010
1000
0001
0000
,
1000
0000
0100
0010
0100
0000
0010
0000
0220
0000
0000
0000
0330
0000
0000
0000
;

//---------------dance-single - ----------------
#NOTES:
     dance-single:
     :
     Hard:
     9:
     0.645342,0.844188,0.123202,0.198491,0.687876,660.000000,642.000000,18.000000,29.000000,59.000000,0.000000,0.645342,0.844188,0.123202,0.198491,0.687876,660.000000,642.000000,18.000000,29.000000,59.000000,0.000000:
0000
0000
0000
0000
0000
000M
0M00
000M
,
0M00
0000
0000
0000
0000
00M0
M000
00M0
,
M000
0000
0000
0000
0000
0M00
00M0
0M00
,
00M0
0000
0000
0000
0000
000M
M000
000M
,
0002
0000
0000
0000
0000
M000
0M00
00M0
,
0M00
0000
0000
0000
0000
M000
00M0
0000
,
0000
0000
0000
0000
0000
0000
M000
0M00
,
00M0
0000
0000
0000
0M00
0000
0000
0000
1003
0000
0100
0010
0100
0000
1000
0000
,
0100
0000
1000
0000
0010
0000
0100
0000
0010
0000
0000
0000
1000
0010
1000
0010
,
1000
0000
0010
0100
0010
0000
0001
0000
0010
0000
0000
0000
0100
0001
0100
0001
,
0010
0000
0100
0010
0001
0000
1000
0000
0010
0000
0000
0000
0010
0100
0001
0010
,
0001
0000
1000
0010
1000
0000
0010
0000
0010
0000
0000
0000
1000
0000
1001
0000
,
0000
0000
1000
0000
0010
0000
0100
0000
0010
0000
0000
0000
1000
0100
0010
0001
,
0100
0000
0001
0010
0001
0000
0100
0000
0010
0000
0000
0000
0010
0100
0001
0010
,
0100
0000
0100
0010
0001
0000
1000
0000
0010
0000
0000
0000
0100
0001
0100
0001
,
0010
0000
0100
1000
0100
0000
1000
0000
001M
0000
0000
1M00
00M1
0000
1M00
0000
,
10M1
0000
0001
0000
0010
0000
0001
0000
0010
0000
0000
0000
0100
0010
0100
0010
,
0001
0000
0100
1000
0100
0000
0001
0000
0010
0000
0011
0000
0001
0100
0001
0000
,
1000
0000
0100
1000
0001
0000
0100
0000
0010
0000
0000
0000
1000
0100
1000
0100
,
0010
0000
0100
0010
0001
0000
0100
0000
0001
0000
1000
0010
0000
0100
0001
0000
,
1001
0000
1000
0000
0010
0000
0100
0000
0010
0000
0000
0000
0100
0010
0100
0001
,
0010
0000
0001
0100
0010
0000
0100
0000
0010
0000
1010
0000
1000
0020
0030
0000
,
0100
0000
0001
0100
0001
0000
0001
0000
0010
0000
0000
0000
0010
0100
0010
0001
,
1000
0000
0010
0100
0010
0000
1000
0000
0010
0000
0100
0010
0000
1000
0001
1000
,
0001
0010
0001
0000
1000
0010
1000
0000
0001
0100
0001
0000
1000
0100
1000
0000
,
0010
0100
0010
0000
1000
0001
1000
0000
0100
0010
0100
0000
0010
0001
0010
0000
,
0001
0010
0100
0000
0100
0010
0001
0000
0100
0010
1000
0000
0001
0100
0010
0000
,
1000
0100
0010
0000
0100
0010
0001
0000
0100
0001
0100
0000
0010
0100
0010
0000
,
1000
0100
0010
0100
1000
0001
0100
0001
1000
0010
1000
0100
0010
0001
0010
0001
,
1000
0010
1000
0010
0100
0001
0010
0100
0010
0001
1000
0010
0100
0010
1000
0001
,
4000
0040
0000
0000
0000
0000
0000
0000
0000
0000
0000
0000
0000
0000
0000
0000
0000
0000
0000
0000
0000
0000
0000
0000
0000
0000
0000
0000
0000
0000
0000
0000
,
3030
0000
0000
0000
1000
0000
0000
M100
0010
0000
0100
0000
0000
1000
0010
0000
,
0100
0000
00M1
0000
0200
0000
0300
0010
0000
0000
1000
0000
0100
M010
0000
0100
,
0010
0000
0M01
0000
2000
0000
3000
0001
0000
0000
0100
0000
0010
0100
0000
10M0
,
0100
0000
0001
0000
0020
0000
0030
0001
0000
0000
0100
0000
0000
0010
1000
0000
,
020M
0000
0310
0000
0110
0000
0000
0001
0000
0000
0010
0000
0000
0001
0100
0000
,
0100
0000
0010
0000
002M
0000
0030
0100
0000
0000
0010
0000
0000
1000
0000
0001
,
1000
0000
0010
0000
020M
0000
0300
1000
0000
0000
M100
0000
0000
0010
0000
1000
,
0100
0000
1000
0000
0001
0100
0001
0000
1000
0100
1000
0000
0010
0000
0010
0000
,
1000
0100
0010
0000
0012
MM00
0003
1000
0000
0MM0
1000
0000
0001
1000
0000
0000
,
0010
0000
1000
0000
0200
0000
0300
0010
0000
0000
0001
0000
0100
0001
0000
0100
,
0010
0000
1000
0000
2M01
0000
3000
0001
0000
0MM0
0001
0000
0010
0001
0000
0010
,
0100
0000
1000
0000
0010
0100
0000
0001
0000
0000
0010
0000
0001
0100
0000
0100
,
0010
0000
1000
0000
120M
0000
0300
1000
0000
0000
0100
0000
0000
0010
0000
0100
,
0010
0000
0001
0000
M201
0000
0300
0001
0000
0000
1000
0000
0000
0001
0000
1000
,
0001
0000
0100
0000
M120
0000
0030
0100
0000
0000
0001
0000
0000
0010
0000
0100
,
1000
0000
0001
0000
1000
0001
1000
0000
0001
0100
0001
0000
0010
0000
0100
0010
,
0001
0100
0010
1000
0010
0001
0010
0000
,
1000
0100
0010
0100
1000
0000
0001
0010
0100
0000
0010
0000
0010
0000
0001
0000
,
1000
0100
1000
0000
0001
0000
0100
0010
0100
0001
1000
0000
0010
0000
0000
0000
,
1000
0100
0010
0001
0100
0000
0001
0010
0100
0000
1000
0000
0010
0000
1010
0000
,
0001
0100
M001
0000
0010
0001
1000
0000
0010
1000
0001
0000
0100
0010
1000
0000
,
0100
0010
0001
0000
1000
0010
1000
0000
0001
0010
0001
0000
1000
0100
1000
0000
,
0001
0100
0001
0000
0100
0010
0100
0000
0001
1000
0001
0000
0010
0100
1000
0000
,
1000
0100
0010
0000
0001
0010
0100
0000
0010
0100
1000
0000
0001
0100
0001
0000
,
0010
0100
1000
0000
0001
0010
0001
0010
0100
1000
0100
1000
0010
0100
0010
0100
,
0001
1000
0001
1000
0010
0100
0001
1000
0010
0100
0001
1000
0001
0010
0100
1000
,
0001
0000
0010
0000
0100
0000
1000
0000
0004
0400
0000
0000
0000
0000
0000
0000
0000
0000
0000
0000
0000
0000
0000
0000
0000
0000
0000
0000
0000
0000
0000
0000
,
0000
0000
0303
0000
20M2
3003
0001
1000
,
0100
0010
0100
0000
1000
0000
0010
0000
0400
0000
0000
0000
0301
0000
0010
0000
,
0100
0010
0001
0000
0010
0000
0100
0000
210M
0000
3000
0000
0010
0000
0100
0000
,
0001
0010
0001
0000
0100
0000
0010
0100
0001
0100
0001
0000
0010
0100
0010
0001
,
0100
0001
1000
0100
M021
0030
1000
0010
,
1000
0100
1000
0001
0100
0000
0001
0010
0400
0000
0000
0000
1300
0000
0010
0000
,
0100
0001
0010
0100
1000
0000
0001
0000
M210
0000
0300
0000
0001
0000
1000
0000
,
0001
0100
0001
0000
1000
0000
0100
1000
0010
1000
0001
0000
0010
0100
1000
0001
,
1000
0010
0100
0001
20M0
0000
3001
0100
,
0010
0100
0010
0000
1000
0000
0100
0000
0001
0000
0000
0000
0100
0000
0010
0000
,
0001
0010
0100
0010
0001
0000
1000
0000
1M02
0000
0003
0000
0100
0000
0001
0000
,
0010
0100
1000
0100
0010
0000
0100
0010
0001
0100
0010
0000
0100
0010
1000
0100
,
0010
0200
0320
0032
2M03
3000
0100
1000
,
0010
1000
0001
0100
0001
0000
0010
0000
020M
0000
0300
0000
1000
0000
0010
0000
,
0100
0001
0100
0001
0010
0000
0100
0000
M020
0000
0030
0000
0001
0000
0010
0000
,
0001
0100
0001
0010
0100
0000
0010
0001
0010
0100
1000
0000
0010
1000
0001
0000
,
1000
0000
0100
0010
0100
0000
0010
0000
0220
0000
0000
0000
0330
0000
0000
0000
;

//---------------dance-single - ----------------
#NOTES:
     dance-single:
     :
     Medium:
     7:
     0.479117,0.639536,0.082134,0.410672,0.253248,490.000000,478.000000,12.000000,60.000000,85.000000,0.000000,0.479117,0.639536,0.082134,0.410672,0.253248,490.000000,478.000000,12.000000,60.000000,85.000000,0.000000:
// measure 0
0000
0000
0000
0000
0000
000M
0000
000M
,  // measure 1
0000
0000
0000
0000
0000
00M0
0000
00M0
,  // measure 2
0000
0000
0000
0000
0000
0M00
0000
0M00
,  // measure 3
0000
0000
0000
0000
0000
000M
0000
000M
,  // measure 4
0002
0000
0000
0000
0000
M000
0M00
00M0
,  // measure 5
0M00
0000
0000
0000
0000
M000
00M0
0000
,  // measure 6
0000
0000
0000
0000
0000
0000
M000
0M00
,  // measure 7
00M0
0000
0M00
0000
1003
0100
0010
0100
,  // measure 8
1000
0001
0010
0100
0010
0000
0100
1000
,  // measure 9
0010
0000
1000
0100
0010
0000
0100
0000
0010
0000
0000
0000
0001
0000
0100
0000
,  // measure 10
0010
0000
0100
0010
1000
0000
0001
0000
0010
0000
0000
0000
0010
0000
0001
0000
,  // measure 11
1000
0000
0010
1000
0010
0000
0100
0000
0010
0000
0000
0000
1000
0000
0001
0000
,  // measure 12
0000
0001
0010
0100
0010
0000
0001
0100
,  // measure 13
0010
0000
1000
0100
1000
0000
0100
0000
0010
0000
0000
0000
0010
0000
0001
0000
,  // measure 14
0100
0001
0001
1000
0010
0000
0100
0100
,  // measure 15
0010
0000
1000
0100
1000
0000
0001
0000
0M10
0000
0000
0M01
10M0
0000
001M
0000
,  // measure 16
0100
0001
0010
0001
0010
0000
0100
1000
,  // measure 17
0001
0000
0100
0010
0100
0000
0001
0000
0010
0000
0011
0000
0000
0001
0000
0000
,  // measure 18
1000
0100
0001
0100
0010
0000
0001
1000
,  // measure 19
0010
0000
0100
0000
1000
0000
0100
0000
0001
0000
1000
0000
0000
0100
0000
0000
,  // measure 20
1000
0001
0010
0100
0010
0000
0001
0100
,  // measure 21
0010
0000
1000
0100
0010
0000
0100
0000
0010
0000
0011
0000
0000
1000
0000
0000
,  // measure 22
0100
0000
1000
0010
0100
0000
0001
0000
0010
0000
0000
0000
0001
0000
0010
0000
,  // measure 23
0001
0000
1000
0010
0100
0000
0001
0000
0010
0000
0100
0000
0000
1000
0000
0000
,  // measure 24
00M2
0000
0000
0003
2M00
0000
0000
3000
002M
0000
0000
0030
020M
0000
0000
0300
,  // measure 25
00M2
0000
0000
0003
02M0
0000
0000
0300
M002
0000
0000
0003
M020
0000
0000
0030
,  // measure 26
020M
0000
0000
0300
20M0
0000
0000
3000
02M0
0000
0000
0300
200M
0000
0000
3000
,  // measure 27
0M20
0000
0000
0030
M200
0000
0000
0300
002M
0000
0000
0030
2M00
0000
0000
3000
,  // measure 28
0010
0100
0001
1000
0001
0010
0100
1000
,  // measure 29
0010
0100
0001
0010
0001
1000
0100
1000
,  // measure 30
0010
0100
0010
0100
0010
0100
0010
0100
0010
0100
0010
0100
0010
0100
0010
0100
,  // measure 31
0010
0000
0000
0000
1000
0000
0000
0100
0000
0000
1000
0000
0000
0010
0000
0000
,  // measure 32
0100
0000
00M1
0000
0200
0000
0300
0010
0000
0000
1000
0000
0000
0100
0000
0000
,  // measure 33
0010
0000
0M01
0000
2000
0000
3000
0010
0000
0000
0100
0000
0000
0001
0000
00M0
,  // measure 34
0100
0000
0001
0000
0020
0000
0030
0100
0000
0000
1000
0000
0000
0010
0000
0000
,  // measure 35
020M
0000
0310
0000
1000
0000
0000
0001
0000
0000
0010
0000
0000
0001
0000
0000
,  // measure 36
0100
0000
0010
0000
002M
0000
0030
0100
0000
0000
0010
0000
0000
1000
0000
0000
,  // measure 37
0001
0000
M010
0000
0200
0000
0300
1000
0000
0000
M100
0000
0000
0010
0000
0000
,  // measure 38
0100
1000
0001
0001
1000
1000
0010
0010
,  // measure 39
1000
0100
0010
0000
0002
MM00
0003
1000
0000
0MM0
0001
0000
0000
1000
0000
0000
,  // measure 40
0010
0000
1000
0000
020M
0000
0300
0010
0000
0000
0001
0000
0000
0001
0000
0000
,  // measure 41
0010
0000
0001
0000
20M0
0000
3000
0100
0000
0MM0
1000
0000
0000
0010
0000
0000
,  // measure 42
0100
0000
0001
0000
0010
0000
0000
0001
0000
0000
0100
0000
0000
0010
0000
1000
,  // measure 43
0000
0000
0100
0000
120M
0000
0300
1000
0000
0000
0100
0000
0000
0010
0000
0000
,  // measure 44
0010
0000
0001
0000
M201
0000
0300
0001
0000
0000
1000
0000
0000
0001
0000
0000
,  // measure 45
0001
0000
0100
0000
M120
0000
0030
0100
0000
0000
0001
0000
0000
0010
0000
0000
,  // measure 46
0010
0000
0001
0000
1000
0000
1000
0000
0001
0000
0001
0000
0010
0000
0100
0010
,  // measure 47
0001
0100
0001
1000
0010
0100
0010
0000
,  // measure 48
0100
0000
0001
0000
0010
0000
0001
0010
0100
0000
0010
0000
0010
0000
0001
0000
,  // measure 49
1000
0100
0000
0000
1000
0000
0100
0000
0010
0000
0001
0000
0010
0000
0000
0000
,  // measure 50
0001
0000
0100
0000
0010
0000
1000
0100
0010
0000
0001
0000
1000
0000
1001
0000
,  // measure 51
0001
1000
0000
0000
002M
0000
0000
0030
M200
0000
0000
0300
002M
0000
0000
0030
,  // measure 52
2M00
0000
0000
3000
00M2
0000
0000
0003
2M00
0000
0000
3000
002M
0000
0000
0030
,  // measure 53
M200
0000
0000
0300
00M2
0000
0000
0003
0M20
0000
0000
0030
M200
0000
0000
0300
,  // measure 54
200M
0000
0000
3000
0M02
0000
0000
0003
M020
0000
0000
0030
0M02
0000
0000
0003
,  // measure 55
02M0
0000
0000
0300
0010
0000
1000
0000
0010
0000
1000
0000
0001
0000
0100
0000
,  // measure 56
0001
0100
0001
0010
0001
1000
0010
1000
,  // measure 57
0001
0000
0010
0000
0001
1000
0001
1000
0001
1000
0001
1000
0001
1000
0001
1000
,  // measure 58
0001
1000
0001
1000
0001
0000
0000
0000
2MM2
0000
3003
0000
0001
0000
1000
0000
,  // measure 59
0100
0010
0001
1000
0400
0000
0310
0100
,  // measure 60
1000
0010
0100
0001
2MM1
3000
1000
0100
,  // measure 61
1000
0010
0100
0010
1000
0100
0010
0100
,  // measure 62
1000
0001
1000
0100
M021
0030
1000
0010
,  // measure 63
0100
0010
1000
0001
0400
0000
0301
0010
,  // measure 64
0100
1000
0001
1000
1MM2
0003
0001
1000
,  // measure 65
0001
0100
1000
0100
0010
1000
0100
1000
,  // measure 66
0001
0010
0100
0001
02M0
0000
1300
0010
,  // measure 67
0001
0010
1000
0100
0001
0000
0100
0010
,  // measure 68
0001
0100
0001
1000
1MM2
0003
0100
0001
,  // measure 69
0010
0100
1000
0100
0010
1000
0010
0100
,  // measure 70
0010
0200
0320
0032
2M03
3000
0010
1000
,  // measure 71
0010
1000
0000
0100
0010
0000
0001
0000
M200
0000
0300
0000
0001
0000
0010
0000
,  // measure 72
0100
1000
0000
1000
0100
0000
1000
0000
002M
0000
0030
0000
0100
0000
1000
0000
,  // measure 73
0100
0001
0010
0001
0100
0010
1000
0100
,  // measure 74
0001
0000
0100
0010
0100
0000
0010
0000
0220
0000
0000
0000
0330
0000
0000
0000
;

//---------------dance-single - ----------------
#NOTES:
     dance-single:
     :
     Easy:
     5:
     0.330493,0.434885,0.047912,0.417517,0.034223,338.000000,331.000000,7.000000,61.000000,28.000000,0.000000,0.330493,0.434885,0.047912,0.417517,0.034223,338.000000,331.000000,7.000000,61.000000,28.000000,0.000000:
0000
0000
0000
0000
0000
000M
0000
000M
,
0000
0000
0000
0000
0000
00M0
0000
00M0
,
0000
0000
0000
0000
0000
0M00
0000
0M00
,
0000
0000
0000
0000
0000
000M
0000
000M
,
0000
0000
0000
0000
0000
M000
0M00
00M0
,
0M00
0000
0000
0000
0000
M000
00M0
0000
,
0000
0000
0000
0000
0000
0000
M000
0M00
,
00M0
0M00
1000
0001
,
1000
0000
0010
0000
0010
0000
0100
0001
,
0010
0000
0001
0000
0010
0000
0001
0100
,
0010
0000
1000
0000
0010
0000
0100
0001
,
1000
0000
0100
0000
0010
0000
0100
0100
,
1000
0000
0010
0000
0010
0000
0100
0001
,
0100
0000
0001
0000
0010
0000
0100
0010
,
0100
0000
1000
0000
0010
0000
0100
0010
,
0100
0000
0001
0000
0010
0000
0010
0001
,
0100
0000
0010
0000
0010
0000
0100
0001
,
1000
0000
0000
0000
0100
0000
0000
0000
0010
0000
0001
0000
0000
0001
0000
0000
,
1000
0000
0001
0000
0010
0000
0001
1000
,
0010
0000
0000
0000
1000
0000
0000
0000
0100
0000
0010
0000
0000
0100
0000
0000
,
1000
0000
0010
0000
0010
0000
0100
0001
,
0010
0000
0000
0000
0001
0000
0000
0000
0100
0000
0001
0000
0000
1000
0000
0000
,
0100
0000
0010
0000
0010
0000
0001
0010
,
0001
0000
0000
0000
0100
0000
0000
0000
0010
0000
0100
0000
0000
0001
0000
0000
,
2000
0000
0000
3000
2000
0000
0000
3000
0020
0000
0000
0030
0200
0000
0000
0300
,
0002
0000
0000
0003
0200
0000
0000
0300
0002
0000
0000
0003
0020
0000
0000
0030
,
0200
0000
0000
0300
2000
0000
0000
3000
0200
0000
0000
0300
2000
0000
0000
3000
,
0020
0000
0000
0030
0200
0000
0000
0300
0020
0000
0000
0030
2000
0000
0000
3000
,
0010
0000
1000
0001
1000
0000
0001
0100
,
0001
0000
0001
0010
0001
0000
0100
0010
,
0100
0001
0010
0100
1000
0010
0100
0001
,
0010
0000
0001
0000
0000
1000
0000
0000
,
0100
10M0
0200
0300
0000
1000
0000
0000
,
0010
0000
1M00
0000
0002
0000
0003
0000
0000
0000
0100
0000
0000
0000
0000
00M0
,
0100
0001
0020
0030
0000
0001
0000
0000
,
0200
0310
1000
0000
0000
0100
0000
0000
,
0100
0010
0020
0030
0000
0001
0000
0000
,
1000
0010
0200
0300
0000
M001
0000
0000
,
0100
0001
1000
0001
1000
0001
0010
0010
,
0001
0000
0010
0000
0002
MM00
0003
0000
0000
0MM0
0001
0000
0000
0000
0000
0000
,
0010
0100
2000
3000
0000
0001
0000
0000
,
0010
0000
0001
0000
2000
0000
3000
0000
0000
0MM0
0001
0000
0000
0000
0000
0000
,
0100
0001
0010
0000
0000
0100
0000
0000
,
0000
0100
2000
3000
0000
0100
0000
0000
,
0010
0001
0021
0030
0000
0001
0000
0000
,
1000
0100
2100
3000
0000
0001
0000
0000
,
0010
0001
1000
0000
1000
0000
0010
0100
,
0001
0100
0001
0000
0010
0000
0010
0000
,
0100
1000
0010
0000
0100
0000
0010
1000
,
0000
0100
0000
0000
1000
0000
0000
0000
0100
0000
0000
0000
0010
0000
0000
0000
,
0001
0100
0010
0000
1000
0000
0010
1000
,
0000
1000
0000
0000
0020
0000
0000
0030
0200
0000
0000
0300
0020
0000
0000
0030
,
2000
0000
0000
3000
0002
0000
0000
0003
2000
0000
0000
3000
0020
0000
0000
0030
,
0200
0000
0000
0300
0002
0000
0000
0003
0020
0000
0000
0030
0200
0000
0000
0300
,
2000
0000
0000
3000
0002
0000
0000
0003
0020
0000
0000
0030
0002
0000
0000
0003
,
0200
0000
0000
0300
0010
0000
1000
0000
0010
0000
0000
0000
0100
0000
0001
0000
,
0100
0000
0001
0010
0001
0000
1000
0010
,
1000
0000
0001
0100
0010
1000
0001
0100
,
0010
1000
0001
0000
2002
3003
0001
0000
,
0100
0001
0200
0310
,
1000
0000
0100
0000
2001
3000
1000
0000
,
0010
0000
0100
0000
0001
0100
0001
1000
,
0100
1000
0001
0100
0002
0003
1000
0000
,
0100
1000
0200
0310
,
0100
0000
1000
0000
1002
0003
1000
0000
,
0100
0000
0010
0000
0100
1000
0100
0010
,
0001
0010
0001
0100
0200
0000
0301
0000
,
0010
0001
1000
0100
,
0001
0000
0100
0000
1002
0003
1000
0000
,
0010
1000
0100
0010
,
0010
0200
0320
0032
2003
3000
0010
1000
,
0010
0000
0010
0100
0020
0030
1000
0100
,
0010
0000
0100
1000
0020
0030
0100
0001
,
0100
0001
0010
0001
1000
0010
1000
0100
,
0010
0001
0100
0010
0220
0000
0330
0000
;

//---------------dance-single - ----------------
#NOTES:
     dance-single:
     :
     Beginner:
     3:
     0.201425,0.280455,0.034223,0.294315,0.013689,206.000000,201.000000,5.000000,43.000000,8.000000,0.000000,0.201425,0.280455,0.034223,0.294315,0.013689,206.000000,201.000000,5.000000,43.000000,8.000000,0.000000:
0000
0000
0000
0000
,
0000
0000
0000
0000
,
0000
0000
0000
0000
,
0000
0000
0000
0000
,
0000
0000
0000
0000
,
0000
0000
0000
0000
,
0000
0000
0000
0000
,
0000
0000
0000
0000
,
1000
0000
0010
0000
,
1000
0000
0010
0000
,
0100
0000
0001
0000
,
1000
0000
1000
0200
,
0310
0000
0010
0000
,
0100
0000
1000
0000
,
0010
0000
0100
0000
,
0010
0000
0000
0000
1000
0000
0000
0000
0010
0000
0000
000M
2000
0000
3002
0000
,
1003
0010
0010
0000
,
0100
0001
0010
0000
,
0100
1000
0001
0000
,
0010
0100
0010
0000
,
0001
0010
0010
0000
,
0100
1000
0100
0000
,
1000
0010
1000
0000
,
0001
0010
0001
0000
,
2000
0000
0000
0000
0000
0000
0000
3000
0020
0000
0000
0000
0000
0000
0000
0030
,
0200
0000
0000
0000
0000
0000
0000
0300
0002
0000
0000
0000
0000
0000
0000
0003
,
0200
0000
0000
0000
0000
0000
0000
0300
0002
0000
0000
0000
0000
0000
0000
0003
,
0020
0000
0000
0000
0000
0000
0000
0030
0200
0000
0000
0000
0000
0000
0000
0300
,
1000
1000
0001
0001
,
0010
0010
0100
0100
,
0010
0001
1000
0100
,
1001
0001
0000
0001
,
0100
00M0
0200
0300
0000
0000
0010
0000
,
0010
0000
0M00
0000
2000
0000
3000
0000
0000
0000
0000
0000
0100
0000
0000
00M0
,
0100
0000
0020
0030
0000
0000
0001
0000
,
0200
0310
0000
1000
,
0100
0000
0020
0030
0000
0000
0001
0000
,
1000
0000
0200
0300
0000
0000
1000
0000
,
0010
1000
1000
0001
,
0001
0000
0000
0000
0002
MM00
0003
0000
0000
0MM0
0000
0000
0001
0000
0000
0000
,
0010
0000
0200
0300
0000
0000
0010
0000
,
0100
0000
2000
3000
0000
0000
0010
0000
,
0100
0010
1000
0100
,
1000
0000
2000
3000
0000
0000
0100
0000
,
0010
0000
0002
0003
0000
0000
0100
0000
,
0010
0000
0200
0300
0000
0000
0001
0000
,
0010
0100
0100
0010
,
0001
1000
0010
0010
,
0100
0001
0010
0100
,
0000
1000
0100
0010
,
0001
0100
0010
0100
,
0000
0000
0000
0000
0020
0000
0000
0000
0000
0000
0000
0030
2000
0000
0000
0000
,
0000
0000
0000
3000
0002
0000
0000
0000
0000
0000
0000
0003
0020
0000
0000
0000
,
0000
0000
0000
0030
0002
0000
0000
0000
0000
0000
0000
0003
0200
0000
0000
0000
,
0000
0000
0000
0300
0020
0000
0000
0000
0000
0000
0000
0030
2000
0000
0000
0000
,
0000
0000
0000
3000
0010
0000
0000
0000
0010
0000
0000
0000
0100
0000
0000
0000
,
0100
0001
0001
1000
,
1000
0001
0010
0100
,
1000
0000
1001
0000
2002
3003
0000
0000
,
0001
0000
0200
0300
,
0010
0100
0110
0000
,
0010
1000
0001
0000
,
0100
0000
0001
0000
0002
0003
0000
0000
,
0100
0001
0020
0030
,
0100
1000
0200
0300
,
0010
0010
0100
1000
,
0010
0100
0002
0003
,
0010
0001
1000
0000
,
0001
0000
0100
0000
0002
0003
0000
0000
,
0010
0001
0100
0000
,
0010
0000
0020
0030
2000
3000
0000
0000
,
0100
0000
0100
0000
0200
0300
0000
0000
,
0010
0000
0010
0000
0020
0030
0000
0000
,
0001
0001
1000
0010
,
0100
0001
1001
0000
;
