#TITLE:I'm A Spy;
#SUBTITLE:;
#ARTIST:Fumie Kumatani feat. Tabitha Fair;
#TITLETRANSLIT:;
#SUBTITLETRANSLIT:;
#ARTISTTRANSLIT:;
#GENRE:;
#CREDIT:;
#BANNER:I'm A Spy-bn.png;
#BACKGROUND:I'm A Spy-bg.png;
#LYRICSPATH:;
#CDTITLE:!rain.png;
#MUSIC:I'm A Spy.ogg;
#OFFSET:-0.014000;
#SAMPLESTART:62.144276;
#SAMPLELENGTH:13.812946;
#SELECTABLE:YES;
#BPMS:0.000000=139.000000
;
#STOPS:
;
#BGCHANGES:;
#KEYSOUNDS:;
#ATTACKS:;

//---------------dance-single - ----------------
#NOTES:
     dance-single:
     :
     Challenge:
     11:
     0.564354,0.662743,0.143654,0.278329,0.673377,440.000000,424.000000,16.000000,31.000000,95.000000,18.000000,0.564354,0.662743,0.143654,0.278329,0.673377,440.000000,424.000000,16.000000,31.000000,95.000000,18.000000:
0000
0000
0000
0000
,
0000
0000
0000
0000
,
0000
0000
0000
0000
,
0000
0000
0000
0000
0000
0000
0000
0000
1000
0001
0000
1000
0001
0000
0100
0000
,
1000
0000
0100
0000
0010
0000
0001
0000
0010
0000
0100
0010
0M00
0010
1000
0000
,
0100
0000
0001
0000
0100
0000
0010
0000
0001
0000
1000
0001
00M0
0001
0100
0000
,
0010
0000
0001
0000
0010
0000
0100
0000
0001
0000
0010
0100
M000
0100
1000
0000
,
0001
0100
0010
1000
0100
0000
1000
0100
0010
0001
0100
0000
M0M0
0000
0001
0000
,
0100
0000
1000
0000
0100
0000
0010
0000
1000
0000
0100
0010
000M
0010
0100
0000
,
1000
0000
0010
0000
0001
0000
0010
0000
0100
0000
0001
1000
00M0
1000
0100
0000
,
0010
0000
1000
0000
0010
0000
0001
0000
0100
0000
0001
0000
0100
0010
0100
0001
,
0010
0000
0100
0000
1000
0000
0100
0000
0010
0000
0000
0000
0004
0040
0000
0000
0M00
0000
0000
0000
M000
0000
0000
0000
0M00
0000
0000
0000
M033
0000
0000
0000
,
0002
0000
0000
0000
0010
0000
0000
1000
0000
0000
0100
0000
0000
0000
1000
0000
,
0003
0000
0000
0000
0000
0000
1000
0000
0000
0000
0000
0000
0010
0000
0000
0000
0000
0000
0001
0000
0000
0000
0010
0000
0100
0000
0000
0000
0000
0000
0000
0000
0000
0010
0000
0000
0000
0000
0000
0000
0000
0000
1000
0000
0000
0100
0000
0000
,
0010
0000
0000
0001
0000
0000
0200
0000
0000
0000
M000
0000
0000
0000
00M0
0000
,
0301
0010
0001
0100
0010
0000
1000
0010
1000
0100
0010
0000
0000
0100
0000
0000
,
2000
0000
0000
0000
0100
0000
0000
0001
0000
0000
0010
0000
0000
0000
0100
0000
,
3000
0000
0000
0000
0000
0000
0001
0000
0000
0000
0000
0000
0100
0000
0000
0000
0000
0000
1000
0000
0000
0000
0100
0000
0010
0000
0000
0000
0000
0000
1000
0000
0000
0000
0000
0000
0000
0000
0000
0000
0000
0000
0100
0000
0000
0010
0000
0000
,
0001
0000
0100
0001
0000
0000
2000
0000
0000
0000
0000
0000
0000
0000
3010
0100
,
0010
0000
0000
0001
0000
0000
0010
0000
0000
0000
1000
0000
0000
0000
0000
0000
,
1200
0000
0000
0000
0010
0000
0000
0001
0000
0000
0010
0000
0300
0000
1100
0000
,
0000
0000
0000
0000
0000
0000
1000
0000
0000
0000
0000
0000
0100
0000
0000
0000
0000
0000
0001
0000
0000
0000
0100
0000
0010
0000
0000
0000
0000
0000
0000
0000
0000
0001
0000
0000
0000
0000
0000
0000
0000
0000
1000
0000
0000
0001
0000
0000
,
1000
0000
0000
0001
0000
0000
0201
0000
00M0
0000
000M
0000
M000
0000
00M0
0000
,
0301
1000
0001
0010
0100
0000
1000
0001
1000
0010
0100
0000
0000
0001
0000
0000
,
0021
0000
0000
0000
0100
0000
0000
1000
0000
0000
0100
0000
0000
0000
0001
0000
,
0030
0000
0000
0000
0000
0000
0100
0000
0000
0000
0000
0000
0001
0000
0000
0000
0000
0000
0100
0000
0000
0000
1000
0000
0001
0000
0000
0000
0000
0000
0000
0000
0000
0100
0000
0000
0000
0000
0000
0000
0000
0000
0010
0000
0000
1000
0000
0000
,
0010
0000
1000
0100
0000
0100
0020
0000
0000
0000
0000
0000
0030
0000
0001
1000
,
0001
0000
1000
0001
0000
0001
0020
0000
0000
0000
0100
0000
0000
0000
0030
0000
,
0011
0000
0220
0000
M001
0000
0000
133M
,
0000
0000
2200
0000
00M1
0000
0000
331M
,
0000
0000
0202
0000
M010
0000
0000
13M3
,
0000
0000
2020
0000
0M01
0000
0M01
3M31
,
0000
0000
2200
0000
001M
0000
0000
33M1
,
0000
0000
0202
0000
10M0
0000
0000
M313
,
0000
0000
0220
0000
100M
0000
0000
M331
,
0000
0000
0022
0000
1M00
0000
1M00
1M33
,
0001
0000
0M00
0000
1000
0000
00M0
0000
0001
0000
0M00
1000
0000
0001
M020
0000
,
0000
0000
000M
0000
0130
0000
00M0
0000
1000
0000
000M
0100
0000
1000
0M01
0000
,
0100
0000
M000
0000
0010
0000
000M
0000
0100
0000
M000
0010
0000
0100
00M1
0000
,
1000
0100
0010
0001
1000
0000
0001
0100
0010
1000
0001
0000
0000
0000
M000
0000
,
0100
0000
000M
0000
0010
0000
M000
0000
0100
0000
000M
0010
0000
0100
00M2
0000
,
0000
0000
00M0
0000
1003
0000
000M
0000
0100
0000
00M0
1000
0000
0100
M010
0000
,
0001
0000
M000
0000
0100
0000
00M0
0000
0001
0000
M000
0100
0000
0001
0010
0100
,
1000
0000
0010
0000
0100
0000
0001
0000
1000
0000
0000
0000
0040
4000
0000
0000
0000
0000
0000
0000
0000
0000
0000
0000
0000
0000
0000
0000
3030
0000
0000
0000
,
1010
0M00
0100
0MM0
0010
00MM
0001
M00M
,
1000
0000
0000
0000
0000
0000
0001
0000
0000
0000
0000
0000
0100
0000
0000
0000
0000
0000
1000
0000
0000
0000
0100
0000
0010
0000
0000
0000
0000
0000
1000
0000
0000
0000
0000
0000
0000
0000
0000
0000
0000
0000
0100
0000
0000
0010
0000
0000
,
0100
0000
0000
0010
0000
0000
0002
0000
0000
0000
0003
0000
1000
0001
1000
0000
,
0010
0100
0001
0010
0100
0000
0010
0100
1000
0010
0100
0000
0000
0001
0000
0000
,
1100
000M
0001
0M0M
0100
0MM0
0010
M0M0
,
1000
0000
0000
0000
0000
0000
0100
0000
0000
0000
0000
0000
0001
0000
0000
0000
0000
0000
0100
0000
0000
0000
0010
0000
0001
0000
0000
0000
0000
0000
1000
0000
0000
0000
0000
0000
0000
0000
0000
0000
0000
0000
0001
0000
0000
1000
0000
0000
,
0001
0000
0001
0100
0000
0000
0120
0000
0000
0000
0000
0000
0000
0000
1030
0100
,
0010
0000
0000
0001
0000
0000
0100
0000
0000
0000
0010
1000
0001
0010
0100
1000
,
0001
0000
0001
0000
0000
0001
0000
0000
0001
0000
0000
0001
0000
0000
0001
0000
,
0000
0000
0000
1000
0001
0000
0100
0000
0000
0010
0000
0000
1000
0000
0100
0000
0010
0000
0001
0000
0100
0000
0010
0000
,
1000
0100
0001
0100
1000
0100
0020
0000
0000
0000
0000
0000
,
0031
0100
0010
0100
0001
0000
1000
0100
0010
0100
1000
0000
0001
1000
0000
0000
,
0000
0000
0000
1000
0000
0000
0001
0000
1000
0000
0010
0000
0001
0000
0010
0000
0100
0000
0010
0000
0000
0000
0001
0000
,
0010
M000
0M00
00M0
000M
1000
0100
0000
0010
0100
0000
1000
,
0001
0000
0000
0000
1000
0000
0000
0000
0100
0000
0000
0000
0010
0000
0000
0001
0000
0000
1000
0000
0000
0100
0000
0000
0010
0000
0000
0001
0000
0000
0100
0000
0000
0010
0000
0000
1000
0000
0000
0001
0000
0000
1000
0000
0000
0010
0000
0000
,
0200
0000
0000
00MM
0000
0000
0000
0000
0000
M00M
0000
0000
0000
0000
0000
M0M0
0000
0000
0301
0100
0010
1000
0000
0000
,
0100
0000
0001
0000
0100
0000
0000
0000
0000
1000
0100
0010
0001
0000
0100
0000
0010
0000
0000
0000
0000
0010
0000
0000
,
1000
0000
0000
0000
0000
0000
0000
0000
0000
0000
0000
0000
0001
0000
1000
0000
0001
0000
1000
0000
0000
0000
0000
0000
0100
0000
0000
0000
0000
0000
1000
0000
0000
0100
0000
0000
0000
0000
0000
0010
0000
0000
0001
0000
0000
0000
0000
0000
,
4000
0040
0000
0000
0M00
0000
0000
0000
000M
0000
0000
0000
0M00
0000
0000
0000
000M
0000
0000
0000
0M00
0000
0000
0000
000M
0000
0000
0000
0M00
0000
3030
0000
,
100M
0100
0010
0001
0100
0010
0000
0000
0100
0010
1000
0001
1000
0100
0010
0001
,
M000
0M00
00M0
000M
0000
0000
0000
0000
0000
0000
0000
0000
0000
0000
0000
0000
;

//---------------dance-single - ----------------
#NOTES:
     dance-single:
     :
     Beginner:
     1:
     0.046174,0.114923,0.044892,0.071827,0.000000,36.000000,31.000000,5.000000,8.000000,0.000000,0.000000,0.046174,0.114923,0.044892,0.071827,0.000000,36.000000,31.000000,5.000000,8.000000,0.000000,0.000000:
0000
0000
0000
0000
,
0000
0000
0000
0000
,
0000
0000
0000
0000
,
0000
0000
0000
0000
,
1000
0000
0000
0000
,
0000
0000
0000
0000
,
0001
0000
0000
0000
,
0000
0000
0000
0000
,
0010
0000
0000
0000
,
0000
0000
0000
0000
,
0100
0000
0000
0000
,
0000
0000
0000
0000
,
0001
0000
0000
0000
,
0000
0000
0000
0000
,
1000
0000
0000
0000
,
0000
0000
0000
0000
,
0010
0000
0000
0000
,
0000
0000
0000
0000
,
0001
0000
0000
0000
,
0000
0000
0000
0000
,
0010
0000
0000
0000
,
0000
0000
0000
0000
,
1000
0000
0000
0000
,
0000
0000
0000
0000
,
0100
0000
0000
0000
,
0000
0000
0000
0000
,
0010
0000
0000
0000
,
0000
0000
0000
0000
,
0002
0000
0000
0000
,
0003
0000
0000
0000
,
2000
0000
0000
0000
,
3000
0000
0000
0000
,
0002
0000
0000
0000
,
0003
0000
0000
0000
,
2000
0000
0000
0000
,
3000
0000
0000
0000
,
1001
0000
0000
0000
,
0000
0000
0000
0000
,
0110
0000
0000
0000
,
0000
0000
0000
0000
,
1001
0000
0000
0000
,
0000
0000
0000
0000
,
0110
0000
0000
0000
,
0000
0000
0000
0000
,
1000
0000
0000
0000
,
0000
0000
0000
0000
,
0001
0000
0000
0000
,
0000
0000
0000
0000
,
0100
0000
0000
0000
,
0000
0000
0000
0000
,
0010
0000
0000
0000
,
0000
0000
0000
0000
,
2000
0000
0000
0000
,
3000
0000
0000
0000
,
0002
0000
0000
0000
,
0003
0000
0000
0000
,
0020
0000
0000
0000
,
0030
0000
0000
0000
,
0200
0000
0000
0000
,
0300
0000
0000
0000
,
1001
0000
0000
0000
,
0000
0000
0000
0000
,
0010
0000
0000
0000
,
0000
0000
0000
0000
,
0100
0000
0000
0000
;

//---------------dance-single - ----------------
#NOTES:
     dance-single:
     :
     Easy:
     2:
     0.191111,0.229846,0.071827,0.215480,0.000000,149.000000,141.000000,8.000000,24.000000,0.000000,0.000000,0.191111,0.229846,0.071827,0.215480,0.000000,149.000000,141.000000,8.000000,24.000000,0.000000,0.000000:
0000
0000
0000
0000
,
0000
0000
0000
0000
,
0000
0000
0000
0000
,
0000
0000
0000
0000
,
1000
0000
0100
0000
,
0010
0000
0001
0000
,
0100
0000
0010
0000
,
2000
0000
3100
0000
,
0001
0000
0100
0000
,
0010
0000
1000
0000
,
0100
0000
0010
0000
,
0002
0000
0103
0000
,
1001
0000
0000
0000
,
1000
0100
0010
0001
,
0100
0010
1000
0000
,
0001
0000
1000
0000
,
0110
0000
0000
0000
,
1000
0001
0010
0100
,
2000
0000
3010
0000
,
0002
0000
0013
0000
,
1001
0000
0000
0000
,
0001
0100
0001
1000
,
0100
1000
0001
0000
,
0010
0000
0100
0000
,
1010
0000
0000
0000
,
1000
0100
0010
0100
,
0020
0000
0130
0000
,
0200
0000
0310
0000
,
0000
0002
0100
0000
,
0003
2000
0100
0000
,
3000
0002
0100
0000
,
0003
2000
0200
0000
,
3300
0002
0010
0000
,
0003
2000
0010
0000
,
3000
0002
0010
0000
,
0003
2000
0020
0030
,
3010
0000
0100
0001
,
0100
0000
0001
1000
,
0001
0000
1000
0100
,
1000
0000
0001
0000
,
0010
0100
0010
0000
,
1000
0100
1000
0000
,
0001
0100
0001
0000
,
0100
0010
0100
0010
,
0100
0000
0000
0000
,
0001
1000
0100
0010
,
0002
0000
0103
0000
,
0010
1000
0100
0000
,
1001
0000
0000
0000
,
1000
0010
0100
0001
,
0020
0000
0130
0000
,
0200
0000
1300
0000
,
1100
0000
0000
0000
,
1000
0010
1000
0010
,
0200
0000
0301
0000
,
0001
0010
0100
0000
,
0011
0000
0000
0000
,
0001
1000
0001
0100
,
0002
0000
0103
0000
,
0200
0000
0310
0000
,
0002
0000
0010
0000
,
0100
0000
0010
0003
,
2000
0000
0100
0000
,
0010
0000
3100
0000
,
1001
0000
0000
0000
;

//---------------dance-single - ----------------
#NOTES:
     dance-single:
     :
     Hard:
     7:
     0.334764,0.402230,0.098762,0.260372,0.121208,261.000000,250.000000,11.000000,29.000000,0.000000,0.000000,0.334764,0.402230,0.098762,0.260372,0.121208,261.000000,250.000000,11.000000,29.000000,0.000000,0.000000:
0000
0000
0000
0000
,
0000
0000
0000
0000
,
0000
0000
0000
0000
,
0000
0000
0000
0000
0000
0000
0000
1000
,
0100
0010
0001
0010
0100
1000
0010
0100
,
0001
1000
0010
0100
0000
0100
0000
0001
,
0010
0100
1000
0010
1000
0100
0010
0001
,
0100
0010
0100
0001
0000
0000
0000
0001
,
0010
1000
0001
0100
1000
0010
0001
0010
,
0100
0001
0100
0010
0000
0010
0000
1000
,
0100
0001
1000
0010
0001
0100
1000
0100
,
0010
1000
0100
0011
0000
0000
0000
0000
,
2000
0000
0000
0000
,
3000
0000
0001
0000
0010
0000
0100
0000
1000
0000
0000
0010
0000
0000
0100
0000
,
0001
0000
0000
0100
0000
0000
2000
0000
0000
0000
0000
0000
0000
0000
0000
0000
,
3100
0000
0010
0000
1000
0000
0100
0000
0010
0000
0001
0000
0000
0100
0000
0000
,
0020
0000
0000
0000
,
0030
0000
1000
0000
0100
0000
0001
0000
1000
0000
0000
0001
0000
0000
0100
0000
,
1000
0000
0000
0010
0000
0000
0110
0000
0000
0000
0000
0000
0000
0000
0100
0000
,
0001
0000
0000
0010
0000
0000
0100
0000
0000
0000
1100
0000
0000
0000
0000
0000
,
0002
0000
0000
0000
,
0003
0000
0100
0000
1000
0000
0100
0000
0010
0000
0000
0001
0000
0000
0010
0000
,
1000
0000
0000
0100
0000
0000
0020
0000
0000
0000
0000
0000
0000
0000
0000
0000
,
0130
0000
0001
0000
0100
0000
1000
0000
0100
0000
0001
0000
0000
1000
0000
0000
,
0002
0000
0000
0000
,
0003
0000
0100
0000
0010
0000
0001
0000
0100
0000
0000
0010
0000
0000
1000
0000
,
0010
0000
0000
0001
0000
0000
0020
0000
0000
0000
0000
0000
0030
0000
0100
0000
,
0001
0000
0000
0010
0000
0000
1000
0000
0000
0000
0110
0000
0000
0000
0000
0000
,
0000
0000
2000
0000
0020
0000
3030
1010
,
0000
0000
0002
0000
0200
0000
0303
0101
,
0000
0000
0002
0000
0020
0000
0033
0011
,
0000
0000
0020
0000
0200
0300
0230
0310
,
0000
0000
2000
0000
0200
0000
3300
1100
,
0000
0000
0002
0000
2000
0000
3003
1001
,
0000
0000
0200
0000
0020
0000
0330
0110
,
0000
0000
2000
0000
0020
0030
3020
1030
,
0010
0000
0000
0000
1000
0000
0000
0000
0100
0000
0000
0010
0000
0000
0001
0000
,
0000
0000
0000
0000
0010
0000
0000
0000
1000
0000
0000
0010
0000
0000
0001
0000
,
0100
0000
0000
0000
1000
0000
0000
0000
0100
0000
0000
0001
0000
0000
0100
0000
,
0010
1000
0100
0010
0001
0100
0000
0000
,
0001
0000
0000
0000
1000
0000
0000
0000
0001
0000
0000
0010
0000
0000
1000
0000
,
0000
0000
0000
0000
0010
0000
0000
0000
0001
0000
0000
0100
0000
0000
1000
0000
,
0100
0000
0000
0000
0001
0000
0000
0000
0010
0000
0000
0100
0000
0000
1000
0000
,
0100
0001
0100
1001
0000
0000
0000
0000
,
2000
0010
0010
0010
,
3010
0100
0001
0010
1000
0010
0000
0100
,
1000
0000
0000
0100
0000
0000
0001
0000
0000
0000
0000
0000
0100
0000
1000
0000
,
0010
0000
0100
0000
1000
0000
0100
0000
0010
0000
0100
0000
0000
0001
0000
0000
,
0020
0100
0100
0100
,
0130
0000
1000
0000
0001
0000
0100
0000
1000
0000
0000
0100
0000
0000
0010
0000
,
0001
0000
0000
1000
0000
0000
0002
0000
0000
0000
0000
0000
0003
0000
0010
0000
,
1000
0000
0000
0100
0000
0000
0001
0000
0000
0000
0100
0000
1000
0000
0100
0000
,
1000
0000
0000
0001
0000
0000
1000
0000
0000
0001
0000
0000
1000
0000
0000
0001
,
0000
1000
0100
0001
0100
0000
0010
0001
,
0100
0000
0000
0010
0000
0000
2000
0000
0000
0000
0000
0000
0000
0000
0000
0000
,
3001
0100
0010
1000
0100
0001
1000
0001
,
0100
0000
0000
0000
;

//---------------dance-single - ----------------
#NOTES:
     dance-single:
     :
     Medium:
     6:
     0.315525,0.373500,0.017957,0.215480,0.000000,246.000000,244.000000,2.000000,24.000000,0.000000,0.000000,0.315525,0.373500,0.017957,0.215480,0.000000,246.000000,244.000000,2.000000,24.000000,0.000000,0.000000:
// measure 0
0000
0000
0000
0000
,  // measure 1
0000
0000
0000
0000
,  // measure 2
0000
0000
0000
0000
,  // measure 3
0000
0000
0000
0000
,  // measure 4
1000
0001
0010
0100
,  // measure 5
1000
0001
0100
0010
,  // measure 6
1000
0001
0100
0010
,  // measure 7
1000
0001
1000
0000
0001
1000
0001
0000
,  // measure 8
0100
0010
1000
0100
,  // measure 9
0010
0001
0010
0100
,  // measure 10
1000
0001
0100
0010
,  // measure 11
0100
0000
0000
1001
0000
0000
0000
0000
,  // measure 12
0002
0000
0000
0000
,  // measure 13
0003
1000
0100
0000
0010
0000
0100
0000
,  // measure 14
1000
0000
0001
0200
0000
0000
0000
0000
,  // measure 15
0310
1000
0010
0000
1000
0010
1000
0000
,  // measure 16
0200
0000
0000
0000
,  // measure 17
0300
0010
0001
0000
1000
0000
0010
0000
,  // measure 18
0100
0000
0001
0020
0000
0000
0000
0000
,  // measure 19
0130
1000
0100
0000
1000
0100
1000
0000
,  // measure 20
0002
0000
0000
0000
,  // measure 21
0003
0100
0010
0000
0100
0000
0001
0000
,  // measure 22
0010
0000
0100
2000
0000
0000
0000
0000
,  // measure 23
3001
1000
0001
0000
1000
0001
1000
0000
,  // measure 24
0020
0000
0000
0000
,  // measure 25
0030
0100
0001
0000
0010
0000
0100
0000
,  // measure 26
1000
0000
0010
0200
0000
0000
0000
0301
,  // measure 27
0010
0100
1000
0001
,  // measure 28
1000
0000
0002
0000
0100
0000
0000
1000
,  // measure 29
0003
0000
2000
0000
0100
0000
0000
0001
,  // measure 30
3000
0000
0002
0000
0100
0000
0000
1000
,  // measure 31
0003
0000
2000
0000
0100
0000
0001
0010
,  // measure 32
3000
0000
0002
0000
0010
0000
0000
1003
,  // measure 33
0000
0000
2000
0000
0010
0000
0000
0001
,  // measure 34
3000
0000
0002
0000
0010
0000
0000
1000
,  // measure 35
0003
0000
2000
0000
0010
0000
0001
3100
,  // measure 36
1000
0000
0001
0000
0010
0000
0100
1000
,  // measure 37
0010
0000
0100
0000
0001
0000
1000
0100
,  // measure 38
1000
0000
0001
0000
0100
0000
0010
1000
,  // measure 39
0001
1000
0001
0000
1000
0001
1000
0000
,  // measure 40
0001
0000
0010
0000
0100
0000
1000
0001
,  // measure 41
0100
0000
0010
0000
1000
0000
0001
0100
,  // measure 42
0001
0000
1000
0000
0100
0000
1000
0010
,  // measure 43
0100
0000
0000
1001
0000
0000
0000
0000
,  // measure 44
2000
0001
0010
0100
,  // measure 45
3001
0001
0010
0000
0100
0000
0010
0000
,  // measure 46
0001
0000
1000
0020
0000
0000
0100
0000
,  // measure 47
0130
0001
0100
0000
0001
0100
0001
0000
,  // measure 48
0020
1000
0001
1000
,  // measure 49
0130
0100
1000
0000
0001
0000
0100
0000
,  // measure 50
0010
0000
1000
0200
0000
0000
0010
0000
,  // measure 51
0310
0001
0010
0000
0001
0010
0001
0000
,  // measure 52
2000
0100
0010
0100
,  // measure 53
3010
0010
0100
0000
0010
0000
1000
0000
,  // measure 54
0100
0000
0010
0002
0000
0000
1000
0000
,  // measure 55
1003
0001
1000
0000
0001
1000
0001
0000
,  // measure 56
0200
0000
0000
0000
,  // measure 57
0300
0010
1000
0000
0100
0000
0010
0000
,  // measure 58
0001
0000
0100
0020
0000
0000
0000
1030
,  // measure 59
0100
0010
0001
1000
,  // measure 60
0010
0000
0100
0000
0001
0000
0010
0100
,  // measure 61
1000
0000
0010
0000
0100
0000
0001
1000
,  // measure 62
0010
0000
0100
0000
0001
0000
0010
0100
,  // measure 63
1000
0000
0001
0000
0100
0001
0100
0001
,  // measure 64
1000
0000
0000
0000
;
