#TITLE:Hard Driver;
#SUBTITLE:;
#ARTIST:Stellar;
#TITLETRANSLIT:;
#SUBTITLETRANSLIT:;
#ARTISTTRANSLIT:;
#GENRE:;
#CREDIT:;
#BANNER:Hard Driver-bn.png;
#BACKGROUND:Hard Driver-bg.png;
#LYRICSPATH:;
#CDTITLE:;
#MUSIC:Hard Driver.ogg;
#OFFSET:0.007;
#SAMPLESTART:54.837;
#SAMPLELENGTH:13.714;
#SELECTABLE:YES;
#BPMS:0.000=140.000;
#STOPS:;
#TIMESIGNATURES:0.000=4=4
;
#BGCHANGES:;
#KEYSOUNDS:;

//---------------dance-single - ----------------
#NOTES:
     dance-single:
     :
     Hard:
     7:
     0.393,0.451,0.020,0.000,0.459,271.000,2.000,0.000,0.000,0.000,0.000,0.393,0.451,0.020,0.000,0.459,271.000,2.000,0.000,0.000,0.000,0.000: // measure 1
0000
0000
0000
0000
,  // measure 2
0000
0000
0000
0000
,  // measure 3
0000
0000
0000
0000
,  // measure 4
0000
0000
0000
0000
,  // measure 5
0000
0000
0000
0000
,  // measure 6
0000
0000
0000
0000
,  // measure 7
0000
0000
0000
0000
,  // measure 8
0000
0000
0000
0000
,  // measure 9
1001
0000
0000
0000
1000
0000
0000
0000
0000
0000
0001
0000
0000
0100
0000
0000
,  // measure 10
0001
0000
0000
0000
0001
0000
0000
0000
0000
0000
1000
0000
0000
0100
0000
0000
,  // measure 11
1000
0000
0000
0000
1000
0000
0000
0000
0000
0000
0001
0000
0000
0010
0000
0000
,  // measure 12
0001
0000
0000
0000
0001
0000
0000
0000
0000
0000
1000
0000
0000
0010
0000
0000
,  // measure 13
1000
0000
0000
0000
1000
0000
0000
0000
0000
0000
0001
0000
0000
0100
0000
0000
,  // measure 14
0010
0000
0000
0000
0010
0000
0000
0000
0000
0000
1000
0000
0000
0100
0000
0000
,  // measure 15
0010
0000
0000
0000
0010
0000
0000
0000
0000
0000
0001
0000
0000
0010
0000
0000
,  // measure 16
0100
0000
1000
0100
1000
0000
0001
0001
,  // measure 17
1000
0000
0000
0000
0001
0000
0000
0000
1000
0000
0000
0100
0010
0000
0000
0000
,  // measure 18
0001
0000
0000
0000
1000
0000
0000
0000
0001
0000
0000
0100
0010
0000
0000
0000
,  // measure 19
1000
0000
0000
0000
0001
0000
0000
0000
1000
0000
0000
0010
0100
0000
0000
0000
,  // measure 20
0001
0000
0000
0000
1000
0000
0000
0000
0001
0000
0000
0010
0100
0000
0000
0000
,  // measure 21
1000
0000
0000
0000
0001
0000
0000
0000
0100
0000
0000
0010
1000
0000
0000
0000
,  // measure 22
0001
0000
0000
0000
1000
0000
0000
0000
0100
0000
0000
0010
0001
0000
0000
0000
,  // measure 23
1000
0000
0000
0000
0001
0000
0000
0000
0010
0000
0000
0100
1000
0000
0000
0000
,  // measure 24
0001
0000
0000
0000
1000
0000
0000
0000
0010
0000
0000
0100
0001
0000
0100
0000
,  // measure 25
0010
0000
1000
0000
0100
0000
0000
0000
0010
0000
0000
0001
0100
0000
0000
0000
,  // measure 26
0010
0000
1000
0000
0001
0000
0000
0000
0010
0000
0000
0001
1000
0000
0000
0000
,  // measure 27
0100
0000
1000
0000
0010
0000
0000
0000
0100
0000
0000
0001
0010
0000
0000
0000
,  // measure 28
0100
0000
1000
0000
0001
0000
0000
0000
0100
0000
0000
0001
1000
0000
0010
0000
,  // measure 29
1000
0000
0100
0000
1000
0000
0100
0000
0010
0000
0000
0001
1000
0000
0000
0000
,  // measure 30
0001
0000
0100
0000
0001
0000
0100
0000
0010
0000
0000
1000
0001
0000
0000
0000
,  // measure 31
1000
0000
0010
0000
1000
0000
0010
0000
0100
0000
0000
0001
1000
0000
0000
0000
,  // measure 32
0001
0000
0010
0000
0001
0000
0010
0000
0100
0000
0000
0100
0000
0000
0000
0000
,  // measure 33
1000
0000
0000
0001
0000
0100
0000
0001
0000
0000
1000
0000
0000
0010
0000
0000
,  // measure 34
1000
0000
0000
0001
0000
0010
0000
0001
0000
0000
1000
0000
0000
0100
0000
0000
,  // measure 35
1000
0000
0000
0001
0000
0100
0000
0001
0000
0000
1000
0000
0000
0010
0000
0000
,  // measure 36
1000
0000
0000
0001
0000
0010
0000
0001
0000
0000
1000
0000
0000
0100
0000
0000
,  // measure 37
1000
0000
0000
0001
0000
0100
0000
0010
0000
0000
1000
0000
0000
0010
0000
0000
,  // measure 38
1000
0000
0000
0001
0000
0010
0000
0100
0000
0000
1000
0000
0000
0100
0000
0000
,  // measure 39
1000
0000
0000
0001
0000
0100
0000
0010
0000
0000
1000
0000
0000
0010
0000
0000
,  // measure 40
1000
0000
0000
0001
0000
0010
0000
0100
0000
0000
1000
0000
0000
0100
0000
0000
,  // measure 41
1100
0000
0000
1000
0000
0001
0000
0100
0000
0000
0010
0000
0000
1000
0000
0000
,  // measure 42
0100
0000
0000
1000
0000
0001
0000
0100
0000
0000
0010
0000
0000
1000
0000
0000
,  // measure 43
0001
0000
0000
0010
0000
0001
0000
1000
0000
0000
0010
0000
0000
0100
0000
0000
,  // measure 44
0001
0000
0000
0010
0000
0001
0000
1000
0000
0000
0010
0000
0000
1000
0000
0000
,  // measure 45
0100
0000
0000
1000
0000
0001
0000
0010
0000
0000
0100
0000
0000
1000
0000
0000
,  // measure 46
0010
0000
0000
1000
0000
0001
0000
0010
0000
0000
0100
0000
0000
1000
0000
0000
,  // measure 47
0001
0000
0000
0100
0000
0001
0000
1000
0000
0000
0100
0000
0000
0010
0000
0000
,  // measure 48
0001
0000
0000
0100
0000
0001
0000
1000
0100
0000
0000
1000
0001
0000
0001
0000
,  // measure 49
0001
0100
0000
1000
0000
0100
0000
0001
,  // measure 50
0000
0000
0100
0000
0000
0000
0010
0000
0000
0000
0001
0000
0000
0010
0100
0000
,  // measure 51
0001
1000
0000
0100
0000
0001
0000
0100
,  // measure 52
0000
0000
1000
0000
0000
0000
0100
0000
0000
0000
0010
0000
0000
0001
1000
0000
,  // measure 53
0010
0001
0000
0010
0000
1000
0000
0010
,  // measure 54
0000
0000
0100
0000
0000
0000
1000
0000
0000
0000
0100
0000
0000
0001
0100
0000
,  // measure 55
0010
1000
0100
1000
0001
0010
0001
0100
,  // measure 56
0010
0000
1000
0000
0100
0000
1000
0000
0001
0000
0000
0010
0100
0000
1000
0000
;

//---------------dance-single - ----------------
#NOTES:
     dance-single:
     :
     Medium:
     5:
     0.297,0.310,0.020,0.020,0.086,202.000,2.000,2.000,0.000,0.000,0.000,0.297,0.310,0.020,0.020,0.086,202.000,2.000,2.000,0.000,0.000,0.000:
0000
0000
0000
0000
,
0000
0000
0000
0000
,
0000
0000
0000
0000
,
0000
0000
0000
0000
,
0000
0000
0000
0000
,
0000
0000
0000
0000
,
0000
0000
0000
0000
,
0000
0000
0000
0000
,
1001
0000
0001
0010
,
0001
0000
1000
0100
,
1000
0000
0001
0100
,
0001
0000
1000
0010
,
1000
0000
0001
0010
,
0001
0000
1000
0100
,
1000
0000
0001
0100
,
0001
0000
1000
0010
,
1000
0000
0000
0000
1000
0000
0000
0000
0001
0000
0000
0001
0000
0000
0000
0000
,
0100
0000
0000
0000
0100
0000
0000
0000
0010
0000
0000
0010
0000
0000
0000
0000
,
1000
0000
0000
0000
1000
0000
0000
0000
0001
0000
0000
0001
0000
0000
0000
0000
,
0010
0000
0000
0000
0010
0000
0000
0000
0100
0000
0000
0100
0000
0000
0000
0000
,
1000
0000
0000
0000
1000
0000
0000
0000
0001
0000
0000
0001
0000
0000
0000
0000
,
0100
0000
0000
0000
0100
0000
0000
0000
0010
0000
0000
0010
0000
0000
0000
0000
,
1000
0000
0000
0000
1000
0000
0000
0000
0001
0000
0000
0001
0000
0000
0000
0000
,
0010
0000
0000
0000
0010
0000
0000
0000
0100
0000
0000
0100
0000
0000
0000
0000
,
1000
0000
0000
0000
0001
0000
0000
0000
1000
0000
0000
0100
0000
0000
0000
0000
,
1000
0000
0000
0000
0001
0000
0000
0000
1000
0000
0000
0010
0000
0000
0000
0000
,
1000
0000
0000
0000
0001
0000
0000
0000
0010
0000
0000
0001
0000
0000
0000
0000
,
1000
0000
0000
0000
0001
0000
0000
0000
0100
0000
0000
0001
0000
0000
0000
0000
,
0100
0000
0000
0000
0010
0000
0000
0000
1000
0000
0000
1000
0000
0000
0000
0000
,
0100
0000
0000
0000
0010
0000
0000
0000
0001
0000
0000
0001
0000
0000
0000
0000
,
0010
0000
0000
0000
0100
0000
0000
0000
1000
0000
0000
1000
0000
0000
0000
0000
,
0010
0000
0000
0000
0100
0000
0000
0000
0001
0000
0000
0001
0000
0000
0000
0000
,
1000
0000
0100
0000
0010
0000
0001
1000
,
0001
0000
1000
0000
0010
0000
0100
0010
,
0100
0000
0001
0000
1000
0000
0100
0010
,
0100
0000
1000
0000
0001
0000
0100
0010
,
0100
0000
0001
0000
1000
0000
0010
0100
,
0010
0000
1000
0000
0001
0000
0010
0100
,
0010
0000
0001
0000
1000
0000
0001
0100
,
0001
0000
1000
0000
0001
0000
1000
0100
,
1000
0000
0001
0000
0010
0000
0001
1000
,
0010
0000
1000
0000
0001
0000
1000
0001
,
0010
0000
0100
0000
1000
0000
0001
0100
,
0010
0000
1000
0000
0001
0000
1000
0100
,
0010
0000
0001
0000
1000
0000
0010
1000
,
0100
0000
1000
0000
0001
0000
0010
0001
,
0100
0000
0001
0000
1000
0000
0100
1000
,
0010
0100
0202
0303
,
0001
0100
0000
0100
0000
0010
0000
0010
,
0000
1000
0000
1000
0000
0001
0000
0001
,
0000
1000
0000
1000
0000
0100
0000
0100
,
0000
0010
0000
0010
0000
0001
0000
0001
,
1000
0001
0000
1000
0000
0010
0000
1000
,
0000
0001
0000
1000
0000
0100
0000
0010
,
0000
0001
0000
1000
0000
0001
0000
0100
,
0000
0000
0010
0000
0000
0000
1000
0000
0001
0000
0000
0100
0001
0000
0100
0000
;

//---------------dance-single - ----------------
#NOTES:
     dance-single:
     :
     Beginner:
     1:
     0.107,0.141,0.010,0.010,0.000,72.000,1.000,1.000,0.000,0.000,0.000,0.107,0.141,0.010,0.010,0.000,72.000,1.000,1.000,0.000,0.000,0.000:
0000
0000
0000
0000
,
0000
0000
0000
0000
,
0000
0000
0000
0000
,
0000
0000
0000
0000
,
0000
0000
0000
0000
,
0000
0000
0000
0000
,
0000
0000
0000
0000
,
0000
0000
0000
0000
,
1001
0000
0000
0000
,
0001
0000
0000
0000
,
1000
0000
0000
0000
,
0100
0000
0000
0000
,
0010
0000
0000
0000
,
0001
0000
0000
0000
,
1000
0000
0000
0000
,
0001
0000
1000
1000
,
1000
0000
1000
0000
,
1000
0000
0000
0000
,
0001
0000
0001
0000
,
0001
0000
0000
0000
,
0100
0000
0100
0000
,
0100
0000
0000
0000
,
0010
0000
0010
0000
,
0010
0000
0000
0000
,
1000
0000
0001
0000
,
1000
0000
0000
0000
,
0001
0000
1000
0000
,
0001
0000
0000
0000
,
0010
0000
0100
0000
,
0010
0000
0000
0000
,
0100
0000
1000
0000
,
0200
0000
0300
0000
,
1000
0000
0000
1000
,
1000
0000
0000
0000
,
0001
0000
0000
0001
,
0001
0000
0000
0000
,
0100
0000
0000
0100
,
0100
0000
0000
0000
,
0010
0000
0000
0010
,
0010
0000
0000
0000
,
1000
0000
0000
0001
,
0001
0000
0000
0000
,
0010
0000
0000
0100
,
0100
0000
0000
0000
,
1000
0000
0000
0001
,
0001
0000
0000
0000
,
0100
0000
0000
0010
,
0010
0000
0000
0000
,
0000
1000
0000
1000
,
0000
1000
0000
0000
,
0000
0001
0000
0001
,
0000
0001
0000
0000
,
0000
1000
0000
0001
,
0000
1000
0000
0000
,
0000
0010
0000
0100
,
0000
0010
0010
0010
;

//---------------dance-single - ----------------
#NOTES:
     dance-single:
     :
     Easy:
     3:
     0.168,0.253,0.030,0.030,0.000,111.000,3.000,3.000,0.000,0.000,0.000,0.168,0.253,0.030,0.030,0.000,111.000,3.000,3.000,0.000,0.000,0.000:
0000
0000
0000
0000
,
0000
0000
0000
0000
,
0000
0000
0000
0000
,
0000
0000
0000
0000
,
0000
0000
0000
0000
,
0000
0000
0000
0000
,
0000
0000
0000
0000
,
0000
0000
0000
0000
,
1001
0000
0000
0001
,
0001
0000
0000
1000
,
1000
0000
0000
0010
,
0010
0000
0000
0100
,
0100
0000
0000
0001
,
0001
0000
0000
1000
,
1000
0000
0000
0100
,
0100
0000
0010
0010
,
0010
0000
0010
0000
,
0100
0000
0100
0000
,
1000
0000
1000
0000
,
0001
0000
0001
0000
,
0100
0000
0100
0000
,
0010
0000
0010
0000
,
1000
0000
1000
0000
,
0001
0000
0001
1000
,
0001
0000
1000
0000
,
0010
0010
0010
0000
,
0100
0000
0001
0000
,
0100
0100
0100
0000
,
0001
0000
1000
0000
,
0001
1000
0001
0000
,
1000
0000
0010
0000
,
0100
0010
0220
0330
,
0010
0000
0000
1000
,
0100
0000
0000
1000
,
0010
0000
0000
1000
,
0001
0000
0000
0010
,
0001
0000
0000
1000
,
0001
0000
0000
0100
,
0001
0000
0000
1000
,
0001
0000
0000
1000
,
1100
0000
0000
0100
,
1000
0000
0000
0001
,
0100
0000
0000
0010
,
1000
0000
0000
0010
,
0001
0000
0000
0010
,
1000
0000
0000
0100
,
1000
0000
0000
0100
,
0001
0100
0020
0000
,
0031
0010
0000
0001
,
0000
1000
0000
0001
,
0100
0001
0000
1000
,
0000
0010
0000
1000
,
0100
1000
0000
0001
,
0000
0010
0000
0001
,
0100
0001
1000
0010
,
1000
0000
0001
0000
0010
0000
0010
0010
;

//---------------dance-single - ----------------
#NOTES:
     dance-single:
     :
     Challenge:
     9:
     0.583,0.591,0.101,0.081,0.837,387.000,10.000,8.000,0.000,0.000,0.000,0.583,0.591,0.101,0.081,0.837,387.000,10.000,8.000,0.000,0.000,0.000: // measure 1
0000
0000
0000
0000
,  // measure 2
0000
0000
0000
0000
,  // measure 3
0000
0000
0000
0000
,  // measure 4
0000
0000
0000
0000
,  // measure 5
0000
0000
0000
0000
,  // measure 6
0000
0000
0000
0000
,  // measure 7
0000
0000
0000
0000
,  // measure 8
0000
0000
0000
0000
,  // measure 9
1100
0000
0000
1000
0000
0001
0000
0100
0000
0000
0010
0000
0000
1000
0000
0000
,  // measure 10
0100
0000
0000
1000
0000
0001
0000
0100
0000
0000
0010
0000
0000
1000
0000
0000
,  // measure 11
0001
0000
0000
0010
0000
0001
0000
1000
0000
0000
0010
0000
0000
0100
0000
0000
,  // measure 12
0001
0000
0000
0010
0000
0001
0000
1000
0000
0000
0010
0000
0000
1000
0000
0000
,  // measure 13
0100
0000
0000
1000
0000
0001
0000
0010
0000
0000
0100
0000
0000
1000
0000
0000
,  // measure 14
0010
0000
0000
1000
0000
0001
0000
0010
0000
0000
0100
0000
0000
1000
0000
0000
,  // measure 15
0001
0000
0000
0100
0000
0001
0000
1000
0000
0000
0100
0000
0000
0010
0000
0000
,  // measure 16
0001
0000
0000
0000
0000
0000
1000
0000
0000
0000
0010
0000
0000
0000
0010
0000
0100
0000
0000
0000
0000
0000
0001
0100
0001
0000
0000
0000
0100
0000
0000
0000
,  // measure 17
0001
0100
0001
0000
0100
0000
0000
0000
0010
0000
0000
1000
0010
0000
0000
0000
,  // measure 18
1000
0100
1000
0000
0100
0000
0000
0000
0010
0000
0000
0001
0010
0000
0000
0000
,  // measure 19
0001
0100
0001
0000
1000
0000
0000
0000
0010
0000
0000
1000
0001
0000
0000
0000
,  // measure 20
1000
0100
1000
0000
0001
0000
0000
0000
0010
0000
0000
0001
1000
0000
0010
0000
,  // measure 21
1000
0100
1000
0000
0001
0000
0000
0000
0010
0000
0000
0100
1000
0000
0000
0000
,  // measure 22
0001
0100
0001
0000
1000
0000
0000
0000
0010
0000
0000
0100
0001
0000
0000
0000
,  // measure 23
1000
0100
1000
0000
0001
0000
0000
0000
0100
0000
0000
0010
1000
0000
0000
0000
,  // measure 24
0001
0100
0001
0000
1000
0000
0000
0000
0100
0000
0000
0010
0001
0000
0010
0000
,  // measure 25
0001
0100
0001
0000
0010
0000
0100
0000
1000
0000
0010
0100
0010
0000
0000
0000
,  // measure 26
1000
0100
1000
0000
0010
0000
0100
0000
0001
0000
0010
0100
0010
0000
0000
0000
,  // measure 27
0001
0010
0001
0000
0100
0000
0010
0000
1000
0000
0100
0010
0100
0000
0000
0000
,  // measure 28
1000
0010
1000
0000
0100
0000
0010
0000
0001
0000
0100
0010
0100
0000
0001
0000
,  // measure 29
1000
0100
0010
0000
0100
0000
1000
0000
0001
0100
0001
0100
0001
0000
0000
0000
,  // measure 30
1000
0010
0100
0000
0010
0000
1000
0000
0001
0010
0001
0010
0001
0000
0000
0000
,  // measure 31
1000
0100
0010
0000
0100
0000
1000
0000
0001
1000
0001
1000
0001
0000
0000
0000
,  // measure 32
1000
0100
1000
0100
1000
0001
1000
0001
0010
0000
0000
0010
0000
0000
0000
0000
,  // measure 33
0011
0000
0000
0001
0000
0100
0000
0010
0000
0000
1000
0000
0010
1000
0000
0010
,  // measure 34
1000
0000
0000
0001
0000
0100
0000
0010
0000
0000
1000
0000
0100
0010
0000
0100
,  // measure 35
0010
0000
0000
0001
0000
0010
0000
0100
0000
0000
1000
0000
0100
1000
0000
0100
,  // measure 36
1000
0000
0000
0001
0000
0010
0000
0100
0000
0000
1000
0000
0010
0100
0000
0010
,  // measure 37
0100
0000
0000
0001
0000
1000
0000
0100
0000
0000
0010
0000
0001
0010
0000
0001
,  // measure 38
0010
0000
0000
0001
0000
1000
0000
0100
0000
0000
1000
0000
0010
0100
0000
0010
,  // measure 39
0100
0000
0000
0001
0000
1000
0000
0010
0000
0000
0100
0000
0001
0100
0000
0001
,  // measure 40
0100
0000
0000
0001
0000
1000
0000
0010
0000
0000
1000
0000
0100
0010
0000
0100
,  // measure 41
0010
0000
0001
0100
0000
0010
0000
0100
0000
0001
0100
0000
0001
1000
0000
0001
,  // measure 42
0010
0000
0001
0100
0000
0010
0000
0100
0000
0001
0100
0000
0001
1000
0000
0001
,  // measure 43
0010
0000
0100
1000
0000
0010
0000
1000
0000
0100
1000
0000
0001
1000
0000
0010
,  // measure 44
1000
0000
0100
1000
0000
0010
0000
1000
0000
0100
1000
0000
0001
1000
0000
0010
,  // measure 45
1000
0000
0001
0010
0000
0100
0000
0010
0000
0001
0010
0000
0001
1000
0000
0001
,  // measure 46
0100
0000
0001
0010
0000
0100
0000
0010
0000
0001
0100
0000
0001
0010
0000
0001
,  // measure 47
1000
0000
0010
1000
0000
0100
0000
1000
0000
0010
1000
0000
0001
0010
0000
0001
,  // measure 48
1000
0000
0010
1000
0000
0100
0000
1000
0010
0000
0000
0010
0100
0000
0100
0000
,  // measure 49
0100
0102
0000
1003
0000
2100
0000
3001
,  // measure 50
0000
0000
0012
0000
0000
0000
1003
0000
0000
0000
2010
0000
0000
3001
1000
0000
,  // measure 51
0001
0012
0000
1003
0000
2010
0000
3001
,  // measure 52
0000
0000
0102
0000
0000
0000
1003
0000
0000
0000
2100
0000
0000
3001
0010
0000
,  // measure 53
0100
1000
1000
0001
0001
1000
1000
0001
,  // measure 54
0001
0000
0100
0000
0100
0000
0010
0000
0010
0000
0100
0000
0100
0001
0100
0000
,  // measure 55
0001
1000
1000
0100
0100
1000
1000
0001
,  // measure 56
0001
0000
0010
0000
0001
0000
0010
0000
0001
0000
1000
0000
0001
0000
1000
0000
0100
0000
0000
0000
0000
0000
1000
0100
1000
0000
0000
0000
0001
0000
0000
0000
;
