#TITLE:HandClap;
#SUBTITLE:;
#ARTIST:Fitz and The Tantrums;
#TITLETRANSLIT:;
#SUBTITLETRANSLIT:;
#ARTISTTRANSLIT:;
#GENRE:;
#CREDIT:mf32892;
#BANNER:[Mid Speed] - HandClap-bn.png;
#BACKGROUND:[Mid Speed] - HandClap-jacket.jpg;
#LYRICSPATH:;
#CDTITLE:cdtitle.png;
#MUSIC:[Mid Speed] - HandClap.ogg;
#OFFSET:-0.031583;
#SAMPLESTART:89.006668;
#SAMPLELENGTH:14.625000;
#SELECTABLE:YES;
#BPMS:0.000000=140.000000
,144.000000=136.000000
,200.000000=140.000000
;
#STOPS:199.937500=2.143000
;
#BGCHANGES:0.000=[Mid Speed] - HandClap.mp4=1.000=0=0=1=====,
99999=-nosongbg-=1.000=0=0=0 // don't automatically add -songbackground-
;
#KEYSOUNDS:;
#ATTACKS:;

//---------------dance-single - ----------------
#NOTES:
     dance-single:
     :
     Hard:
     8:
     0.528516,0.480719,0.176172,0.224219,0.000000,412.000000,22.000000,28.000000,0.000000,0.000000,0.000000,0.528516,0.480719,0.176172,0.224219,0.000000,412.000000,22.000000,28.000000,0.000000,0.000000,0.000000:
0000
0000
0000
0000
,
0000
0000
0000
0000
,
0000
0000
0000
0000
,
0000
0000
0000
0000
,
0002
0100
0000
0100
,
2003
0100
0000
0100
,
3002
0010
0000
0010
,
2003
0000
0010
0000
3000
0000
0000
1000
,
0010
0100
0010
0100
0001
1000
0001
1000
,
0100
0010
0100
0010
0100
0001
0100
1000
,
0000
0001
1000
0001
0100
0010
0100
0010
,
1000
0001
1000
0001
0010
1000
0010
0001
,
0000
0010
0100
0010
0001
1000
0001
1000
,
0010
0100
0010
0100
1000
0100
0001
0010
,
0000
0100
0010
0100
1000
0001
1000
0001
,
0100
0010
0100
0010
0001
0010
1000
0100
,
0020
0000
0000
0031
0002
0000
0000
0103
,
0010
1000
0010
1000
0100
0000
0100
1000
,
0001
0001
1000
1000
0010
0000
0120
0000
,
0031
0010
1000
0100
0010
0000
0110
0100
,
1000
1000
0001
0001
0100
0000
0210
0000
,
1300
0100
0001
0010
0100
0000
0110
0010
,
0001
0001
1000
1000
0010
0100
0001
1000
,
0100
0100
0010
0010
0100
1000
0001
0100
,
0000
0100
0001
0001
0010
0100
1000
0001
,
0100
0100
0010
0010
1000
0001
0010
0100
,
0000
1000
0001
1000
0010
0010
0100
0100
,
0001
0010
0100
1000
0010
0010
0100
0001
,
0000
0001
1000
0001
0010
0010
0100
0100
,
1000
0010
0100
0001
0010
0010
0100
1000
,
0002
0000
0103
0010
0020
0000
1030
0001
,
1000
0100
0001
0100
1000
0000
1001
0000
,
1000
0001
0100
0001
0010
0000
0210
0000
,
0301
0100
1000
0010
0100
0000
0110
0100
,
0001
1000
0100
1000
0010
0000
0210
0000
,
1300
0100
0001
0010
0100
0010
0100
0020
,
0000
0000
0031
1000
0020
0000
0130
0002
,
0000
0000
0000
0000
1003
0100
0010
0001
,
0000
0001
1000
0010
0200
0000
0301
2000
,
0000
0000
0000
0000
3100
0010
0001
2000
,
0000
0000
3010
1000
0200
0000
0310
0002
,
0000
0000
0000
0000
1003
0001
0100
0010
,
0000
0010
1000
0100
0010
0000
1001
0000
,
0101
0000
0000
0000
0001
0100
0001
1000
,
0100
0000
0100
0010
0100
0000
0100
0000
,
1000
0001
1000
0000
1000
0000
0010
0000
,
0100
0000
0001
1000
0001
0000
0001
0000
,
0010
0100
0010
0000
0100
0000
0100
0000
,
1000
0000
0100
0010
0001
0000
0001
0000
,
1000
0001
0100
0001
1000
0100
0010
0001
,
0000
1001
0110
1001
,
0001
0010
0100
0000
0100
1000
0001
0000
,
0001
0000
0010
0100
0010
0001
1000
0000
,
1000
0010
0100
0000
0110
0010
1000
0001
,
1000
0001
0010
0000
0110
0000
1001
0000
,
1000
0100
0010
0000
0010
0001
1000
0000
,
1000
0000
0100
1000
0100
0010
0001
0000
,
1000
0010
0100
0000
0110
0100
0001
1000
,
0001
1000
0100
0000
0110
0000
1001
0000
,
0001
0100
1000
0100
0001
0100
0010
0000
,
1000
0100
0001
0100
1000
0100
0010
0000
,
0001
0010
1000
0010
0001
0010
0100
1000
,
0100
1000
0010
0000
0110
0000
1001
0000
,
1000
0100
0001
0100
1000
1000
0010
0100
,
0001
0100
1000
0100
0001
0001
0010
0100
,
1000
0010
0001
0010
1000
1000
0001
0010
,
0100
1000
0010
0000
0110
0000
0002
0000
,
0013
0010
0200
0000
1300
0001
0200
0000
,
0310
0010
2000
0000
3100
1000
0002
0000
,
0103
0100
0020
0000
1030
0001
0020
0000
,
0130
0100
2000
0001
0001
3001
0000
0000
;

//---------------dance-single - ----------------
#NOTES:
     dance-single:
     :
     Medium:
     6:
     0.424414,0.424164,0.240234,0.192188,0.000000,317.000000,30.000000,24.000000,0.000000,0.000000,0.000000,0.424414,0.424164,0.240234,0.192188,0.000000,317.000000,30.000000,24.000000,0.000000,0.000000,0.000000:
// measure 0
0000
0000
0000
0000
,  // measure 1
0000
0000
0000
0000
,  // measure 2
0000
0000
0000
0000
,  // measure 3
0000
0000
0000
0000
,  // measure 4
0002
1000
0000
1003
,  // measure 5
2000
0001
0000
3001
,  // measure 6
0020
0100
0000
0130
,  // measure 7
0200
0010
0300
0000
,  // measure 8
0001
0000
0001
1000
0100
0000
0100
0000
,  // measure 9
0010
0000
0010
0001
1000
0000
0001
0000
,  // measure 10
0100
0000
0100
0010
1000
0000
1000
0000
,  // measure 11
0100
0000
0100
0010
0001
0000
0001
0000
,  // measure 12
1000
0000
0001
0100
0010
0000
0100
0000
,  // measure 13
0001
0000
1000
0100
0010
0000
0100
0000
,  // measure 14
1000
0000
0100
1000
0010
0000
1000
0000
,  // measure 15
0001
0000
0010
0001
0100
0000
0001
0000
,  // measure 16
2000
0000
0000
0001
3002
0000
0000
0013
,  // measure 17
0020
0000
0000
0130
0200
0000
1300
0001
,  // measure 18
1000
1010
0001
0101
,  // measure 19
1000
0001
1000
0001
0010
0000
1001
0000
,  // measure 20
0001
0101
1000
1010
,  // measure 21
0001
1000
0001
1000
0010
0000
1001
0000
,  // measure 22
1000
0100
1000
0000
1100
0000
1001
0000
,  // measure 23
0001
0100
0001
0000
0100
0010
0100
0000
,  // measure 24
0010
1000
0001
0000
0101
0000
1001
0000
,  // measure 25
1000
0100
1000
0000
0100
0010
0100
0000
,  // measure 26
0010
0001
1000
0000
1010
0000
1001
0000
,  // measure 27
0001
0010
0001
0000
0010
0100
0010
0000
,  // measure 28
0100
1000
0001
0000
0011
0000
1001
0000
,  // measure 29
1000
0010
1000
0000
0010
0100
0010
0100
,  // measure 30
0002
0000
1003
0001
0200
0000
0310
0000
,  // measure 31
0020
0000
1030
0001
2000
0000
3001
0010
,  // measure 32
0100
1100
0010
0011
,  // measure 33
0001
0100
0010
1000
0001
0000
1001
0000
,  // measure 34
0010
0011
0100
1100
,  // measure 35
1000
0010
0100
0001
1000
0000
1001
0000
,  // measure 36
0002
0000
0000
0000
0000
0000
0003
0020
,  // measure 37
0000
0000
0000
0030
,  // measure 38
0200
0000
0000
0000
0000
0000
0300
2000
,  // measure 39
0000
0000
0000
3000
,  // measure 40
0002
0000
0000
0000
0000
0000
0003
2000
,  // measure 41
0000
0000
0000
3000
,  // measure 42
0020
0000
0000
0000
0000
0000
0030
0200
,  // measure 43
0000
0000
0000
0300
,  // measure 44
0001
0000
0001
1000
0001
0000
0001
0000
,  // measure 45
1000
0100
1000
0000
0100
0000
0100
0000
,  // measure 46
0010
0000
0010
0001
1000
0000
1000
0000
,  // measure 47
0001
0100
0001
0000
1000
0000
1000
0000
,  // measure 48
0001
0000
0001
0010
0100
0000
0100
0000
,  // measure 49
1000
0001
1000
0001
1000
0001
1000
0001
,  // measure 50
0000
1010
0101
1001
,  // measure 51
0001
0100
0001
0000
0100
0010
0100
0000
,  // measure 52
0110
0000
0010
1000
0010
1000
0001
0000
,  // measure 53
1000
0100
1000
0000
1100
0000
0100
0010
,  // measure 54
0010
0000
0001
1000
0001
1000
0010
0000
,  // measure 55
1000
0010
1000
0000
0001
0100
0001
0000
,  // measure 56
0101
0000
0100
0010
0100
0010
1000
0000
,  // measure 57
0001
1000
0001
0000
1001
0000
0001
0100
,  // measure 58
0100
0000
0010
1000
0010
1000
0001
0000
,  // measure 59
1000
0100
1000
0001
1000
0000
0001
0000
,  // measure 60
0001
0100
0001
1000
0001
0000
0010
0000
,  // measure 61
0010
0100
0010
0001
0010
0000
0100
0000
,  // measure 62
0100
0010
0100
1000
0100
0000
1000
0000
,  // measure 63
0001
0100
0010
0100
0001
0000
1000
0000
,  // measure 64
1000
0100
0010
0100
1000
0000
0010
0000
,  // measure 65
0010
0100
0001
0100
0010
0000
0100
0000
,  // measure 66
0100
0010
1000
0001
0100
0000
0020
0000
,  // measure 67
1030
0001
1000
0000
1100
0000
0002
0000
,  // measure 68
0013
0001
0010
0000
0110
0000
2000
0000
,  // measure 69
3001
0100
0001
0000
0101
0000
0020
0000
,  // measure 70
1030
0001
1000
0001
0001
0001
0000
0000
;

//---------------dance-single - ----------------
#NOTES:
     dance-single:
     :
     Easy:
     3:
     0.212779,0.226221,0.016016,0.080078,0.000000,174.000000,2.000000,10.000000,0.000000,0.000000,0.000000,0.212779,0.226221,0.016016,0.080078,0.000000,174.000000,2.000000,10.000000,0.000000,0.000000,0.000000:
0000
0000
0000
0000
,
0000
0000
0000
0000
,
0000
0000
0000
0000
,
0000
0000
0000
0000
,
0000
0001
0000
0001
,
0000
1000
0000
1000
,
0000
0010
0000
0010
,
0000
0100
0000
0000
,
0001
0000
1000
0000
,
0001
1000
0100
0000
,
1000
0000
0001
0000
,
1000
0001
0100
0000
,
0001
0000
1000
0000
,
0001
0010
0100
0000
,
1000
0000
0001
0000
,
1000
0010
0100
0000
,
0002
0000
0000
0003
,
2000
0000
0000
3000
,
0001
0001
1000
0000
,
0010
0010
0010
0000
,
1000
1000
0001
0000
,
0010
0010
0010
0000
,
0001
0001
1000
0000
,
0001
0000
0100
0010
,
1000
1000
0001
0000
,
0010
0000
0100
0010
,
0001
0001
0100
0000
,
0010
0000
1000
0001
,
1000
1000
0100
0000
,
0010
0000
0001
1000
,
0002
1000
0000
1003
,
2000
0001
0000
3001
,
1000
1000
0001
0000
,
0010
0010
0010
0000
,
0001
0001
1000
0000
,
0010
0010
0010
0000
,
2000
0000
0000
0000
0000
0000
0000
3000
,
0000
0000
0000
0000
,
0002
0000
0000
0000
0000
0000
0000
0003
,
0000
0000
0000
0000
,
0020
0000
0000
0000
0000
0000
0000
0030
,
0000
0000
0000
0000
,
0200
0000
0000
0000
0000
0000
0000
0300
,
0000
0000
0000
0000
,
1000
1000
0001
0000
,
1000
0001
1001
0000
,
0001
0001
1000
0000
,
0001
1000
1001
0000
,
0001
0001
0010
0000
,
0100
0100
0100
0100
,
0000
1000
1000
0001
,
1000
0100
0100
1000
,
1000
0001
0000
1000
,
0001
0100
0100
0001
,
0001
1000
0000
0001
,
0100
0001
0001
0100
,
0100
0001
0000
1000
,
0100
1000
1000
0100
,
0100
1000
0000
0001
,
0010
0001
0001
1000
,
1000
0001
0000
1000
,
0010
1000
1000
0001
,
0001
1000
0000
0001
,
0100
0001
0001
1000
,
1000
0001
0000
1000
,
0100
1000
1000
0001
,
0001
1000
0000
0002
,
1000
0000
1000
0000
,
0100
0000
0100
2003
,
0100
0000
0100
0000
,
0001
0000
0000
0000
0001
3000
0000
0000
;
