#TITLE:Gloss (Niteloop Flip);
#SUBTITLE:;
#ARTIST:KRNE;
#TITLETRANSLIT:;
#SUBTITLETRANSLIT:;
#ARTISTTRANSLIT:;
#GENRE:EDM;
#CREDIT:;
#BANNER:KRNE_Gloss_Banner.png;
#BACKGROUND:KRNE_Gloss_Background.png;
#LYRICSPATH:;
#CDTITLE:;
#MUSIC:Gloss_Niteloop_Flip_.ogg;
#OFFSET:-0.015000;
#SAMPLESTART:43.604931;
#SAMPLELENGTH:12.000000;
#SELECTABLE:YES;
#DISPLAYBPM:135.000000;
#BPMS:0.000000=135.000000
,32.000000=202.500000
,32.500000=101.250000
,33.000000=135.000000
,50.000000=67.500000
,50.125000=202.500000
,50.500000=135.000000
,66.000000=67.500000
,66.125000=202.500000
,66.500000=135.000000
,80.000000=67.500000
,80.125000=202.500000
,80.500000=135.000000
,83.000000=67.500000
,83.125000=202.500000
,83.500000=135.000000
,84.500000=67.500000
,84.625000=202.500000
,85.000000=135.000000
,112.000000=202.500000
,112.375000=67.500000
,112.500000=135.000000
,192.000000=202.500000
,192.250000=101.250000
,192.500000=135.000000
,199.000000=67.500000
,199.125000=202.500000
,199.500000=135.000000
,204.750000=202.500000
,206.000000=67.500000
,206.125000=202.500000
,206.500000=135.000000
,220.000000=202.500000
,222.000000=67.500000
,222.125000=202.500000
,222.500000=135.000000
,230.000000=67.500000
,230.125000=202.500000
,230.500000=135.000000
,236.750000=202.500000
,238.000000=67.500000
,238.125000=202.500000
,238.500000=135.000000
,270.000000=202.500000
,270.375000=67.500000
,270.500000=135.000000
,286.000000=202.500000
,286.375000=67.500000
,286.500000=135.000000
;
#STOPS:69.500000=0.444000,
76.500000=0.445000,
195.500000=0.445000,
202.500000=0.444000,
204.750000=0.148000,
205.750000=0.037000,
220.000000=0.050000,
220.333328=0.049000,
220.666672=0.050000,
221.000000=0.049000,
221.333328=0.050000,
221.666672=0.050000,
236.750000=0.148000,
237.750000=0.037000
;
#BGCHANGES:;
#KEYSOUNDS:;
#ATTACKS:;

//---------------dance-single - ----------------
#NOTES:
     dance-single:
     :
     Challenge:
     11:
     0.717920,0.899547,0.405390,0.370443,1.037939,719.000000,661.000000,58.000000,53.000000,55.000000,0.000000,0.717920,0.899547,0.405390,0.370443,1.037939,719.000000,661.000000,58.000000,53.000000,55.000000,0.000000:
0000
0000
0000
0000
,
0000
0000
0000
0000
,
0000
0000
0000
0000
,
0000
0000
0000
0000
,
0000
0000
0000
0000
,
0000
0000
0000
0000
,
0000
0000
0000
0000
0000
0000
M000
0000
000M
0000
00M0
0000
,
0M00
0000
00M0
0000
0M00
0000
M000
0000
0000
0000
0000
0000
,
2002
0000
0000
0000
0000
0000
0000
0000
0000
0000
0000
0000
30M3
0000
0M00
0000
00M0
0000
0M00
0000
00M0
0000
0M00
0000
0001
0000
0000
0000
0000
0000
0000
0000
0000
0000
0000
0000
1000
0000
0000
0100
0000
0000
0010
0000
0000
0100
0000
0000
,
1000
0000
0000
0000
0000
0000
0000
0000
0010
0000
0000
0000
0000
0000
0000
0000
0000
0000
1001
0000
0000
0000
0000
0000
0000
0000
0000
0000
0000
0000
0000
0000
0000
0000
0000
0000
1000
0000
0000
0100
0000
0000
0010
0000
0000
0100
0000
0000
,
1000
0000
0010
0000
0100
0000
0001
0000
0101
0000
0000
0000
0001
0010
0100
0010
,
0001
0000
0000
0000
0000
0000
0000
0000
1000
0000
0000
0000
0000
0000
0000
0000
0000
0000
1020
0000
0000
0000
0000
0000
0030
0000
0000
0000
0000
0000
0000
0000
0000
0000
0000
0000
0001
0000
0000
0100
0000
0000
0010
0000
0000
1000
0000
0000
,
0001
0000
0000
0010
0000
0000
0100
0000
0000
1000
0000
0000
2MM2
0000
0000
3003
0000
0000
0001
0010
0100
1000
0001
1000
,
0001
1000
0010
0100
0004
0000
0103
0000
0000
0000
0001
0010
0100
1000
0010
1000
,
0100
1000
0001
0100
0020
0030
1000
0200
,
0300
0000
0000
0001
0000
0000
0200
0000
0000
0300
0000
0000
0010
0000
0000
0002
0000
0000
0003
0000
0000
0100
0000
0001
,
1000
0100
0000
0010
0000
0001
0100
0000
M12M
0000
M00M
0000
1030
0100
0010
0100
,
1000
0000
0000
0000
0000
0000
0000
0000
0001
0000
0000
0000
0000
0000
0000
0000
0000
0000
M101
0000
0000
0000
0000
0000
0100
0000
0000
0010
0000
0000
0100
0000
0000
0001
0000
0000
1000
0000
0000
0000
0000
0000
0100
0000
0000
0000
0000
0000
,
0010
0000
0000
0000
0000
0000
0001
0000
0000
0000
0000
0000
0020
0000
0000
0000
0000
0000
0030
0000
0000
0000
0000
0000
0001
0000
0000
0100
0000
0000
0001
0000
0000
1000
0000
0000
0100
0000
0000
0000
0000
0000
0000
0000
0010
0000
0000
0000
,
0000
0000
M011
0000
0001
1000
0100
0010
0100
0010
0001
1000
0010
0100
0001
0010
,
M200
0000
0000
0300
1000
0010
1000
0001
0010
0001
1000
0010
0200
0300
00M0
0100
,
0000
0000
0000
0001
0000
0000
0020
0000
0000
0030
0000
0000
000M
0000
0000
0010
0000
0000
0001
0000
0100
0000
0001
0000
0100
0000
0000
0010
0000
0000
1000
0000
0000
0001
0000
0000
0010
0000
0000
0100
0000
0000
0010
0000
0000
0100
0000
0000
,
1000
0000
0000
0000
0000
0000
0000
0000
0000
0001
0000
0000
1000
0000
0000
0100
0000
0000
1000
0000
0100
0000
0010
0000
0001
0000
0000
1000
0000
0000
0001
0000
0000
0100
0000
0000
0010
0000
0000
1000
0000
0000
0010
0000
0000
0100
0000
0000
,
0001
0000
0000
0010
0000
0000
0100
0000
0000
1000
0000
0000
0010
0000
0000
0100
0000
0000
0001
0000
0000
1000
0000
0000
0001
0000
0000
0000
0000
0000
1000
0000
0100
0000
0010
0000
0001
0000
0000
0000
0000
0000
0010
0000
0000
0000
0000
0000
,
1001
0000
0000
1001
0000
0000
1000
0010
0100
0010
1000
0100
1000
0100
0010
0001
,
0011
0000
0000
0011
0000
0000
0001
0100
0010
0100
0001
0010
0100
1000
0010
0100
,
0110
0000
0000
0110
0000
0000
0001
0000
0100
100M
0000
0100
M001
0000
0010
0000
,
1100
0000
0000
1100
0000
0000
2000
0000
3100
0010
0100
1000
0010
0100
0001
1000
,
02M0
0000
0000
0310
0000
0000
0100
1000
0000
1000
0100
M010
0100
1000
0010
0000
,
1010
0000
0000
0000
0000
0000
0000
0000
0000
1010
0000
0000
0000
0000
0000
0000
0000
0000
1000
0000
0000
0100
0000
0000
M000
0000
0000
0100
0000
0000
0001
0000
0000
0000
0000
0000
010M
0000
1000
0000
0010
0000
0100
0000
0000
0001
0000
0000
,
0101
0000
0000
1001
0000
0000
1200
0000
0300
0010
0000
0001
0020
0000
0031
0000
,
0101
0000
0000
0101
0000
0000
0001
0100
0010
1000
0010
1000
0100
M001
0100
1000
,
0002
0000
0000
0000
1003
0100
0010
0001
1000
0000
0000
0010
0000
1000
0000
0000
,
0120
0000
0030
0201
0000
0310
1000
0100
0010
0000
0000
0001
0000
0010
0000
0000
,
0002
0000
0000
0000
0103
1000
010M
0010
1000
0000
0000
0100
0000
1000
0000
0000
,
0010
0000
0000
0010
1000
0100
0010
0001
0010
0100
0010
0001
0100
0010
1000
0100
,
2000
0000
0000
0000
3001
0010
0100
0010
0002
0000
0000
0103
0000
0000
0010
0000
,
0110
0000
0000
0000
0001
0010
0100
1000
0010
0000
0000
1000
0000
0000
0100
0000
,
1000
0001
0010
0001
0100
0010
1000
0001
0010
0001
0010
0100
1000
0010
0100
0010
,
1000
0010
1000
0010
1000
0100
0010
0001
0100
0001
1000
0010
0100
0001
0010
0100
,
1000
0000
0001
0000
0010
0000
0100
0000
0010
0000
0000
0001
0000
0000
0100
0000
,
0000
0000
0010
0000
0100
0000
0010
0000
1000
0000
0000
0100
0000
0000
0010
0001
,
0010
0000
0000
0000
0001
0000
1000
0000
0100
0000
0000
0010
0000
0000
0100
0000
,
0000
0000
0010
0000
0001
0000
0010
0000
0100
0000
0000
1000
0000
0000
0010
0000
,
1000
0000
0001
0000
1000
0000
0100
0000
1000
0000
0000
0010
0000
0000
0100
0000
,
0000
0000
0001
0000
0010
0000
0100
0000
0010
0000
0000
0001
0000
0000
1000
0000
,
0100
0000
0010
0000
0100
0000
1000
0000
0010
0000
1000
0000
,
1020
M030
2010
30M0
1020
M030
2010
30M0
,
1MM2
0000
0000
0000
0103
0010
1000
0100
0010
0001
1000
0100
0010
0000
M11M
0000
,
1000
0100
0010
0001
0010
0100
1000
0001
0100
0000
0100
0000
002M
0000
0030
0000
,
1000
0100
0010
0100
1000
0000
0000
0001
0000
0000
M101
0000
1000
0100
0010
0001
,
1000
0000
0000
0010
0000
0000
0100
0000
0000
M002
0000
0000
0000
0000
0000
0003
0000
0000
0000
0000
0000
0M01
0000
0000
2000
0000
0000
0000
0000
0000
0000
0000
0000
0000
0000
0000
3010
0000
0100
0000
0010
0000
0100
0000
0000
0001
0000
0000
,
1000
0000
0000
0010
0000
0000
1010
0000
0000
0000
0001
0010
0100
0000
1200
0000
,
0300
0000
0000
1100
0000
0000
1000
0000
0020
0000
0030
0000
0100
0000
2000
0000
,
3000
0000
0100
0000
0002
0000
0003
0020
0000
0030
0002
0000
0003
2000
0000
3000
,
001M
0000
0000
0000
1000
0000
0000
0000
0100
0000
0000
0000
0010
0000
0000
0000
0001
0000
0000
0000
1000
0000
0000
0000
1020
0000
0000
0000
0000
0000
0M00
0000
0000
0000
0000
0000
1030
0000
0000
0100
0000
0000
0010
0000
0000
0100
0000
0000
,
1000
0000
0000
0001
0000
0000
2001
0000
3000
0000
0000
0000
1000
0100
0010
0001
,
1000
0000
0000
0001
0000
0000
0001
0100
M020
0000
0030
0000
0100
0010
1000
0010
,
0100
0000
0000
0001
0000
0000
1200
0000
0300
0000
4000
0000
3001
0010
0001
1000
,
0010
0100
M001
0020
0000
0000
0030
0010
020M
0000
0000
0000
1300
0010
1000
0001
,
0010
0000
0000
0100
0000
0000
0010
0000
0000
0100
0000
0000
1000
0000
0000
0000
0000
0000
0002
0000
0000
0000
0000
0000
0003
0000
0000
0000
0000
0000
1000
0000
0100
0000
0010
0000
0001
0000
1000
0000
0010
0000
0100
0000
0000
0000
0000
0000
,
0001
0010
0001
1000
0010
1000
0100
0010
0100
0000
0000
0100
0000
0000
1000
0010
,
0100
0000
0000
0001
0000
0000
0010
0001
0100
0010
1000
0001
0010
0100
0010
0001
,
1000
0000
0000
0000
0000
0000
0000
0000
0000
0000
0000
0000
M00M
0000
0000
0000
0000
0000
0000
0000
0000
0000
0000
0000
0110
0000
0000
0000
0000
0000
0000
0000
0000
0110
0000
0000
0000
0000
0000
0000
0000
0000
1000
0000
0001
0000
0000
0000
,
1000
0000
0000
0000
0010
0000
0000
0000
0100
0000
0000
0000
0001
0000
0000
0000
0010
0000
0000
0000
0100
0000
0000
0000
1100
0000
0000
0000
0000
0000
0000
0000
0000
1100
0000
0000
0000
0000
0000
0000
0000
0000
1000
0000
0001
0000
0010
0000
,
0001
0000
0000
0010
0000
0000
0001
0000
0000
1000
0000
0000
0010
0000
0000
0100
0000
0000
0010
0000
0000
1000
0000
0000
1010
0000
0000
0000
0000
0000
0000
0000
0000
1010
0000
0000
0000
0000
0000
0000
0000
0000
0000
0000
0001
0000
0000
0000
,
0010
0000
0000
0000
0100
0000
0000
0000
0010
0000
0000
0000
0001
0000
0000
1000
0000
0000
0010
0000
0000
0000
0000
0000
1001
0000
0000
0000
0000
0000
0000
0000
0000
1001
0000
0000
0000
0000
0000
0000
0000
0000
2000
0000
0000
0000
0000
0000
,
3000
0100
0010
0001
0010
0100
0010
0100
200M
0000
0000
3010
0000
0000
1000
0000
,
0100
0000
0000
M001
0000
0000
0000
0000
0000
0100
0000
0000
0010
0000
0000
0001
0000
0000
1000
0000
0000
0000
0000
0000
0101
0000
0000
0000
0000
0000
0000
0000
0000
0101
0000
0000
0000
0000
0000
0000
0000
0000
0001
0000
0000
0000
0010
0000
,
0001
0000
0000
1000
0000
0000
0010
0000
0000
1000
0000
0000
0100
0000
1000
0000
0010
0000
0100
0000
0000
0000
0000
0000
0110
0000
0000
0000
0000
0000
0000
0000
0000
0101
0000
0000
0000
0000
0000
0000
0000
0000
1000
0000
0000
0000
0000
0000
,
0000
0001
0000
0001
0100
0000
0001
0000
0011
0000
0000
0011
0000
0000
0001
1000
,
0001
1000
0010
1000
0001
0010
0100
1000
0MM2
0000
0000
0000
1003
0010
1000
0001
,
0100
0000
0000
0001
0000
0010
0000
0000
1001
0000
0000
0001
0010
0100
0010
0100
,
1000
0000
0000
0010
0000
0100
0000
0000
0102
0000
0000
0000
0103
0010
0100
0001
,
0010
0000
0000
0001
0000
1000
0000
0000
1010
0000
0000
0010
1000
0100
0010
0001
,
0100
0010
1000
0001
0010
0100
1000
0010
2000
0000
0000
0000
3001
0010
0001
1000
,
0001
0000
0000
0100
0000
0000
1000
0000
1100
0000
0000
0100
0010
1000
0001
0010
,
0100
0000
0000
1000
0000
0000
0001
0000
2002
0000
0000
0000
0000
0000
0000
0000
,
3003
0000
0000
0000
;

//---------------dance-single - ----------------
#NOTES:
     dance-single:
     :
     Hard:
     9:
     0.568145,0.681475,0.419369,0.440338,0.562654,569.000000,509.000000,60.000000,63.000000,47.000000,0.000000,0.568145,0.681475,0.419369,0.440338,0.562654,569.000000,509.000000,60.000000,63.000000,47.000000,0.000000:
0000
0000
0000
0000
,
0000
0000
0000
0000
,
0000
0000
0000
0000
,
0000
0000
0000
0000
,
0000
0000
0000
0000
,
0000
0000
0000
0000
,
0000
0000
0000
0000
0000
0000
M000
0000
000M
0000
00M0
0000
,
0M00
0000
00M0
0000
0M00
0000
M000
0000
0000
0000
0000
0000
,
2002
0000
0000
0000
0000
0000
0000
0000
0000
0000
0000
0000
30M3
0000
0M00
0000
00M0
0000
0M00
0000
00M0
0000
0M00
0000
0001
0000
0000
0000
0000
0000
0000
0000
0000
0000
0000
0000
1000
0000
0000
0000
0000
0000
0010
0000
0000
0100
0000
0000
,
0010
0000
0000
0000
0000
0000
0000
0000
0100
0000
0000
0000
0000
0000
0000
0000
0000
0000
0110
0000
0000
0000
0000
0000
0000
0000
0000
0000
0000
0000
0000
0000
0000
0000
0000
0000
1000
0000
0000
0100
0000
0000
0010
0000
0000
0000
0000
0000
,
0001
0000
0010
0000
0100
0000
0000
0000
1100
0000
0000
0000
0001
0010
0100
0000
,
1000
0000
0000
0000
0000
0000
0000
0000
1000
0000
0000
0000
0000
0000
0000
0000
0000
0000
1020
0000
0000
0000
0000
0000
0030
0000
0000
0000
0000
0000
0000
0000
0000
0000
0000
0000
0010
0000
0000
0100
0000
0000
0010
0000
0000
0000
0000
0000
,
1000
0100
0010
0001
0012
0003
0040
0031
,
0100
0000
0010
0100
0004
0000
0103
0000
0000
0000
0001
0000
0100
0000
1000
0000
,
0100
0010
1000
0000
0001
0000
0100
0000
0020
0000
0030
0000
1000
0000
0200
0000
,
0300
0000
0000
0001
0000
0000
0200
0000
0000
0300
0000
0000
0010
0000
0000
0002
0000
0000
0003
0000
0000
0100
0000
0001
,
1000
0100
0000
0010
0000
0001
0100
0000
M12M
0000
M00M
0000
1030
0000
0010
0100
,
0001
0000
0000
0000
0000
0000
0000
0000
0100
0000
0000
0000
0000
0000
0000
0000
0000
0000
M101
0000
0000
0000
0000
0000
0100
0000
0000
0000
0000
0000
0001
0000
0000
0100
0000
0000
0010
0000
0000
0000
0000
0000
1000
0000
0000
0000
0000
0000
,
0100
0000
0000
0000
0000
0000
1000
0000
0000
0000
0000
0000
0020
0000
0000
0000
0000
0000
0030
0000
0000
0000
0000
0000
0100
0000
0000
0000
0000
0000
0001
0000
0000
1000
0000
0000
0100
0000
0000
0000
0000
0000
0000
0000
0010
0000
0000
0000
,
0000
0000
M011
0000
0002
0000
0103
0000
0100
0010
1000
0000
0010
0100
0001
0000
,
02M0
0000
0000
0300
0001
0010
0001
0000
0010
0100
1000
0000
0200
0000
00M0
0300
,
0000
0000
0020
0000
000M
0130
1000
0010
0100
0000
0010
0000
1000
0000
0100
0000
,
1000
0000
0001
1000
0001
0000
2000
0000
3001
0000
0010
0000
0100
0000
1000
0000
,
0001
0010
0100
1000
0010
0100
0001
1000
0100
0000
0010
0000
0110
0000
0000
0000
,
1001
0000
0000
1001
0000
0000
1000
0000
0010
0100
0010
0000
1000
0100
0010
0000
,
0011
0000
0000
0011
0000
0000
1000
0000
0001
0100
0001
0000
1000
0010
0100
0000
,
0110
0000
0000
0110
0000
0000
0001
0000
0100
0000
0000
0100
M001
0000
0010
0000
,
1100
0000
0000
1100
0000
0000
2000
0000
3100
0010
0001
0100
0001
0000
0010
0000
,
M200
0000
0000
0310
0000
0000
0100
0000
1000
0010
0000
M100
0001
0000
1000
0000
,
1010
0000
0000
1010
0000
0000
1000
0100
M000
0100
0001
0000
010M
0000
1000
0000
,
1010
0000
0000
1001
0000
0000
0002
0000
0003
0010
0000
0001
0020
0000
0031
0000
,
0101
0000
0000
0101
0000
0000
0100
0000
0010
1000
0010
0000
0100
M001
0100
0000
,
0002
0000
0000
0000
1003
0000
0010
0000
0100
0000
0000
0010
0000
1000
0000
0000
,
0120
0000
0030
0200
0000
0300
0001
0010
0100
0000
0000
1000
0000
0000
0100
0000
,
2000
0000
0000
0000
3100
0000
100M
0000
0010
0000
0000
0100
0000
1000
0000
0000
,
0100
0000
0000
0010
1000
0100
0010
0000
0100
0010
0001
0000
0100
0010
1000
0100
,
1000
0000
0000
0000
2001
0000
3000
0000
0102
0000
0000
0003
0120
0000
0030
0000
,
2010
3000
1200
0300
0120
0030
0012
0103
,
0020
0000
0000
0000
,
0000
0000
0000
0000
,
1030
0000
0001
0000
0010
0000
0100
0000
0010
0000
0000
0001
0000
0000
0100
0000
,
0000
0000
1000
0000
0100
0000
0010
0000
1000
0000
0000
0100
0000
0000
0010
0000
,
0100
0000
0000
0000
1000
0000
0001
0000
0100
0000
0000
0001
0000
0000
0100
0000
,
0000
0000
0010
0000
1000
0000
0010
0000
0100
0000
0000
0001
0000
0000
0010
0000
,
0001
0000
0100
0000
0010
0000
0100
0000
0001
0000
0000
0010
0000
0000
0100
0000
,
0000
0000
0010
0000
0001
0000
0100
0000
0010
0000
0000
1000
0000
0000
0100
0000
,
1000
0000
0001
0000
0100
0000
0001
0000
1000
0000
0010
0000
,
1020
0030
2001
3000
0021
0030
0210
0300
,
10M2
0000
0000
0000
0103
0010
1000
0000
0001
0010
0001
1000
0010
0000
M10M
0000
,
0100
0000
0010
0100
0010
0000
1000
0001
0100
0000
0100
0000
002M
0000
0030
0000
,
1000
0000
0100
0010
0100
0000
0000
1000
0000
0000
110M
0000
1000
0000
0100
1000
,
0100
0010
0100
200M
0000
3000
0000
10M0
0002
0000
0000
0000
0103
0000
0010
0000
,
1000
0100
0000
0010
0000
0000
0011
0000
0000
0000
0001
0000
0100
0000
0102
0000
,
0003
0000
0000
1200
0000
0300
1000
0000
0020
0000
0030
0000
0100
0000
2000
0000
,
3000
0000
0100
0000
0002
0000
0003
0020
0000
0030
0002
0000
0003
2000
0000
3000
,
001M
0000
0000
0000
1000
0000
0000
0000
0100
0000
0000
0000
0010
0000
0000
0000
0001
0000
0000
0000
1000
0000
0000
0000
1M20
0000
0000
0000
0000
0000
0000
0000
0000
0000
0000
0000
1030
0000
0000
0000
0000
0000
0010
0000
0000
0100
0000
0000
,
1000
0000
0000
0100
0000
0000
0120
0000
0030
0000
0000
0000
1000
0000
0100
0010
,
0001
0000
0000
1000
0000
0000
0001
0100
M020
0000
0030
0000
0100
0010
1000
0100
,
0010
0000
0000
0001
0000
0000
1002
0000
0003
0000
2000
0000
0010
0000
3010
0000
,
0100
0001
0010
M002
0000
0000
0003
M010
0200
0000
0000
0000
1300
0000
0010
0100
,
0010
0100
1000
0200
0000
0301
0010
0100
,
1000
0010
1000
0000
0010
0000
0100
0000
0001
0000
0000
0100
0000
0000
0010
1000
,
0100
0000
0000
0010
0000
0000
0100
0000
1000
0000
0001
0100
0010
0000
0100
0001
,
1000
0000
0000
0000
0000
0000
0000
0000
0000
0000
0000
0000
M00M
0000
0000
0000
0000
0000
0000
0000
0000
0000
0000
0000
0110
0000
0000
0000
0000
0000
0000
0000
0000
0110
0000
0000
0000
0000
0000
0000
0000
0000
0000
0000
0001
0000
0000
0000
,
1000
0000
0000
0000
0010
0000
0000
0000
0100
0000
0000
0000
0001
0000
0000
0000
0010
0000
0000
0000
0100
0000
0000
0000
1000
0000
0000
0000
0000
0000
0000
0000
0000
1100
0000
0000
0000
0000
0000
0000
0000
0000
0100
0000
0000
0000
0000
0000
,
0010
0000
0000
0001
0000
0000
0010
0000
0000
0000
0000
0000
0001
0000
0000
0100
0000
0000
0010
0000
0000
0000
0000
0000
1000
0000
0000
0000
0000
0000
0000
0000
0000
1010
0000
0000
0000
0000
0000
0000
0000
0000
0000
0000
1000
0000
0000
0000
,
0010
0000
0000
0000
0100
0000
0000
0000
0010
0000
0000
0000
1000
0000
0000
0000
0000
0000
0010
0000
0000
0000
0000
0000
1001
0000
0000
0000
0000
0000
0000
0000
0000
1001
0000
0000
0000
0000
0000
0000
0000
0000
2000
0000
0000
0000
0000
0000
,
3100
0010
0100
0000
1000
0000
0010
0100
200M
0000
0000
3100
0000
0000
0010
0000
,
0100
M001
0000
0010
0100
0000
0010
0000
0011
0000
0000
0011
0000
0000
0001
0010
,
0001
1000
0001
0000
0010
0100
0010
0000
0110
0000
0000
1100
0000
0000
1000
0000
,
0000
0100
0000
0001
0100
0000
0010
0000
0011
0000
0000
1001
0000
0000
0001
0000
,
1000
0000
0010
1000
0001
0010
0100
1000
0002
0000
0MM0
0000
1003
0000
0000
0000
,
0100
0000
0000
0001
0000
0100
0000
0000
1001
0000
0000
0001
0010
0000
0001
0000
,
0100
0000
0000
0010
0000
1000
0000
0000
2010
0000
0000
0000
3100
0000
0010
0001
,
0010
0000
0000
0100
0000
1000
0000
0000
0100
0000
0000
0000
0010
0000
0001
0000
,
0100
0010
1000
0000
0010
0000
1000
0010
2000
0000
0000
0000
3001
0000
0000
0000
,
0021
0000
0030
0000
0001
0000
0100
0000
0110
0000
0000
0010
0100
0000
0010
0100
,
0001
0000
0001
1000
2002
0000
0000
0000
,
3003
0000
0000
0000
;

//---------------dance-single - ----------------
#NOTES:
     dance-single:
     :
     Medium:
     7:
     0.410383,0.463403,0.104842,0.524212,0.195706,411.000000,396.000000,15.000000,75.000000,52.000000,0.000000,0.410383,0.463403,0.104842,0.524212,0.195706,411.000000,396.000000,15.000000,75.000000,52.000000,0.000000:
0000
0000
0000
0000
,
0000
0000
0000
0000
,
0000
0000
0000
0000
,
0000
0000
0000
0000
,
0000
0000
0000
0000
,
0000
0000
0000
0000
,
0000
0000
0000
0000
0000
0000
M000
0000
000M
0000
00M0
0000
,
0M00
0000
00M0
0000
0M00
0000
M000
0000
0000
0000
0000
0000
,
2000
0000
0000
0000
0000
0000
30M0
0M00
00M0
0M00
00M0
0M00
0001
0000
0000
0000
0000
0000
1000
0000
0000
0010
0000
0000
,
1000
0000
0000
0000
0100
0000
0000
0000
0000
0110
0000
0000
0000
0000
0000
0000
0000
0000
0010
0000
0000
0001
0000
0000
,
0100
0010
1000
0001
1000
0000
0001
0010
,
0001
0000
0000
0000
1000
0000
0000
0000
0000
1020
0000
0000
0030
0000
0000
0000
0000
0000
0010
0000
0000
0100
0000
0000
,
0001
0010
0100
10M0
1002
0003
0020
0031
,
0100
0010
2000
3100
0000
0010
0100
0010
,
0001
1000
0010
0100
0020
0030
1000
0200
,
0300
0010
0002
0003
0010
0002
0003
0100
,
0020
0000
0000
0000
0030
1000
0100
0000
M12M
0000
M00M
0000
0031
0000
0010
0000
,
0001
0000
0000
0000
0100
0000
0000
0000
0000
M101
0000
0000
0100
0000
0000
0010
0000
0000
1000
0000
0000
0100
0000
0000
,
0010
0000
0000
0001
0000
0000
0020
0000
0000
0030
0000
0000
0001
0000
0000
0100
0000
0000
0001
0000
0000
0000
0010
0000
,
0000
M011
0002
0103
0010
1000
0010
0100
,
M002
0000
0000
0003
1000
0000
0010
0000
1000
0000
0100
0000
2000
0000
00M0
0000
,
3000
0020
000M
0030
0100
0010
0100
0001
,
0010
0001
1000
0002
0103
0010
0100
0010
,
1000
0100
0010
0001
0200
0300
0110
0000
,
1000
0000
0000
1000
0000
0000
0010
0000
0100
0000
0010
0000
1000
0000
0100
0000
,
0010
0000
0000
0010
0000
0000
0100
0000
0010
0000
0001
0000
0100
0000
0010
0000
,
1000
0000
0000
1000
0000
0000
0001
0000
0000
0100
0000
0000
0001
0000
0010
0000
,
0100
0000
0000
0100
0000
0000
2000
0000
3100
0000
0010
0000
0100
0000
1000
0000
,
002M
0000
0000
0130
0000
0000
0001
0000
0010
0000
0001
0000
0100
0000
0010
0000
,
1000
0000
0000
1000
0000
0000
0001
0000
0100
0000
0001
0000
0010
0000
0100
0000
,
0010
0000
0000
0010
0000
0000
0002
0000
0003
0010
0000
0000
0020
0000
0031
0000
,
0100
0000
0000
0100
0000
0000
0001
0000
0010
0000
0001
0000
0100
0000
0010
0000
,
2000
0000
3100
0010
0200
0000
0000
0300
,
1001
0000
0000
1001
0000
0000
0001
0000
0020
0000
0000
0000
0000
0000
0030
0000
,
0200
0000
0310
0001
2000
0000
0000
3000
,
0010
0000
0000
0010
0000
0000
0100
0000
0001
0000
0010
0000
0001
0000
1000
0000
,
0001
0000
0002
0003
2000
3000
0020
0030
,
2000
3000
0200
0300
0020
0030
0002
0003
,
0020
0000
0000
0000
,
0000
0000
0000
0000
,
0032
0003
0100
0010
0100
0001
0100
0010
,
0000
1000
0100
0010
0100
1000
0100
0010
,
0001
0000
1000
0001
0100
0010
1000
0100
,
0000
0010
0001
0100
0001
0010
0100
0010
,
0001
0000
1000
0001
0100
0010
0100
0001
,
0000
0010
0100
1000
0010
0100
0001
1000
,
20M0
0000
0000
0000
0M00
0000
0000
0000
00M0
0000
0000
0000
000M
0000
0000
0000
0M00
0000
0000
0000
000M
3000
0000
0000
,
0002
0003
0002
0003
0002
0003
0002
0003
,
M020
0000
0000
0000
0000
0000
0130
0000
0000
1000
0000
0000
0100
0000
0000
0000
0000
0010
0000
0000
0000
M11M
0000
0000
,
0100
1000
0010
1000
0100
0010
M002
0003
,
0100
0000
0000
0001
0000
0000
1000
0000
0000
0000
0100
0000
0000
0000
0000
110M
0000
0000
1000
0000
0000
0010
0000
0000
,
0100
0000
0000
M002
0000
0003
0000
00M0
2M00
0000
0000
3000
0100
0000
0010
0000
,
0100
1000
0000
0010
0000
0100
0001
0200
,
0300
0001
0010
0100
2000
3000
0100
2000
,
3000
0000
0010
0000
0200
0000
0300
0020
0000
0030
0200
0000
0300
0002
0000
0003
,
M020
0000
0000
0000
0M00
0000
0000
0000
M000
0000
0000
0000
0M00
0000
0000
0000
M000
0000
0000
0000
0M00
0030
0000
0000
0002
0000
0000
0000
0000
0000
0000
0000
0000
0000
0000
0000
0103
0000
0000
0000
0000
0000
0010
0000
0000
0000
0000
0000
,
1000
0000
0000
0000
0100
0000
0000
0000
0000
0020
0000
0000
0030
0000
0000
0000
0000
0000
0001
0000
0000
0100
0000
0000
,
0001
0000
0000
0000
1000
0000
0000
0000
0000
0010
0000
0000
002M
0000
0000
0030
0000
0000
0100
0000
0000
0001
0000
0000
,
0010
0000
0000
0000
0001
0000
0000
0000
0000
2000
0000
0000
0000
0000
0000
0000
0000
0000
3020
0000
0000
0030
0000
0000
,
1000
0000
0000
0M02
0000
0000
0000
M000
02M3
0000
0000
0000
0301
0000
0010
0000
,
0001
1000
0100
2000
0000
3001
0010
0100
,
1000
0010
0100
0001
4000
0000
3010
0100
,
0001
0010
0001
0100
0001
1000
0010
0100
,
0010
0000
0000
0000
0MM0
0000
0000
0000
0001
0000
0000
0001
0000
0000
1000
0000
,
0002
0000
0000
0000
0000
0000
0000
0000
1003
0000
0000
1000
0000
0000
0010
0000
,
1000
0000
0100
0000
0010
0000
0100
0000
1000
0000
0000
1010
0000
0000
0010
0000
,
0200
0000
0000
0000
0000
0000
0300
0000
0001
0000
0000
0001
0000
0000
0020
0000
,
0130
0000
1000
0000
0010
0000
0100
0000
002M
0000
0000
1030
0000
0000
0010
0000
,
0100
0000
0001
0000
0010
0000
0100
0000
0010
0000
0000
0010
0000
0000
0001
0000
,
1000
0000
0001
0000
0010
0000
0100
0000
0110
0000
0000
0110
0000
0000
1000
0000
,
0000
0001
0000
0000
0100
0000
0010
0000
1000
0000
0000
1000
0000
0000
0001
0000
,
1000
0010
0100
0010
200M
0000
3001
0000
,
0200
0000
0000
0000
0000
0300
0000
0000
0001
0000
0000
0001
0000
0000
0010
0000
,
0200
0000
0000
0000
0000
0300
0000
0000
2100
0000
0000
0000
3010
0000
0100
0000
,
0002
0000
0000
0000
0000
0003
0000
0000
0100
0000
0000
0100
0000
0000
0010
0000
,
0100
0001
1000
0100
2000
0000
3002
0003
,
0020
0000
0030
0000
0002
0000
0103
0000
0010
0000
0000
0010
0000
0000
1000
0000
,
0100
0000
1000
0010
0200
0000
0000
0000
,
0300
0000
0000
0000
;

//---------------dance-single - ----------------
#NOTES:
     dance-single:
     :
     Easy:
     4:
     0.267598,0.327108,0.006989,0.552170,0.027958,268.000000,267.000000,1.000000,79.000000,33.000000,0.000000,0.267598,0.327108,0.006989,0.552170,0.027958,268.000000,267.000000,1.000000,79.000000,33.000000,0.000000:
// measure 0
0000
0000
0000
0000
,  // measure 1
0000
0000
0000
0000
,  // measure 2
0000
0000
0000
0000
,  // measure 3
0000
0000
0000
0000
,  // measure 4
0000
0000
0000
0000
,  // measure 5
0000
0000
0000
0000
,  // measure 6
0000
0000
0000
0000
,  // measure 7
0000
0000
0000
0000
,  // measure 8
0000
0000
0000
0000
0000
0000
00M0
0M00
00M0
0M00
00M0
0M00
0001
0000
0000
0000
0000
0000
0000
0000
0000
0010
0000
0000
,  // measure 9
0001
0000
0000
1000
0000
0000
0010
0000
,  // measure 10
0100
0002
0003
0010
0001
0000
0000
0100
,  // measure 11
0010
0000
0000
2000
3000
0000
0100
0000
,  // measure 12
0010
0200
0300
10M0
0002
0003
0100
0000
,  // measure 13
0010
0200
0300
0001
0000
0010
0100
0010
,  // measure 14
0000
0002
0003
0100
0020
0030
0000
2000
,  // measure 15
3000
0000
0200
0300
0000
0020
0030
0000
,  // measure 16
0200
0000
0300
0100
M02M
M00M
0030
0001
,  // measure 17
1000
0000
0000
0M20
1030
0000
0001
0200
,  // measure 18
0300
0010
0200
0300
0000
0001
0010
0000
,  // measure 19
0000
M200
1300
0000
0010
0200
0300
0001
,  // measure 20
M200
0000
0000
0300
0000
0000
0010
0000
1000
0000
0001
0000
2000
0000
00M0
0000
,  // measure 21
3000
0020
000M
0030
1000
0000
0100
0000
,  // measure 22
0010
0100
0000
2000
3100
0000
0010
0001
,  // measure 23
0100
0000
0100
0000
0200
0300
0110
0000
,  // measure 24
0002
0000
0000
0003
0000
0000
0010
0000
0100
0000
0000
0000
0010
0000
0001
0000
,  // measure 25
2000
0000
0000
3000
0000
0000
0010
0000
1000
0000
0000
0000
0001
0000
0010
0000
,  // measure 26
0200
0000
0000
0300
0000
0000
1000
0000
0000
0000
0000
0000
0001
0000
0000
0000
,  // measure 27
0020
0000
0000
0030
0000
0000
0200
0000
0000
0300
0000
0000
0010
0000
0001
0000
,  // measure 28
M020
0000
0000
0030
0000
0000
0100
0000
0010
0000
0000
0000
0001
0000
0100
0000
,  // measure 29
0020
0000
0000
0030
0000
0000
0100
0000
0010
0000
0000
0000
1000
0000
0001
0000
,  // measure 30
0200
0000
0000
0000
0300
0000
0002
0000
0000
0003
0000
0000
0020
0000
0030
0000
,  // measure 31
0200
0000
0000
0300
0000
0000
1000
0000
0010
0000
0000
0000
0100
0000
0001
0000
,  // measure 32
2000
0000
0000
3000
0200
0000
0000
0300
,  // measure 33
0020
0000
0030
0001
0020
0000
0000
0030
,  // measure 34
0002
0000
0000
0003
0200
0000
0000
0300
,  // measure 35
0020
0000
0030
0100
0001
0000
0010
0001
,  // measure 36
1000
0001
0010
0001
,  // measure 37
0100
0010
1000
0100
,  // measure 38
0020
0000
0000
0000
,  // measure 39
0000
0000
0000
0000
,  // measure 40
0031
0100
0010
1000
,  // measure 41
0100
0010
0100
1000
,  // measure 42
0001
0100
0001
1000
,  // measure 43
0100
1000
0010
0100
,  // measure 44
0001
0010
0100
0010
,  // measure 45
0001
1000
0010
1000
,  // measure 46
0020
0000
0000
0030
,  // measure 47
0010
0010
0010
0010
,  // measure 48
M200
0000
0300
0010
0100
0000
0000
M02M
,  // measure 49
0130
0000
0001
1000
0000
0100
M020
0030
,  // measure 50
0000
0100
1000
0000
0000
020M
1300
0000
,  // measure 51
0100
0000
0010
M000
0000
0000
0000
00M0
0M02
0000
0003
0000
0000
0000
0010
0000
,  // measure 52
0100
0000
0000
1000
0000
0001
0000
0020
,  // measure 53
0030
0001
0000
0100
0020
0030
0000
2000
,  // measure 54
3000
0000
0200
0300
0000
2000
3000
0000
,  // measure 55
002M
0000
0000
0000
0000
0000
0000
0030
0200
0000
0000
0000
0300
0000
0010
0000
,  // measure 56
1000
0000
0000
0020
0030
0000
0000
0100
,  // measure 57
0001
0000
0000
0010
002M
0030
0000
0001
,  // measure 58
0100
0000
0000
0020
0000
0000
1030
0000
,  // measure 59
0002
0000
0000
0M00
0000
0000
0000
M000
02M3
0000
0000
0000
0300
0000
0010
0000
,  // measure 60
1000
0000
0100
2000
0000
3001
0000
0010
,  // measure 61
0001
0000
0100
0010
1000
0100
0000
1000
,  // measure 62
0001
0000
0100
0010
0100
0000
0100
0000
,  // measure 63
0010
0000
0000
0000
0MM0
0000
0000
0000
0002
0000
0000
0003
0000
0000
1000
0000
,  // measure 64
0010
0000
0000
0000
0000
0000
0100
0000
0020
0000
0000
0030
0000
0000
1000
0000
,  // measure 65
0100
0000
0000
0000
0010
0000
0001
0000
0200
0000
0000
0300
0000
0000
0001
0000
,  // measure 66
0010
0000
0000
0000
0000
0000
0000
0000
0002
0000
0000
0003
0000
0000
0200
0000
,  // measure 67
0000
0000
0300
0000
0010
0000
0100
0000
0002
0000
0000
0003
0000
0000
0010
0000
,  // measure 68
0100
0000
0000
0000
1000
0000
0001
0000
2000
0000
0000
3000
0000
0000
0010
0000
,  // measure 69
0100
0000
0000
0000
0010
0000
0100
0000
0002
0000
0000
0003
0000
0000
1000
0000
,  // measure 70
0001
0000
0000
0000
0100
0000
0010
0000
2000
0000
0000
3000
0000
0000
0100
0000
,  // measure 71
1000
0000
0010
0100
M002
0000
0003
0000
,  // measure 72
0200
0000
0000
0000
0000
0300
0000
0000
0002
0000
0000
0003
0000
0000
0000
0000
,  // measure 73
0200
0000
0000
0000
0000
0300
0000
0000
0020
0000
0000
0000
0030
0000
0000
0000
,  // measure 74
2000
0000
0000
0000
0000
3000
0000
0000
0200
0000
0000
0300
0000
0000
0010
0000
,  // measure 75
0100
0000
1000
0100
2000
0000
3001
0000
,  // measure 76
0010
0000
0000
0000
0001
0000
0000
0000
0200
0000
0000
0300
0010
0000
0000
0000
,  // measure 77
1000
0001
0200
0000
,  // measure 78
0300
0000
0000
0000
;

//---------------dance-single - ----------------
#NOTES:
     dance-single:
     :
     Beginner:
     2:
     0.133799,0.163554,0.000000,0.272590,0.000000,134.000000,134.000000,0.000000,39.000000,19.000000,0.000000,0.133799,0.163554,0.000000,0.272590,0.000000,134.000000,134.000000,0.000000,39.000000,19.000000,0.000000:
0000
0000
0000
0000
,
0000
0000
0000
0000
,
0000
0000
0000
0000
,
0000
0000
0000
0000
,
0000
0000
0000
0000
,
0000
0000
0000
0000
,
0000
0000
0000
0000
,
0000
0000
0000
0000
,
0000
0000
0001
0000
,
1000
0000
0000
0010
0000
0000
0000
0000
,
0100
0000
0010
0000
,
1000
0000
0000
0100
0000
0000
0000
0000
,
1000
0000
0000
00M0
0002
0003
0000
0000
,
0100
0001
0000
0000
,
0010
0000
0100
0000
,
0000
0001
0000
0000
,
0010
0000
M100
0000
,
0010
0000
0000
0M01
0000
0000
0100
0000
,
0000
0010
0000
1000
,
0000
010M
0000
0000
0010
0000
0000
0000
,
M001
0000
0000
0000
1000
0000
0001
00M0
,
0000
0100
M000
0000
0020
0000
0000
0000
,
1030
0000
0100
0000
,
1000
0001
2000
3000
,
0002
0003
0100
0000
,
0020
0030
1000
0000
,
0200
0000
0000
0300
0000
0000
0000
0000
0010
0000
0000
0000
0000
0000
0000
0000
,
0002
0003
0100
0000
,
M002
0003
0010
0000
,
0200
0300
1000
0000
,
0200
0300
0010
0000
,
0200
0300
1000
0000
,
0020
0030
0100
0000
,
0002
0003
0010
0000
,
0002
0003
0100
0000
,
0020
0030
0100
0000
,
0001
0000
1000
0000
,
0001
0000
1000
0000
,
0020
0000
0000
0000
,
0000
0000
0000
0000
,
1030
0000
0100
0000
,
0010
0000
0100
0000
,
0010
0000
0001
0000
,
0100
0000
0010
0000
,
1000
0000
0100
0000
,
1000
0000
0001
0000
,
0020
0000
0000
0030
,
0001
0000
0001
0000
,
M200
0000
0300
0000
0010
0000
0000
M01M
,
0000
1000
0000
010M
,
0000
0000
1000
0000
0000
001M
0000
0000
,
0200
0000
0000
0300
,
0010
0000
0000
1000
0000
0000
0000
0000
,
0100
0000
0020
0030
,
0000
0002
0003
0000
,
M020
0000
0230
0300
,
1000
0000
0000
0010
0000
0000
0000
0000
,
0100
0000
M001
0000
,
0100
0000
0000
0010
0000
0000
0000
0000
,
200M
0000
000M
3000
,
0100
0000
0000
1000
0000
0000
0000
0000
,
0001
0000
0100
0000
,
0010
0000
2000
0000
,
0000
3000
0002
0003
,
0100
0000
0020
0030
,
0100
0000
0002
0003
,
1000
0000
0200
0300
,
0010
0000
M001
0000
,
0010
0000
0200
0300
,
1000
0000
0000
0000
0000
0000
0000
0000
0002
0000
0000
0003
0000
0000
0000
0000
,
0100
0000
0020
0030
,
1000
0000
0M02
0003
,
0200
0300
0001
0000
,
0020
0030
0001
0000
,
2000
3000
0010
0000
,
0100
0000
0002
0003
,
0010
0000
0002
0003
,
1000
0000
0200
0000
,
0300
0000
0000
0000
;
