#TITLE:Give Me Up;
#SUBTITLE:;
#ARTIST:Michael Fortunati;
#TITLETRANSLIT:;
#SUBTITLETRANSLIT:;
#ARTISTTRANSLIT:;
#CREDIT:;
#BANNER:[Mid Speed] - Give Me Up.png;
#BACKGROUND:[Mid Speed] - Give Me Up-bg.png;
#LYRICSPATH:[Mid Speed] - Give Me Up.lrc;
#CDTITLE:cdtitle.png;
#MUSIC:[Mid Speed] - Give Me Up.ogg;
#OFFSET:-3.396;
#SAMPLESTART:71.525;
#SAMPLELENGTH:12.000;
#SELECTABLE:YES;
#BPMS:0.000=125.920;
#STOPS:;
#BGCHANGES:;

//---------------dance-single - ----------------
#NOTES:
     dance-single:
     :
     Hard:
     8:
     0.491,0.516,0.371,0.000,0.101: // measure 1
0000
0000
0000
0000
,  // measure 2
0000
0000
0000
0000
,  // measure 3
0000
0000
0000
0000
,  // measure 4
0000
0000
0000
0000
,  // measure 5
1000
0010
0100
0001
0010
0100
1000
0010
,  // measure 6
0100
0001
0010
0100
1000
0001
1000
0000
,  // measure 7
1000
0100
0010
0001
0100
0010
1000
0100
,  // measure 8
0010
0001
0100
0010
1000
0001
1000
0000
,  // measure 9
1000
0001
0100
0001
1000
0100
1000
0001
,  // measure 10
0100
0001
1000
0100
1000
0001
1000
0000
,  // measure 11
1000
0001
0010
0001
1000
0010
1000
0001
,  // measure 12
0010
0001
1000
0010
1000
0001
1000
0000
,  // measure 13
1001
0000
0000
1000
0100
0000
1000
0000
0000
0000
0100
0000
0100
0000
0000
0000
,  // measure 14
1001
0000
0000
0001
0100
0000
0001
0000
0000
0000
0100
0000
0100
0000
0000
0000
,  // measure 15
0101
0000
0000
0001
0100
0000
0001
0000
0000
0000
1000
0000
1000
0000
0000
0000
,  // measure 16
1100
0000
0000
1000
0100
0000
1000
0000
0000
0000
0001
0000
0001
0000
0000
0000
,  // measure 17
1001
0000
0000
1000
0010
0000
1000
0000
0000
0000
0010
0000
0010
0000
0000
0000
,  // measure 18
1001
0000
0000
0001
0010
0000
0001
0000
0000
0000
0010
0000
0010
0000
0000
0000
,  // measure 19
0011
0000
0000
0001
0010
0000
0001
0000
0000
0000
1000
0000
1000
0000
0000
0000
,  // measure 20
1010
0000
0000
1000
0010
0000
1000
0000
0000
0000
0001
0000
0001
0000
0100
0000
,  // measure 21
0010
1000
0100
1000
0010
0100
0001
0010
,  // measure 22
0001
0000
0000
0001
0100
1000
0100
0001
,  // measure 23
1000
0100
0010
0000
0010
0100
1000
0000
,  // measure 24
1001
0000
1000
0001
0000
0000
0001
1000
,  // measure 25
0100
0010
0001
0100
0001
0010
0100
1000
,  // measure 26
0001
0000
1000
0001
1000
0100
0010
0001
,  // measure 27
0100
0001
0010
0000
0010
0001
0100
0000
,  // measure 28
0110
0000
1000
0001
0000
0001
0010
0011
,  // measure 29
0000
1000
0010
1010
0000
0001
0100
0101
,  // measure 30
0000
1000
0100
1100
0000
1000
0001
0101
,  // measure 31
0000
0001
1000
1100
0000
1000
0001
0000
,  // measure 32
1001
0000
1000
0010
0000
0010
0100
0101
,  // measure 33
0000
0010
0100
1100
0000
1000
0001
0110
,  // measure 34
0000
0010
0100
1001
0000
1000
0001
0011
,  // measure 35
0000
0001
1000
1010
0000
1000
0001
0000
,  // measure 36
1001
0000
0001
0010
0001
0100
1000
0100
,  // measure 37
1001
0000
0001
0000
0010
0000
0100
0000
1000
0000
0100
1000
0000
0100
1000
0000
,  // measure 38
1100
0000
0100
1000
1001
0000
0001
0010
,  // measure 39
0011
0000
0001
0000
0100
0000
0010
0000
1000
0000
0100
1000
0000
0100
1000
0000
,  // measure 40
1100
0100
1000
0001
1000
0010
0100
0001
,  // measure 41
1001
0000
1000
0000
0100
0000
0010
0000
0001
0000
0010
0001
0000
0010
0001
0000
,  // measure 42
0011
0000
0001
0010
1100
0000
1000
0001
,  // measure 43
0011
0000
0001
0000
0100
0000
0010
0000
0100
0000
0001
0010
0000
0001
0010
0000
,  // measure 44
0100
0000
1000
0000
0010
0000
0100
0000
0001
1000
0001
1000
0001
0000
0000
0000
;

//---------------dance-single - ----------------
#NOTES:
     dance-single:
     :
     Easy:
     5:
     0.287,0.295,0.045,0.000,0.067:
0000
0000
0000
0000
,
0000
0000
0000
0000
,
0000
0000
0000
0000
,
0000
0000
0000
0000
,
1000
0100
0010
0100
,
1000
0010
0100
0001
,
0001
0010
0100
0010
,
0001
0100
0010
1000
,
0001
0100
1000
0100
,
0001
1000
0001
1000
,
0001
0010
1000
0010
,
0001
1000
0001
1000
,
0001
0000
0000
0001
0000
0000
0001
0000
0000
0000
0001
0000
1000
0000
0000
0000
,
1000
0000
0000
1000
0000
0000
1000
0000
0000
0000
1000
0000
0100
0000
0000
0000
,
0100
0000
0000
0100
0000
0000
0100
0000
0000
0000
0100
0000
1000
0000
0000
0000
,
0100
0000
0000
0100
0000
0000
0100
0000
0000
0000
0100
0000
0010
0000
0000
0000
,
0001
0000
0000
0001
0000
0000
0001
0000
0000
0000
0001
0000
1000
0000
0000
0000
,
1000
0000
0000
1000
0000
0000
1000
0000
0000
0000
1000
0000
0010
0000
0000
0000
,
0010
0000
0000
0010
0000
0000
0010
0000
0000
0000
0010
0000
0100
0000
0000
0000
,
0010
0000
0000
0010
0000
0000
0010
0000
0000
0000
0010
0000
1000
0000
0000
0000
,
0010
0000
1000
0000
0100
0010
0000
0001
,
0000
0000
0100
0001
,
0100
0000
0010
0000
1000
1000
0000
0000
,
1001
0000
0000
0001
0000
0000
0001
0000
,
0010
0100
0010
0001
,
1000
0000
1000
0100
,
0010
0000
0001
0000
0010
0100
0000
0000
,
1001
0000
0000
0001
0000
1000
0000
0010
,
0000
0100
0000
0001
0000
0010
0000
0100
,
0000
1000
0000
0100
0000
0010
0000
0001
,
0000
1000
0000
0001
0000
0100
0010
0000
,
1001
0000
0000
1000
0000
0100
0000
0010
,
0000
0001
0000
0010
0000
0001
0000
0100
,
0000
1000
0000
0100
0000
0001
0000
1000
,
0000
0100
0000
1000
0000
0001
0010
0000
,
0011
0000
0000
0001
0000
0000
0001
0010
,
0001
0000
0000
0000
0100
0000
0000
0000
0001
0000
0000
0001
0000
0000
0001
0000
,
1000
0000
1000
0100
1000
0000
1000
0001
,
1000
0000
0000
0000
1000
0000
0000
0000
1000
0000
0000
1000
0000
0000
1000
0000
,
0100
0000
0010
0001
0000
0000
0001
1000
,
0001
0000
0000
0000
0010
0000
0000
0000
0100
0000
0000
0100
0000
0000
0100
0000
,
1000
0000
0001
0100
0001
0000
0001
1000
,
0001
0000
0000
0000
0100
0000
0000
0000
0010
0000
0000
0010
0000
0000
0010
0000
,
1000
0000
0100
1000
0000
0001
1000
0000
;

//---------------dance-single - ----------------
#NOTES:
     dance-single:
     :
     Medium:
     6:
     0.331,0.320,0.045,0.000,0.067:
0000
0000
0000
0000
,
0000
0000
0000
0000
,
0000
0000
0000
0000
,
0000
0000
0000
0000
,
1000
0100
0010
0001
,
0100
0000
0010
0000
1000
0001
1000
0000
,
0001
0010
0100
1000
,
0001
0000
0010
0000
0001
1000
0001
0000
,
1000
0010
0100
0001
,
1000
0000
0010
0000
0100
0010
0100
0000
,
0001
0010
0100
1000
,
0001
0000
0010
0000
0100
0010
0100
0000
,
1000
0000
0000
1000
0000
0000
1000
0000
0000
0000
0001
0000
1000
0000
0000
0000
,
0001
0000
0000
0001
0000
0000
0001
0000
0000
0000
1000
0000
0100
0000
0000
0000
,
0100
0000
0000
0100
0000
0000
0100
0000
0000
0000
0100
0000
1000
0000
0000
0000
,
0100
0000
0000
0100
0000
0000
0100
0000
0000
0000
0100
0000
0010
0000
0000
0000
,
0001
0000
0000
0001
0000
0000
0001
0000
0000
0000
0001
0000
1000
0000
0000
0000
,
1000
0000
0000
1000
0000
0000
1000
0000
0000
0000
1000
0000
0100
0000
0000
0000
,
0100
0000
0000
0100
0000
0000
0100
0000
0000
0000
0100
0000
0010
0000
0000
0000
,
0010
0000
0000
0010
0000
0000
0010
0000
0000
0000
0010
0000
0100
0000
0000
0000
,
1000
0000
0001
0000
0100
0010
0000
1000
,
0000
0000
0000
0000
1000
0100
1000
0100
,
1000
0000
0001
0000
0100
0010
0000
0000
,
1010
0000
0010
1000
0000
1000
0100
0000
,
0100
1000
0100
0000
0100
0010
0100
0000
,
1001
0000
0000
0000
0001
0100
0001
0100
,
0001
0000
0001
0000
1000
0001
0000
0000
,
0010
0000
0001
1000
0000
1000
0001
1000
,
0000
1000
0010
1000
0000
1000
0001
1000
,
0000
1000
0100
1000
0000
1000
0001
0100
,
0000
0001
1000
0100
0000
1000
0001
0000
,
1001
0000
0000
0001
0000
0001
1000
0001
,
0000
0001
0010
0001
0000
0001
1000
0001
,
0000
0001
0100
0001
0000
0001
1000
0100
,
0000
1000
0001
0100
0000
0001
1000
0000
,
1001
0000
0000
1000
0000
0000
0001
1000
,
0010
0000
0000
0000
0010
0000
0000
0000
0010
0000
0000
0010
0000
0000
0010
0000
,
1000
0000
0001
1000
0100
0000
1000
0001
,
0010
0000
0000
0000
0010
0000
0000
0000
0001
0000
0000
0001
0000
0000
0001
0000
,
1000
0000
0001
0100
0000
0000
0100
0001
,
0010
0000
0000
0000
0100
0000
0000
0000
1000
0000
0000
1000
0000
0000
1000
0000
,
0010
0000
0100
0001
1000
0000
0100
1000
,
0010
0000
0000
0000
0010
0000
0000
0000
0100
0000
0000
0100
0000
0000
0100
0000
,
0001
1000
0100
1000
0001
0100
0001
0000
;

//---------------dance-double - ----------------
#NOTES:
     dance-double:
     :
     Hard:
     7:
     0.441,0.442,0.124,0.000,0.045:
00000000
00000000
00000000
00000000
,
00000000
00000000
00000000
00000000
,
00000000
00000000
00000000
00000000
,
00000000
00000000
00000000
00000000
,
10000000
00010000
01000000
00001000
00010000
00000100
00001000
00000010
,
00000100
00000001
00000010
00000100
00001000
00000001
00001000
00000000
,
00000001
00001000
00000100
00010000
00001000
00100000
00010000
01000000
,
00100000
10000000
01000000
00100000
00010000
10000000
00010000
00000000
,
10000000
00100000
01000000
00001000
00010000
00000100
00000010
00000001
,
00000100
00000010
00001000
00000100
00000010
00000100
00001000
00000000
,
00000001
00000100
00000010
00010000
00001000
01000000
00100000
10000000
,
01000000
00100000
00010000
01000000
00100000
01000000
10000000
00000000
,
10000000
00000000
01000000
00000000
00001000
00000000
00010000
00000000
00000000
00000000
00001000
00000000
00010000
00001000
00010000
00000000
,
00001000
00000000
00000100
00000000
00000001
00000000
00001000
00000000
00000000
00000000
00000001
00000000
00001000
00000001
00001000
00000000
,
00000001
00000000
00000010
00000000
00001000
00000000
00010000
00000000
00000000
00000000
00001000
00000000
00010000
00001000
00010000
00000000
,
00001000
00000000
00010000
00000000
01000000
00000000
10000000
00000000
01000000
00000000
00100000
00000000
00010000
10000000
00010000
00000000
,
00100000
00000000
01000000
00000000
00010000
00000000
00001000
00000000
00000000
00000000
00001000
00000000
00010000
00001000
00010000
00000000
,
00000010
00000000
00000100
00000000
00000001
00000000
00001000
00000000
00000000
00000000
00000001
00000000
00001000
00000001
00001000
00000000
,
00000010
00000000
00000100
00000000
00001000
00000000
00010000
00000000
00000000
00000000
00001000
00000000
00010000
00001000
00010000
00000000
,
00001000
00000000
00010000
00000000
01000000
00000000
10000000
00000000
00100000
00000000
10000000
00000000
01000000
00100000
01000000
00000000
,
00010000
00000000
00011000
00000000
00000100
00001000
00000001
00000000
,
00000100
00000000
00000010
00000000
00010000
00001000
00100000
00010000
,
10000000
00000000
10010000
00000000
10000000
01000000
00000000
00000000
,
01100000
00000000
00010000
10000000
00000000
00000000
10000000
00000000
,
01000000
10000000
00010000
00000000
01000000
00001000
00010000
00000000
,
00010000
00000100
00001000
00000000
00000010
00000100
00000001
00000010
,
00000100
00000000
00001100
00000000
00000100
00010000
00000000
00000000
,
00011000
00000000
00010000
00001000
00000000
00010000
01000000
10000000
,
00000000
10000000
01000000
00010000
00000000
00001000
00000100
00000001
,
00000000
00000001
00000100
00001000
00000000
00010000
00001000
00000100
,
00000000
00000100
00001000
00010000
00000000
00010000
00001000
00000000
,
00011000
00000000
00001000
00010000
00000000
00010000
00100000
10000000
,
00000000
10000000
00100000
00010000
00000000
00001000
00000010
00000001
,
00000000
00000001
00000010
00001000
00000000
00001000
00010000
01000000
,
00000000
01000000
00010000
00001000
00000000
00010000
00001000
00000000
,
00011000
00000000
00001000
00010000
00000000
00000000
00010000
00001000
,
00100000
00010000
10000000
00100000
01000000
00000000
01000000
00000000
,
01010000
00000000
01000000
00001000
00010000
00000000
00010000
00000100
,
00001000
00000010
00000100
00000001
00000010
00000000
00000010
00000000
,
00000011
00000001
00000010
00000100
00000001
00000100
00001000
00000100
,
00010000
00001000
00100000
00010000
10000000
00000000
10000000
00000000
,
11000000
00000000
10000000
00010000
01000000
00000000
01000000
00001000
,
00010000
00000100
00001000
00000100
00000010
00000000
00000010
00000000
,
00000001
00000100
00001000
00010000
01000000
10000000
10010000
00000000
;

//---------------dance-solo - ----------------
#NOTES:
     dance-solo:
     :
     Hard:
     8:
     0.522,0.516,0.326,0.000,0.169:
000000
000000
000000
000000
,
000000
000000
000000
000000
,
000000
000000
000000
000000
,
000000
000000
000000
000000
,
100000
001000
000001
100000
000100
000001
100000
001000
,
000001
100000
000100
000001
100000
000001
010000
000000
,
010000
000010
001000
000001
100000
001000
010000
000010
,
001000
000100
010000
001000
000010
001000
010000
000000
,
000001
100000
001000
100000
000001
001000
000100
100000
,
000001
001000
000001
100000
000010
010000
000001
000000
,
010000
000010
001000
000100
100000
001000
010000
000010
,
001000
000000
000001
000000
001000
000000
000100
000000
100000
000000
000001
000000
100000
000000
000001
100000
,
000001
000000
000000
000001
100000
000000
001000
000000
000000
000000
000100
000000
000001
100000
000010
000000
,
000100
000000
000000
000001
100000
000000
000010
000000
000000
000000
001000
000000
000001
100000
000010
000000
,
001000
000000
000000
000100
001000
000000
000100
000000
000000
000000
001000
000000
000001
100000
000100
000000
,
001000
000000
000000
001000
000100
000000
100000
000000
000000
000000
000001
000000
100000
000001
000100
000000
,
000001
000000
000000
100000
000001
000000
100000
000000
000000
000000
000001
000000
100000
000010
010000
000000
,
000001
000000
000000
000001
100000
000000
000001
000000
000000
000000
100000
000000
000001
010000
000010
000000
,
001000
000000
000000
001000
000100
000000
100000
000000
000000
000000
001000
000000
100000
000001
000100
000000
,
001000
000000
000000
001000
000100
000000
000001
000000
000000
000000
001000
000000
000100
100000
000001
000000
,
100000
001000
000100
001000
100000
001000
000010
001000
,
100000
000010
100000
000001
001000
000100
100000
001000
,
001100
000100
000001
000000
000101
000001
100000
000000
,
100001
000000
000000
100000
000001
000000
001000
000000
000000
000000
000000
000000
001000
000000
000001
000000
,
001000
000100
001000
010000
100000
010000
001000
000001
,
100000
001000
000100
001000
100000
000100
001000
000001
,
000101
000100
001000
000000
101000
100000
000001
000000
,
100001
000000
100000
000001
000000
000001
100000
100010
,
000000
100000
000001
010001
000000
000001
100000
101000
,
000000
100000
000001
001001
000000
001000
000100
001100
,
000000
000100
001000
001100
000000
001000
000001
000000
,
100001
000000
000000
000001
100000
000000
000001
000000
000000
000000
100000
000000
000010
000000
000110
000000
,
000000
000010
100000
100100
000000
100000
001000
011000
,
000000
010000
000001
001001
000000
000001
001000
001100
,
000000
000100
100000
101000
000000
100000
000001
000000
,
100001
000000
000000
000000
100000
000000
000010
000000
001000
000000
000010
001000
000100
000000
010000
000000
,
010010
000000
010000
000000
001000
000000
000100
000000
000001
000000
100000
000001
000000
100000
000001
000000
,
100001
000000
000100
001000
100001
000000
001000
000100
,
010010
000000
010000
000000
000010
000000
001000
000000
000001
000000
100000
000001
000000
100000
000001
000000
,
100001
100000
001000
000100
001000
100000
000001
001000
,
001010
000000
000010
000000
001000
000000
000001
000000
000100
000000
001000
000100
000000
001000
000100
000000
,
000101
000000
000001
100000
100100
000000
100000
000100
,
010100
000000
000100
000000
010000
000000
001000
000000
100000
000000
000100
001000
000000
000100
001000
000000
,
000001
000000
001000
000000
100000
000000
001000
000000
000001
100000
000001
100000
000001
000000
000000
000000
;

//---------------dance-double - ----------------
#NOTES:
     dance-double:
     :
     Easy:
     5:
     0.294,0.295,0.056,0.000,0.067:
00000000
00000000
00000000
00000000
,
00000000
00000000
00000000
00000000
,
00000000
00000000
00000000
00000000
,
00000000
00000000
00000000
00000000
,
10000000
01000000
00010000
01000000
,
10000000
01000000
00010000
00001000
,
00000010
00001000
00010000
00001000
,
00000010
00000001
00000100
00000001
,
00001000
00000100
00000001
00000100
,
00001000
00010000
00100000
01000000
,
00010000
00001000
00000100
00001000
,
00010000
01000000
10000000
00100000
,
10000000
00000000
00000000
10000000
00000000
00000000
10000000
00000000
00000000
00000000
01000000
00000000
00010000
00000000
00000000
00000000
,
00001000
00000000
00000000
00001000
00000000
00000000
00001000
00000000
00000000
00000000
00000100
00000000
00000001
00000000
00000000
00000000
,
00000100
00000000
00000000
00000100
00000000
00000000
00000100
00000000
00000000
00000000
00001000
00000000
00010000
00000000
00000000
00000000
,
01000000
00000000
00000000
01000000
00000000
00000000
01000000
00000000
00000000
00000000
10000000
00000000
00100000
00000000
00000000
00000000
,
00010000
00000000
00000000
00010000
00000000
00000000
00010000
00000000
00000000
00000000
00001000
00000000
00000100
00000000
00000000
00000000
,
00000001
00000000
00000000
00000001
00000000
00000000
00000001
00000000
00000000
00000000
00000100
00000000
00001000
00000000
00000000
00000000
,
00100000
00000000
00000000
00100000
00000000
00000000
00100000
00000000
00000000
00000000
00010000
00000000
00001000
00000000
00000000
00000000
,
00000010
00000000
00000000
00000010
00000000
00000000
00000010
00000000
00000000
00000000
00000100
00000000
00000001
00000000
00001000
00000000
,
00000001
00000000
00000001
00000000
00000010
00000100
00000000
00010000
,
00000000
00000000
00000000
00001000
00100000
00000000
00010000
00000000
,
10000000
00000000
01000000
00000000
00100000
00010000
00000000
00000000
,
10010000
00000000
00000000
10000000
00000000
00000000
10000000
00000000
,
01000000
10000000
00010000
00000000
01000000
00000000
00001000
00000000
,
00010000
00000100
00000010
00000001
,
00000100
00000000
00001000
00000000
00010000
01000000
00000000
00000000
,
10010000
00000000
00000000
10000000
00000000
00100000
00000000
00010000
,
00000000
00001000
00000000
00000100
00000000
00000001
00000000
00000010
,
00000000
00001000
00000000
00010000
00000000
01000000
00000000
10000000
,
00000000
01000000
00000000
00010000
00000000
00001000
00010000
00000000
,
00011000
00000000
00000000
00010000
00000000
00001000
00000000
00000010
,
00000000
00000001
00000000
00000100
00000000
00001000
00000000
00010000
,
00000000
01000000
00000000
10000000
00000000
00100000
00000000
00010000
,
00000000
00001000
00000000
00000100
00000000
00001000
00010000
00000000
,
00011000
00000000
00000000
00010000
00000000
00000000
00001000
00010000
,
00000010
00000000
00000000
00000000
00000010
00000000
00000000
00000000
00000100
00000000
00000000
00000100
00000000
00000000
00000100
00000000
,
00000001
00000000
00000001
00001000
00000100
00000000
00000100
00010000
,
00001000
00000000
00000000
00000000
00010000
00000000
00000000
00000000
01000000
00000000
00000000
01000000
00000000
00000000
01000000
00000000
,
10000000
00000000
00100000
01000000
00000000
00000000
01000000
00001000
,
00000010
00000000
00000000
00000000
00000001
00000000
00000000
00000000
00000100
00000000
00000000
00000100
00000000
00000000
00000100
00000000
,
00001000
00000000
00010000
00001000
01000000
00000000
01000000
00010000
,
10000000
00000000
00000000
00000000
00100000
00000000
00000000
00000000
01000000
00000000
00000000
01000000
00000000
00000000
01000000
00000000
,
00001000
00000000
00010000
00000100
00000000
00000000
00001100
00000000
;

//---------------dance-double - ----------------
#NOTES:
     dance-double:
     :
     Medium:
     6:
     0.332,0.344,0.034,0.000,0.067:
00000000
00000000
00000000
00000000
,
00000000
00000000
00000000
00000000
,
00000000
00000000
00000000
00000000
,
00000000
00000000
00000000
00000000
,
10000000
01000000
00010000
01000000
,
10000000
00000000
01000000
00000000
00010000
00001000
00010000
00000000
,
00001000
00000010
00000001
00000010
,
00001000
00000000
00000010
00000000
00000001
00001000
00000001
00000000
,
00000100
00001000
00010000
00001000
,
00000100
00000000
00001000
00000000
00010000
00001000
00010000
00000000
,
00100000
00010000
00001000
00000010
,
00001000
00000000
00010000
00000000
00100000
01000000
00100000
00000000
,
10000000
00000000
00000000
01000000
00000000
00000000
00010000
00000000
00000000
00000000
00001000
00000000
00010000
00000000
00000000
00000000
,
00001000
00000000
00000000
00000100
00000000
00000000
00000001
00000000
00000000
00000000
00000100
00000000
00001000
00000000
00000000
00000000
,
00010000
00000000
00000000
00001000
00000000
00000000
01000000
00000000
00000000
00000000
00010000
00000000
00100000
00000000
00000000
00000000
,
00001000
00000000
00000000
00010000
00000000
00000000
00000100
00000000
00000000
00000000
00000010
00000000
00000001
00000000
00000000
00000000
,
00000001
00000000
00000000
00000010
00000000
00000000
00001000
00000000
00000000
00000000
00010000
00000000
00001000
00000000
00000000
00000000
,
00010000
00000000
00000000
00100000
00000000
00000000
10000000
00000000
00000000
00000000
00010000
00000000
01000000
00000000
00000000
00000000
,
00001000
00000000
00000000
00010000
00000000
00000000
00000010
00000000
00000000
00000000
00001000
00000000
00000010
00000000
00000000
00000000
,
00010000
00000000
00000000
00001000
00000000
00000000
00100000
00000000
00000000
00000000
00100000
00000000
10000000
00000000
00100000
00000000
,
00001000
00000000
00010000
00000000
00001000
00000100
00000000
00000001
,
00000000
00000000
00000000
00000000
00000001
00000100
00000001
00000000
,
00001000
00000000
00000100
00000000
00010000
00001000
00000000
00000000
,
00100000
00000000
00010000
10000000
00000000
00000000
10000000
00000000
,
01000000
10000000
00010000
00000000
00010000
01000000
00001000
00000000
,
00000010
00000000
00000000
00000000
00000001
00000100
00001000
00000000
,
00010000
00000000
00001000
00000000
00100000
01000000
00000000
00000000
,
10010000
00000000
00000000
00010000
00000000
10000000
01000000
00100000
,
00000000
00100000
01000000
10000000
00000000
10000000
00010000
01000000
,
00000000
01000000
00001000
00010000
00000000
00010000
00000100
00001000
,
00000000
00001000
00000001
00000100
00000000
00000100
00000001
00000000
,
00001001
00000000
00000001
00001000
00000000
00001000
00000001
00000010
,
00000000
00000010
00000001
00001000
00000000
00001000
00000100
00010000
,
00000000
00010000
00001000
01000000
00000000
01000000
00010000
10000000
,
00000000
10000000
00010000
01000000
00000000
01000000
00001000
00000000
,
00011000
00000000
00010000
00001000
00000000
00000000
00001000
00010000
,
00000010
00000000
00000000
00000000
00000100
00000000
00000000
00000000
00000001
00000000
00000000
00000001
00000000
00000000
00000001
00000000
,
00000010
00000000
00000100
00010000
00001000
00000000
00001000
00100000
,
00010000
00000000
00000000
00000000
10000000
00000000
00000000
00000000
01000000
00000000
00000000
01000000
00000000
00000000
01000000
00000000
,
00100000
00001000
00010000
00000100
00001000
00000010
00000100
00000001
,
00000100
00000000
00000000
00000000
00000010
00000000
00000000
00000000
00001000
00000000
00000000
00001000
00000000
00000000
00001000
00000000
,
00000010
00000000
00010000
00001000
01000000
00000000
01000000
00010000
,
10000000
00000000
00000000
00000000
01000000
00000000
00000000
00000000
00100000
00000000
00000000
00100000
00000000
00000000
00100000
00000000
,
00001000
00010000
00000100
00001000
00000010
00000100
00000001
00000000
;

//---------------dance-single - ----------------
#NOTES:
     dance-single:
     :
     Beginner:
     1:
     0.133,0.172,0.034,0.000,0.000:
0000
0000
0000
0000
,
0000
0000
0000
0000
,
0000
0000
0000
0000
,
0000
0000
0000
0000
,
1000
0000
0000
0000
,
1000
0000
0000
0000
,
0010
0000
0000
0000
,
0010
0000
0000
0000
,
0100
0000
0000
0000
,
0100
0000
0000
0000
,
0001
0000
0000
0000
,
0001
0000
0000
0000
,
1001
0000
0000
1000
,
1000
0000
0000
0100
,
0100
0000
0000
0010
,
0010
0000
0000
0001
,
1001
0000
0000
1000
,
1000
0000
0000
0010
,
0010
0000
0000
0100
,
0100
0000
0000
0000
,
0001
0000
0001
0000
,
0001
0000
0100
0100
,
0100
0000
0100
0000
,
0010
0000
0000
0000
,
1000
0000
1000
0000
,
1000
0000
0100
0100
,
0100
0000
0100
0000
,
0010
0000
0000
0000
,
0010
0000
0010
0000
,
0001
0000
0001
0000
,
1000
0000
1000
0000
,
0100
0000
0100
0000
,
1000
0000
1000
0000
,
0010
0000
0010
0000
,
0100
0000
0100
0000
,
0001
0000
0001
0001
,
0001
0000
1000
1000
,
1000
0000
0100
0100
,
0100
0000
0010
0010
,
0010
0000
0001
0001
,
0001
0000
0010
0010
,
0010
0000
0100
0100
,
0100
0000
1000
1000
,
1000
0000
0001
1001
;

//---------------dance-solo - ----------------
#NOTES:
     dance-solo:
     :
     Easy:
     5:
     0.292,0.295,0.056,0.000,0.067:
000000
000000
000000
000000
,
000000
000000
000000
000000
,
000000
000000
000000
000000
,
000000
000000
000000
000000
,
100000
001000
000100
001000
,
100000
000100
001000
000001
,
000100
000010
001000
000010
,
000100
001000
010000
001000
,
000100
000001
001000
000001
,
000100
001000
100000
001000
,
010000
001000
000100
001000
,
010000
000010
001000
000001
,
100000
000000
000000
100000
000000
000000
100000
000000
000000
000000
100000
000000
000001
000000
000000
000000
,
000001
000000
000000
000001
000000
000000
000001
000000
000000
000000
000001
000000
001000
000000
000000
000000
,
001000
000000
000000
001000
000000
000000
001000
000000
000000
000000
001000
000000
001000
000000
000000
000000
,
001000
000000
000000
001000
000000
000000
001000
000000
000000
000000
001000
000000
000100
000000
000000
000000
,
010000
000000
000000
010000
000000
000000
010000
000000
000000
000000
010000
000000
000010
000000
000000
000000
,
000010
000000
000000
000010
000000
000000
000010
000000
000000
000000
000010
000000
001000
000000
000000
000000
,
001000
000000
000000
001000
000000
000000
001000
000000
000000
000000
001000
000000
001000
000000
000000
000000
,
001000
000000
000000
001000
000000
000000
001000
000000
000000
000000
001000
000000
000100
000000
000000
000000
,
100000
000000
001000
000000
100000
000001
000000
010000
,
000000
000000
010000
000010
001000
000000
000001
000000
,
100000
000000
001000
000000
100000
000001
000000
000000
,
100001
000000
000000
100000
000000
000000
001000
000000
,
100000
000000
001000
000000
100000
001000
000000
010000
,
000000
000001
100000
001000
,
100000
000000
000100
000000
001000
000001
000000
000000
,
100001
000000
000000
000001
000000
100000
000000
001000
,
000000
000001
000000
001000
000000
100000
000000
000100
,
000000
001000
000000
000001
000000
100000
000000
000010
,
000000
100000
000000
000001
000000
001000
000001
000000
,
100001
000000
000000
100000
000000
000100
000000
010000
,
000000
001000
000000
010000
000000
000100
000000
001000
,
000000
000001
000000
000010
000000
000001
000000
001000
,
000000
000100
000000
100000
000000
001000
000100
000000
,
100001
000000
000000
000001
000000
000000
000001
100000
,
000010
000000
000000
000000
100000
000000
000000
000000
000001
000000
000000
000001
000000
000000
000001
000000
,
000100
000000
000001
100000
001000
000000
100000
000001
,
100000
000000
000000
000000
100000
000000
000000
000000
000100
000000
000000
000100
000000
000000
000100
000000
,
010000
000000
000001
001000
000000
000000
001000
000100
,
100000
000000
000000
000000
100000
000000
000000
000000
001000
000000
000000
001000
000000
000000
001000
000000
,
000100
000000
000010
010000
001000
000000
001000
100000
,
000001
000000
000000
000000
001000
000000
000000
000000
000001
000000
000000
000001
000000
000000
000001
000000
,
100000
000000
001000
000100
000000
000000
100001
000000
;

//---------------dance-solo - ----------------
#NOTES:
     dance-solo:
     :
     Medium:
     6:
     0.329,0.320,0.056,0.000,0.067:
000000
000000
000000
000000
,
000000
000000
000000
000000
,
000000
000000
000000
000000
,
000000
000000
000000
000000
,
100000
001000
000001
001000
,
100000
000000
000001
000000
001000
000100
001000
000000
,
000001
000100
100000
000100
,
000001
000000
001000
000000
000010
010000
000001
000000
,
100000
001000
000001
001000
,
100000
000000
000001
000000
100000
000001
100000
000000
,
000010
001000
010000
001000
,
000010
000000
100000
000000
001000
000100
001000
000000
,
100000
000000
000000
100000
000000
000000
100000
000000
000000
000000
100000
000000
000001
000000
000000
000000
,
000001
000000
000000
000001
000000
000000
000001
000000
000000
000000
000001
000000
001000
000000
000000
000000
,
001000
000000
000000
001000
000000
000000
001000
000000
000000
000000
001000
000000
000010
000000
000000
000000
,
001000
000000
000000
001000
000000
000000
001000
000000
000000
000000
001000
000000
000100
000000
000000
000000
,
010000
000000
000000
010000
000000
000000
010000
000000
000000
000000
010000
000000
000010
000000
000000
000000
,
000010
000000
000000
000010
000000
000000
000010
000000
000000
000000
000010
000000
001000
000000
000000
000000
,
001000
000000
000000
001000
000000
000000
001000
000000
000000
000000
001000
000000
000001
000000
000000
000000
,
001000
000000
000000
001000
000000
000000
001000
000000
000000
000000
001000
000000
000100
000000
001000
000000
,
000001
000000
100000
000000
001000
100000
000000
000010
,
000000
000000
000000
000000
000010
100000
000001
100000
,
001000
000000
100000
000000
000001
100000
000000
000000
,
100010
000000
000000
100000
000000
000000
100000
000000
,
001000
100000
001000
000000
001000
000001
001000
000000
,
100001
000000
000000
000000
100000
000100
001000
000001
,
100000
000000
001000
000000
010000
001000
000000
000000
,
001100
000000
000000
000100
000000
000100
000001
000100
,
000000
000100
001000
000100
000000
001000
000100
001000
,
000000
001000
100000
001000
000000
001000
010000
001000
,
000000
001000
000010
001000
000000
001000
100000
000000
,
100001
000000
000000
000001
000000
000001
001000
000100
,
000000
000100
001000
000001
000000
000001
000100
001000
,
000000
001000
000100
000001
000000
100000
001000
000100
,
000000
000100
001000
100000
000000
100000
000001
000000
,
100001
000000
000000
000001
000000
000000
000001
100000
,
000100
000000
000000
000000
000100
000000
000000
000000
100000
000000
000000
001000
000000
000000
000100
000000
,
000001
000000
000001
001000
100000
000000
100000
001000
,
000001
000000
000000
000000
000100
000000
000000
000000
000001
000000
000000
001000
000000
000000
000100
000000
,
100000
000000
001000
000100
000000
000000
000001
010000
,
000010
000000
000000
000000
000010
000000
000000
000000
100000
000000
000000
100000
000000
000000
100000
000000
,
000100
000000
100000
000100
001000
000000
001000
000001
,
100000
000000
000000
000000
100000
000000
000000
000000
000001
000000
000000
000001
000000
000000
000001
000000
,
100000
001000
000100
001000
100000
000001
100000
000000
;
