#VERSION:0.83;
#TITLE:Death by Glamour;
#SUBTITLE:;
#ARTIST:Toby Fox;
#TITLETRANSLIT:;
#SUBTITLETRANSLIT:;
#ARTISTTRANSLIT:;
#GENRE:;
#ORIGIN:;
#CREDIT:;
#BANNER:[Mid Speed] - Death by Glamour.png;
#BACKGROUND:[Mid Speed] - Death by Glamour-bg.png;
#PREVIEWVID:;
#JACKET:[Mid Speed] - Death by Glamour-jacket.png;
#CDIMAGE:;
#DISCIMAGE:;
#LYRICSPATH:;
#CDTITLE:cdtitle.png;
#MUSIC:[Mid Speed] - Death by Glamour.mp3;
#OFFSET:0.200000;
#SAMPLESTART:64.656479;
#SAMPLELENGTH:12.972099;
#SELECTABLE:YES;
#BPMS:0.000=148.000;
#STOPS:;
#DELAYS:;
#WARPS:;
#TIMESIGNATURES:0.000=4=4;
#TICKCOUNTS:0.000=4;
#COMBOS:0.000=1;
#SPEEDS:0.000=1.000=0.000=0;
#SCROLLS:0.000=1.000;
#FAKES:;
#LABELS:0.000=Song Start;
#BGCHANGES:;
#KEYSOUNDS:;
#ATTACKS:
;

//---------------dance-single - ----------------
#NOTEDATA:;
#CHARTNAME:;
#STEPSTYPE:dance-single;
#DESCRIPTION:;
#CHARTSTYLE:;
#DIFFICULTY:Hard;
#METER:8;
#RADARVALUES:0.473774,0.547543,0.126128,0.296771,0.229998,447.000000,430.000000,17.000000,40.000000,0.000000,0.000000,0.000000,0.000000,0.000000,0.473774,0.547543,0.126128,0.296771,0.229998,447.000000,430.000000,17.000000,40.000000,0.000000,0.000000,0.000000,0.000000,0.000000;
#CREDIT:;
#NOTES:
// measure 0
0000
0000
0000
0000
,  // measure 1
0000
0000
0000
0000
,  // measure 2
0000
0000
0000
0000
,  // measure 3
0000
0000
0000
0000
,  // measure 4
0000
0000
0000
0000
0001
0000
0000
0000
0100
0000
0000
0000
0010
0000
0000
0010
,  // measure 5
0000
0000
0100
0000
0000
0000
0001
0000
1000
0000
0000
0000
0100
0000
0000
0100
,  // measure 6
0000
0000
0000
0000
1000
0000
0000
0000
0001
0000
0000
0000
0100
0000
0000
0010
,  // measure 7
0000
0000
1000
0000
0000
0000
0001
0000
0010
0000
0000
0000
0100
0000
0000
0100
,  // measure 8
0000
0000
0000
0000
1000
0000
0000
0000
0010
0000
0000
0000
0100
0000
0000
0001
,  // measure 9
0000
0010
0000
0010
0001
0000
2000
0000
,  // measure 10
3002
0000
0000
0000
0103
0000
0000
0000
0001
0000
0000
0000
0010
0000
0000
0100
,  // measure 11
0000
1000
0000
0010
1000
0000
0002
0000
,  // measure 12
2003
0000
0000
0000
3100
0000
0000
0000
1100
0000
0000
0000
1000
0000
0000
0010
,  // measure 13
0000
0000
0100
0000
0000
0000
0001
0000
0010
0000
0000
0000
0100
0000
0000
0010
,  // measure 14
0000
0000
0000
0000
0001
0000
0000
0000
0101
0000
0000
0000
0001
0000
0000
0010
,  // measure 15
0000
0000
0001
0000
0000
0000
1000
0000
0001
0000
0000
0000
0100
0000
0000
0010
,  // measure 16
0000
0000
0000
0000
1000
0000
0010
0000
0100
0000
0001
0000
0010
0000
0000
0100
,  // measure 17
0000
0000
0010
0000
0000
0000
0100
0000
1000
0000
0001
0000
0100
0000
0000
0001
,  // measure 18
0000
0000
0000
0000
1000
0000
0100
0000
0010
0000
0100
0000
1000
0000
0000
0001
,  // measure 19
0000
0000
0100
0000
0000
0000
0010
0000
0100
0000
0001
0000
1000
0000
0000
0001
,  // measure 20
0000
0000
0000
0000
0010
0000
0001
0000
1000
0000
0100
0000
0010
0000
0000
0100
,  // measure 21
0000
0000
1000
0000
0000
0000
0100
0000
0010
0000
0001
0000
1000
0000
0000
0001
,  // measure 22
0000
0000
0000
0000
1000
0000
0010
0000
0100
0000
0001
0000
0010
0000
0000
0001
,  // measure 23
0000
0000
1000
0000
0000
0000
0001
0000
1000
0000
0010
0000
1000
0000
0000
0001
,  // measure 24
0000
0000
0000
0000
0001
0000
1000
0000
1000
0000
0000
0010
0000
0000
0100
0000
,  // measure 25
0001
0000
1000
0000
0100
0000
0100
0000
0010
0000
0000
0100
0000
0000
1000
0000
,  // measure 26
0001
0100
0010
1000
0001
0000
0000
0000
,  // measure 27
0000
0000
0000
1000
0010
0000
0000
0100
0000
0000
0001
0000
1000
0000
1000
0000
,  // measure 28
0100
0000
1000
0000
0001
0000
0010
0000
0001
0000
0000
0100
0000
0000
0010
0000
,  // measure 29
0100
0000
0001
0000
1000
0000
0001
0000
0010
0000
0000
0100
0000
0000
0010
0000
,  // measure 30
0001
1000
0010
0010
0100
0000
0000
0000
,  // measure 31
0000
0000
0000
0001
0100
0000
0000
0010
0000
0000
1000
0000
0001
0000
0001
0000
,  // measure 32
0100
0000
0001
0000
0010
0000
0001
0000
0100
0000
0000
1000
0000
0000
0100
0000
,  // measure 33
0010
0000
1000
0000
0001
0000
0010
0000
1000
0000
0000
0010
0000
0000
0100
0000
,  // measure 34
1000
0010
0100
0100
0001
0000
0000
0000
,  // measure 35
0000
0000
0000
1000
0010
0000
0000
0010
0000
0000
0100
0000
0001
0000
0001
0000
,  // measure 36
1000
0000
0000
0000
0001
0000
0010
0000
1000
0000
0000
0010
0000
0000
0100
0000
,  // measure 37
1000
0000
0010
0000
0001
0000
0010
0000
0100
0000
0000
0001
0000
0000
0100
0000
,  // measure 38
0001
1000
1001
0001
1000
0000
1001
1000
,  // measure 39
0001
1001
0110
1001
,  // measure 40
1000
0001
0200
0000
0000
0301
2000
0000
,  // measure 41
0000
3100
0020
0000
0230
0000
2300
0000
,  // measure 42
3200
0000
0320
0000
0000
0031
2000
0000
,  // measure 43
0000
3001
1000
0010
1000
0001
0020
0000
,  // measure 44
0130
1000
0002
0000
0000
1003
0200
0000
,  // measure 45
0000
0310
0200
0000
2300
0000
3020
0000
,  // measure 46
0230
0000
0302
0000
0000
0013
0200
0000
,  // measure 47
0000
0000
1300
0000
0001
0000
1000
0100
1000
0000
0001
0000
0020
0000
0000
0000
,  // measure 48
0130
1000
0002
0000
0000
0103
2000
0000
,  // measure 49
0000
3100
0020
0000
2030
0000
3200
0000
,  // measure 50
2300
0000
3002
0000
0000
0013
2000
0000
,  // measure 51
0000
3010
0100
1000
0010
0001
0020
0000
,  // measure 52
1030
0001
2000
0000
0000
3001
0200
0000
,  // measure 53
0000
0310
2000
0000
3200
0000
2300
0000
,  // measure 54
3002
0000
0203
0000
0000
0310
2000
0000
,  // measure 55
0000
0000
3001
0000
0010
0000
0000
0010
0000
0000
0010
0000
0010
0100
0000
0100
,  // measure 56
0010
0000
0000
0000
0001
0000
0000
0000
0010
0000
0010
0100
0000
0000
0000
0000
,  // measure 57
0100
0000
0010
0000
0001
0000
1000
0000
0001
0000
0001
0100
0000
0000
0000
0000
,  // measure 58
0001
0000
1000
0000
0100
0000
0000
0100
0000
0000
0010
0000
0001
0000
0000
0000
,  // measure 59
0010
0000
0100
0000
1000
0000
0000
1000
0000
0000
0001
0000
0010
0000
0000
0000
,  // measure 60
0100
0000
0010
0000
0000
0000
0001
0000
1000
0000
1000
0010
0000
0000
0000
0000
,  // measure 61
0100
0000
0001
0000
0010
0000
0001
0000
1000
0000
1000
0100
0000
0000
0000
0000
,  // measure 62
0010
0000
0100
0000
1000
0000
0000
1000
0000
0000
0010
0000
1000
0000
0000
0000
,  // measure 63
0010
0000
0100
0000
0010
0000
0000
0010
0000
0000
0100
0000
0001
0000
0000
0000
,  // measure 64
1000
0000
0001
0000
0200
0000
0000
0000
0310
0000
0010
1000
0000
0000
0000
0000
,  // measure 65
1000
0000
0001
0000
1000
0000
0100
0000
0010
0000
0010
0001
0000
0000
0000
0000
,  // measure 66
0010
0000
0100
0000
0010
0000
0000
0010
0000
0000
0001
0000
1000
0000
0000
0000
,  // measure 67
0100
0000
1000
0000
0001
0000
0000
0001
0000
0000
0100
0000
0010
0000
0000
0000
,  // measure 68
1000
0000
0001
0000
0000
0000
1000
0000
0010
0000
0010
0100
0000
0000
0000
0000
,  // measure 69
0010
0000
0100
0000
0001
0000
0100
0000
0010
0000
0010
1000
0000
0000
0000
0000
,  // measure 70
0001
0000
1000
0000
0001
0000
0000
0001
0000
0000
0100
0000
0010
0000
0000
0000
,  // measure 71
0100
0000
0010
0000
1000
0000
0000
1000
0000
0000
1000
0000
0100
0000
0000
0000
,  // measure 72
0010
0000
0001
0000
1001
0000
0000
0000
0001
0000
0000
0000
0100
0000
0000
0010
,  // measure 73
0000
0000
1001
0000
0000
0000
1000
0000
0001
0000
0000
0000
1000
0000
0000
0100
,  // measure 74
0000
0000
0000
0000
0011
0000
0000
0000
1000
0000
0000
0000
0010
0000
0000
0100
,  // measure 75
0000
0000
0101
0000
0000
0000
0001
0000
0010
0000
0000
0000
0100
0000
0000
0010
,  // measure 76
0000
0000
0000
0000
1100
0000
0000
0000
0100
0000
0000
0000
0010
0000
0000
0001
,  // measure 77
0000
0000
1001
0000
0000
0000
1000
0000
0100
0000
0000
0000
0010
0000
0000
0100
,  // measure 78
0000
0000
0000
0000
1100
0000
0000
0000
0010
0000
0000
0000
0001
0000
0000
0100
,  // measure 79
0000
0000
1010
0000
0000
0000
1000
0000
0001
0000
0000
0000
0101
0000
0000
1010
,  // measure 80
0000
0000
1000
0100
0010
0001
0010
0100
,  // measure 81
1000
0000
0001
0000
1000
0010
0000
0010
0100
0000
0001
0000
1000
0000
1000
0000
,  // measure 82
0100
0000
0000
0000
;

//---------------dance-single - ----------------
#NOTEDATA:;
#CHARTNAME:;
#STEPSTYPE:dance-single;
#DESCRIPTION:;
#CHARTSTYLE:;
#DIFFICULTY:Medium;
#METER:6;
#RADARVALUES:0.388982,0.486705,0.304190,0.044516,0.033387,367.000000,326.000000,41.000000,6.000000,0.000000,0.000000,0.000000,0.000000,0.000000,0.388982,0.486705,0.304190,0.044516,0.033387,367.000000,326.000000,41.000000,6.000000,0.000000,0.000000,0.000000,0.000000,0.000000;
#CREDIT:;
#NOTES:
0000
0000
0000
0000
,
0000
0000
0000
0000
,
0000
0000
0000
0000
,
0000
0000
0000
0000
,
0000
0001
0001
0100
,
0001
1000
1000
0100
,
1000
0010
0010
1000
,
0001
0010
0010
0100
,
1000
0002
0000
0000
,
0000
0000
0000
1003
,
0100
2000
0000
0000
,
0000
0000
0000
3100
,
1000
0020
0100
0000
,
0100
0000
0100
0000
,
0130
0002
1000
0000
,
1000
0000
1000
0000
,
1003
0000
0001
0000
0100
0000
0010
1000
,
0010
0000
1000
0000
0100
0000
0010
0001
,
0010
0000
0100
0000
1000
0000
0001
1000
,
0001
0000
0100
0000
0010
0000
1000
0010
,
1000
0000
0010
0000
0100
0000
0001
0010
,
0001
0000
0010
0000
0100
0000
1000
0100
,
1000
0000
0010
0000
0100
0000
0001
1000
,
0001
0000
1000
0000
0010
0000
0100
0001
,
0100
0001
0011
0010
,
0011
0001
0011
0010
,
0011
0000
0001
1000
0001
0000
0000
0000
,
0000
0000
1000
0000
0010
0000
0100
0001
,
1000
0010
1010
1000
,
1010
0010
1010
1000
,
1010
0000
1000
0010
0100
0000
0000
0000
,
0000
0000
0001
0000
0010
0000
0100
0100
,
0010
0100
1100
0100
,
0110
0100
1100
0100
,
0110
0000
0010
0001
1000
0000
0000
0000
,
0000
0000
0001
0000
1000
0000
0010
0100
,
0001
0010
0011
0001
,
1001
0001
0011
0001
,
1001
0000
0001
0100
0010
0000
0100
0010
,
1000
0000
0001
0100
0010
1000
0001
0000
,
1000
1001
0001
0100
,
0010
1010
0010
0100
,
0001
0011
0010
0110
,
0100
1100
0011
1001
,
0001
1000
1010
0000
0010
0000
0100
0000
,
0001
0011
0001
1000
,
0010
1010
0010
0101
,
0001
1001
0110
1001
,
0001
1000
1010
0000
0010
0000
0100
0000
,
0001
0011
0001
0100
,
0010
1010
1000
1001
,
0001
0011
0101
1010
,
1000
1001
0001
0100
,
0010
1010
1000
0100
,
1000
1001
0001
0101
,
0001
0020
0000
0000
,
0030
0100
1000
0100
,
0010
0100
1000
0001
,
0100
0001
1000
0000
1000
0000
0100
0000
,
1000
0010
0100
0000
0100
0000
0001
0000
,
1000
0001
0100
0000
0001
0000
0010
0000
,
0001
1000
1000
0100
,
1000
0010
1000
0000
1000
0000
1000
0000
,
0001
0100
0010
0000
0010
0000
0100
0000
,
0001
1000
0020
0000
1000
0000
1030
0000
,
0100
0001
0100
1000
,
0001
1000
0001
0000
0001
0000
0010
0000
,
0100
1000
0100
0000
0100
0000
0010
0000
,
0001
0010
0100
0000
1000
0000
0100
0000
,
1000
0010
1000
0000
0010
0000
0100
0000
,
0001
1000
0001
0000
0001
0000
0010
0000
,
0001
0100
0001
0000
0001
0000
0100
0000
,
0010
0000
1000
0000
0001
0000
0000
0000
1000
0000
0000
0000
0010
0000
0000
0100
,
0000
0000
0001
0000
0000
0000
1000
0000
0100
0000
0000
0000
1000
0000
0000
0010
,
0000
0000
0000
0000
0100
0000
0000
0000
0001
0000
0000
0000
0010
0000
0000
0100
,
0000
0000
1000
0000
0000
0000
0100
0000
1000
0000
0000
0000
0010
0000
0000
0100
,
0000
0000
0000
0000
0001
0000
0000
0000
1000
0000
0000
0000
0010
0000
0000
1000
,
0000
0000
0001
0000
0000
0000
0100
0000
0010
0000
0000
0000
1000
0000
0000
0001
,
0000
0000
0000
0000
0010
0000
0000
0000
0100
0000
0000
0000
1000
0000
0000
0100
,
0000
0000
1000
0000
0000
0000
0001
0000
0100
0000
0000
0000
0010
0000
0000
1000
,
0000
0010
0010
0100
,
0100
0000
0000
0000
0001
0000
0000
0100
0000
0000
0010
0000
1000
0000
0001
0000
,
1000
0000
0000
0000
;

//---------------dance-single - ----------------
#NOTEDATA:;
#CHARTNAME:;
#STEPSTYPE:dance-single;
#DESCRIPTION:;
#CHARTSTYLE:;
#DIFFICULTY:Easy;
#METER:4;
#RADARVALUES:0.244836,0.365029,0.111289,0.059354,0.000000,231.000000,216.000000,15.000000,8.000000,0.000000,0.000000,0.000000,0.000000,0.000000,0.244836,0.365029,0.111289,0.059354,0.000000,231.000000,216.000000,15.000000,8.000000,0.000000,0.000000,0.000000,0.000000,0.000000;
#CREDIT:;
#NOTES:
0000
0000
0000
0000
,
0000
0000
0000
0000
,
0000
0000
0000
0000
,
0000
0000
0000
0000
,
0000
0001
0000
0000
,
0000
1000
0000
0000
,
0000
0001
0000
0000
,
0000
1000
0000
0000
,
0000
0020
0000
0000
,
0000
0000
0000
1030
,
0100
2000
0000
0000
,
0000
0000
0000
3001
,
1000
0020
0000
0000
,
0000
0000
0000
0030
,
0200
0302
0000
0000
,
0000
0000
0000
0000
,
0003
1000
0010
1000
,
0100
1000
0001
1000
,
0000
0001
0100
0001
,
0010
0001
1000
0001
,
0000
1000
0010
0100
,
0010
1000
0001
1000
,
0000
0001
0010
0100
,
0010
0001
1000
0001
,
0000
1000
0010
1000
,
0100
1000
0010
1000
,
0100
1000
0000
0000
,
0000
0100
0010
0100
,
0100
0010
0001
0100
,
0001
0010
0001
0100
,
0001
0010
0010
0000
,
0000
0100
1000
0001
,
0001
1000
0010
1000
,
0100
1000
0010
1000
,
0100
0010
0001
0000
,
0000
0010
0001
1000
,
0001
1000
0001
0010
,
0001
0100
0001
0010
,
0001
1001
0000
0110
,
0000
1001
0110
1001
,
0000
0001
0000
1000
,
0000
0010
1000
0100
,
1000
0001
0000
0010
,
0000
0001
1000
0010
,
0100
0001
0000
1000
,
0000
0100
0010
0100
,
1000
0001
0000
1000
,
0000
1001
0110
1001
,
0001
1000
0000
0100
,
0000
1000
0010
0100
,
0001
0010
0000
0001
,
0000
1001
1001
1001
,
0001
0010
0000
0100
,
0000
0010
0001
0100
,
0010
1000
0000
0100
,
0000
2000
0000
0000
,
3000
0001
0000
1000
,
0000
0010
1000
0010
,
0000
0100
0000
0001
,
0000
0010
0000
0001
,
0000
1000
0000
0100
,
0000
1000
0001
1000
,
0000
0010
0000
0100
,
0000
0001
0010
0001
,
1000
0200
0000
1300
,
0000
0100
1000
0010
,
0100
0001
0000
1000
,
0000
0010
0000
0100
,
0000
0001
0000
1000
,
0000
0010
1000
0010
,
0000
0100
0000
0001
,
0000
1000
0000
0000
,
0000
1001
0001
1000
,
0010
1000
0001
1000
,
1000
1001
0001
1000
,
0010
1000
0100
0010
,
0010
1001
0001
0100
,
0001
0010
0001
1000
,
1000
1001
0001
0010
,
0001
1000
0001
0010
,
0100
2000
0000
0000
,
0000
0000
3001
0000
1000
0000
0001
1000
,
0001
0000
0000
0000
;

//---------------dance-single - ----------------
#NOTEDATA:;
#CHARTNAME:;
#STEPSTYPE:dance-single;
#DESCRIPTION:;
#CHARTSTYLE:;
#DIFFICULTY:Beginner;
#METER:1;
#RADARVALUES:0.116589,0.243352,0.066774,0.007419,0.000000,110.000000,101.000000,9.000000,1.000000,0.000000,0.000000,0.000000,0.000000,0.000000,0.116589,0.243352,0.066774,0.007419,0.000000,110.000000,101.000000,9.000000,1.000000,0.000000,0.000000,0.000000,0.000000,0.000000;
#CREDIT:;
#NOTES:
0000
0000
0000
0000
,
0000
0000
0000
0000
,
0000
0000
0000
0000
,
0000
0000
0000
0000
,
0000
1000
0000
0000
,
0000
0000
0000
0000
,
0000
1000
0000
0000
,
0000
0000
0000
0000
,
0000
0010
0000
0000
,
0000
0000
0000
0100
,
0100
0100
0000
0000
,
0000
0000
0000
0010
,
0010
0010
0000
0000
,
0000
0000
0000
0000
,
0000
1000
0000
0000
,
0000
0000
0000
0000
,
0000
0001
0000
0000
,
0000
1000
0000
0000
,
0000
0001
0000
0000
,
0000
1000
0000
0000
,
0000
0010
0000
0000
,
0000
0100
0000
0000
,
0000
0010
0000
0000
,
0000
0100
0000
0000
,
0000
0001
0000
0000
,
0000
1000
0000
0000
,
0000
0010
0000
0000
,
0000
0100
0000
0100
,
0000
0010
0000
0000
,
0000
1000
0000
0000
,
0000
0001
0000
0000
,
0000
1000
0000
0001
,
0001
1000
0000
0000
,
0000
0010
0000
0000
,
0000
0100
0000
0000
,
0000
0010
0000
0010
,
0000
0010
0000
0000
,
0000
1000
0000
0000
,
0000
0001
0000
1000
,
0000
0001
1000
1001
,
0000
0010
0000
0000
,
0000
0100
0000
0000
,
0000
0001
0000
1000
,
0000
0010
0010
0010
,
0000
0100
0000
0000
,
0000
0010
0000
0000
,
0000
1000
0000
0001
,
0000
0100
0010
1001
,
0000
1000
0000
0000
,
0000
0010
0000
0000
,
0000
0100
0000
0010
,
0000
1000
1000
1000
,
0000
0001
0000
0000
,
0000
0100
0000
0000
,
0000
0010
0000
0100
,
0000
1001
0000
0000
,
0000
0001
0000
0000
,
0000
1000
0000
0000
,
0000
0010
0000
0000
,
0000
0100
0000
0000
,
0000
0001
0000
0000
,
0000
1000
0000
0000
,
0000
0100
0000
0000
,
0000
1000
0000
0000
,
0000
1001
0000
0000
,
0000
0001
0000
0000
,
0000
0100
0000
0000
,
0000
0010
0000
0000
,
0000
0100
0000
0000
,
0000
0010
0000
0000
,
0000
1000
0000
0000
,
0000
0001
0000
0000
,
0000
1001
0000
1000
,
0000
0000
0001
0001
,
0000
1001
0000
0001
,
0000
0000
0000
1000
,
1000
1001
0000
0010
,
0000
0000
0100
0100
,
0100
1001
0000
0110
,
0000
0100
0000
0010
,
0000
0200
0000
0000
,
0000
0000
0000
0000
,
0300
0000
0000
0000
;
