#TITLE:Clarity;
#SUBTITLE:;
#ARTIST:Zedd ft. Foxes;
#TITLETRANSLIT:;
#SUBTITLETRANSLIT:;
#ARTISTTRANSLIT:;
#GENRE:;
#CREDIT:;
#BANNER:Clarity.png;
#BACKGROUND:Clarity-bg.png;
#LYRICSPATH:;
#CDTITLE:;
#MUSIC:Clarity.ogg;
#OFFSET:-2.030000;
#SAMPLESTART:100.040474;
#SAMPLELENGTH:14.540020;
#SELECTABLE:YES;
#BPMS:0.000000=128.000000
;
#STOPS:
;
#BGCHANGES:;
#KEYSOUNDS:;
#ATTACKS:;

//---------------dance-single - ----------------
#NOTES:
     dance-single:
     :
     Medium:
     4:
     0.259943,0.377360,0.118156,0.196926,0.000000,231.000000,216.000000,15.000000,25.000000,0.000000,0.000000,0.259943,0.377360,0.118156,0.196926,0.000000,231.000000,216.000000,15.000000,25.000000,0.000000,0.000000:
0000
0000
0000
0000
,
0000
0000
0000
0000
,
0000
0000
0000
0000
,
0000
0000
0000
0000
,
0000
0001
0100
0000
,
1000
0100
0010
0000
,
1000
0100
0010
0100
,
0010
0001
1000
0001
,
0000
1000
0010
0000
,
0001
0010
0100
0000
,
0001
0010
0100
0010
,
0100
1000
0001
1000
,
0000
0010
0100
0000
,
1000
0100
0010
0000
,
1000
0100
0010
0100
,
0010
0001
1000
0001
,
0000
0100
0010
0000
,
0001
0010
0100
0000
,
0001
0010
0100
0010
,
0100
1000
0001
1000
,
0002
0100
0100
0000
,
2003
0010
0010
0000
,
3002
0100
0203
0000
,
0320
1000
1000
0000
,
0230
0001
0001
0000
,
0320
1000
1000
0000
,
0230
0001
0302
1000
,
2003
0010
0010
0000
,
3000
0000
0002
0000
0023
0000
0000
1000
,
0000
0230
0000
2300
,
3002
0203
0010
1000
,
0010
0001
0010
0301
,
0000
0000
2000
0000
3200
0000
0000
0001
,
0000
0320
0000
0032
,
2003
3020
0100
0001
,
0100
1000
0130
0110
,
1000
1000
1000
1000
,
0001
0001
0001
0001
,
0010
0010
0020
0100
,
1000
0100
0001
0100
,
0031
0001
0001
0001
,
1000
1000
1000
1000
,
0010
0010
0020
0100
,
0001
0100
1000
0100
,
1030
0100
0010
0001
,
0010
0100
0010
0001
,
1000
0010
0200
0010
,
1000
0010
0001
0010
,
0301
0010
0100
1000
,
0100
0010
0100
1000
,
0001
0100
0010
1000
,
0001
0100
0110
0110
,
0010
1000
0100
0010
,
0100
1000
0001
1000
,
0001
0100
0101
1010
,
0101
1010
0101
0110
,
0100
0001
0010
0100
,
0010
0001
1000
0001
,
1000
0010
1010
0101
,
1010
0101
1010
0110
,
0010
0010
0010
0010
,
0010
0010
0010
0010
,
0010
0100
0001
1000
,
0001
0000
0010
0000
0100
0000
1000
1000
;

//---------------dance-single - ----------------
#NOTES:
     dance-single:
     :
     Easy:
     3:
     0.207054,0.276189,0.015754,0.220558,0.000000,184.000000,182.000000,2.000000,28.000000,0.000000,0.000000,0.207054,0.276189,0.015754,0.220558,0.000000,184.000000,182.000000,2.000000,28.000000,0.000000,0.000000:
0000
0000
0000
0000
,
0000
0000
0000
0000
,
0000
0000
0000
0000
,
0000
0000
0000
0000
,
0000
1000
1000
0000
,
0001
0100
0010
0000
,
0100
0001
1000
0100
,
0010
0000
0000
0000
,
0000
0001
0001
0000
,
1000
0010
0100
0000
,
0010
1000
0001
0010
,
0100
0000
0000
0000
,
0000
0010
0010
0000
,
0100
1000
0001
0000
,
1000
0010
0100
0010
,
1000
0000
0000
0000
,
0000
0100
0100
0000
,
0010
0001
1000
0000
,
0001
0100
0010
0100
,
0001
0000
0000
0000
,
2000
0000
0000
0000
0000
0000
0000
3200
,
0000
0000
0000
0000
0000
0000
0000
0320
,
0000
0000
0000
0230
0000
0000
0000
2300
,
0000
0000
0000
0000
,
3002
0000
0000
0000
0000
0000
0000
0203
,
0000
0000
0000
0000
0000
0000
0000
0320
,
0000
0000
0000
0230
0000
0000
0000
0302
,
0000
0000
0000
0000
,
0003
0000
1000
0000
0100
0000
0000
0010
,
0000
0100
0000
0010
,
0001
0100
0010
0010
,
0100
0100
0010
1000
,
0000
0000
0001
0000
0010
0000
0000
0100
,
0000
0010
0000
0100
,
1000
0010
0100
0100
,
0010
0010
1000
0001
,
2000
0100
0100
0100
,
3200
0010
0010
0010
,
0320
0001
0130
0100
,
0010
0010
0001
1000
,
0002
0100
0100
0100
,
0203
0010
0010
0010
,
0320
1000
0130
0100
,
0010
0010
1000
0001
,
1000
0100
0010
0001
,
0001
0010
0100
1000
,
1000
0001
0100
0100
,
0010
0010
1000
0001
,
1000
0010
0100
0001
,
0001
0100
0010
1000
,
1000
0001
1000
0001
,
1000
0001
1001
1001
,
0000
0000
2000
0000
3200
0000
0000
0001
,
0000
0320
0000
0032
,
2003
3020
0100
0001
,
0100
1000
0100
1030
,
0000
0000
0002
0000
0023
0000
0000
1000
,
0000
0230
0000
2300
,
3002
0203
0010
1000
,
0010
0001
0010
0301
,
0001
0001
0001
0001
,
0001
0001
0001
0001
,
0001
0010
0100
1000
,
0001
0010
0100
1000
;

//---------------dance-single - ----------------
#NOTES:
     dance-single:
     :
     Hard:
     7:
     0.423110,0.506101,0.433238,0.307205,0.007877,376.000000,321.000000,55.000000,39.000000,0.000000,0.000000,0.423110,0.506101,0.433238,0.307205,0.007877,376.000000,321.000000,55.000000,39.000000,0.000000,0.000000:
// measure 0
0000
0000
0000
0000
,  // measure 1
0000
0000
0000
0000
,  // measure 2
0000
0000
0000
0000
,  // measure 3
0000
0000
0000
0000
,  // measure 4
0000
0000
0001
0000
0100
0000
1000
0100
,  // measure 5
0001
0000
0010
0000
0100
0000
0001
0100
,  // measure 6
1000
0000
0001
0000
0100
0000
0010
0200
,  // measure 7
0000
0001
0000
1000
0000
0301
0000
0000
,  // measure 8
0000
0000
1000
0000
0100
0000
0001
0100
,  // measure 9
1000
0000
0010
0000
0100
0000
1000
0100
,  // measure 10
0001
0000
1000
0000
0100
0000
0010
0200
,  // measure 11
0000
1000
0000
0001
0000
1300
0000
0000
,  // measure 12
0002
0000
1000
0000
1000
0000
1003
0002
,  // measure 13
0100
0000
0100
0000
0100
0000
0103
0002
,  // measure 14
0010
0000
0013
0002
1000
0000
1003
0002
,  // measure 15
0000
1000
0000
0100
0000
1000
0000
1000
,  // measure 16
2003
0000
0001
0000
0001
0000
3001
2000
,  // measure 17
0010
0000
0010
0000
0010
0000
3010
2000
,  // measure 18
0100
0000
3100
2000
0001
0000
3001
2000
,  // measure 19
0000
0001
0000
0010
0000
0001
0000
0001
,  // measure 20
3001
1000
0010
0000
1010
0000
1000
0010
,  // measure 21
0100
0110
2010
0001
,  // measure 22
3100
0000
1100
0000
0110
0000
0010
0100
,  // measure 23
1000
1100
1002
0100
,  // measure 24
0013
0000
0011
0000
1001
0000
0001
1000
,  // measure 25
0010
1010
2100
0001
,  // measure 26
3010
0000
1010
0000
0110
0000
0100
0010
,  // measure 27
1000
1010
1002
0010
,  // measure 28
0103
0001
1000
0000
0001
0010
0100
0001
,  // measure 29
0100
0010
0001
0000
1000
0000
0010
0000
,  // measure 30
0001
0010
1000
0000
0002
0000
0023
0000
,  // measure 31
2030
0000
3200
0000
0301
0100
0001
0000
,  // measure 32
1000
0100
0010
0100
0001
0100
0010
0001
,  // measure 33
0010
0001
0100
0001
1000
0001
0100
0010
,  // measure 34
0001
0010
0100
0001
0010
0100
0010
1000
,  // measure 35
0010
0100
0010
0001
1000
0001
1000
0001
,  // measure 36
1001
1001
1001
1001
,  // measure 37
0101
0101
0101
0101
,  // measure 38
0110
0110
0002
0023
,  // measure 39
2030
0000
3200
0000
0301
0100
0001
0000
,  // measure 40
1001
1001
1001
1001
,  // measure 41
1100
1100
1100
1100
,  // measure 42
0110
0110
2000
3020
,  // measure 43
0032
0000
0203
0000
1300
0100
1000
0000
,  // measure 44
1001
0000
1001
0000
1001
0000
1001
0001
,  // measure 45
0101
0000
0101
0000
0101
0000
0101
0100
,  // measure 46
0110
0000
0110
0100
0002
0000
0023
0000
,  // measure 47
2030
0000
3200
0000
0301
0100
0001
0000
,  // measure 48
1001
0000
1001
0000
1001
0000
1001
1000
,  // measure 49
1100
0000
1100
0000
1100
0000
1100
0100
,  // measure 50
0110
0100
0000
1000
0000
0010
0000
0001
,  // measure 51
0000
0100
0000
1000
0100
0000
1100
0000
,  // measure 52
0001
0100
0010
0000
0001
0010
0100
1000
,  // measure 53
0100
0010
1000
0000
0100
0000
0001
0000
,  // measure 54
0100
1000
0001
0000
2000
0000
3020
0000
,  // measure 55
0032
0000
0203
0000
1300
0100
1000
0000
,  // measure 56
0001
0100
0010
0100
1000
0100
0010
0100
,  // measure 57
1000
0100
0001
0100
0010
0001
0010
0100
,  // measure 58
0001
0001
0010
0010
1000
1000
0100
0100
,  // measure 59
0001
0000
0001
0000
1000
0000
1000
0000
0001
1000
0001
1000
0002
0000
0000
0000
,  // measure 60
1000
1000
1000
1000
,  // measure 61
1003
0001
1000
0010
0100
0010
1000
0010
,  // measure 62
0100
0001
0100
0010
0100
0001
1000
0100
,  // measure 63
0010
0100
1000
0010
0001
0100
2000
0002
,  // measure 64
0000
3003
0000
0000
;
