#TITLE:Brainfog;
#SUBTITLE:;
#ARTIST:Static-X;
#TITLETRANSLIT:;
#SUBTITLETRANSLIT:;
#ARTISTTRANSLIT:;
#GENRE:;
#CREDIT:;
#BANNER:Brainfog.png;
#BACKGROUND:Brainfog-bg.png;
#LYRICSPATH:;
#CDTITLE:;
#MUSIC:Brainfog.ogg;
#OFFSET:0.236000;
#SAMPLESTART:50.717976;
#SAMPLELENGTH:12.000000;
#SELECTABLE:YES;
#BPMS:0.000000=150.679993
,232.000000=75.339996
,249.000000=150.679993
;
#STOPS:232.000000=0.796000
;
#BGCHANGES:;
#KEYSOUNDS:;
#ATTACKS:;

//---------------dance-single - ----------------
#NOTES:
     dance-single:
     :
     Hard:
     9:
     0.659531,0.682718,0.602181,0.028675,0.774232,644.000000,560.000000,84.000000,4.000000,0.000000,0.000000,0.659531,0.682718,0.602181,0.028675,0.774232,644.000000,560.000000,84.000000,4.000000,0.000000,0.000000:
// measure 0
0000
0000
0000
0000
,  // measure 1
2002
0000
0000
0000
,  // measure 2
0000
0000
0000
0000
,  // measure 3
0000
0000
0000
0000
,  // measure 4
0000
3003
0000
0000
,  // measure 5
1000
0000
0001
0000
0100
0001
0000
0100
0000
0000
0010
0000
1000
0000
0100
0000
,  // measure 6
0010
0000
0001
0000
0010
0001
0000
0010
0000
0000
0001
0000
1000
0000
0010
0000
,  // measure 7
0100
0000
0001
0000
1000
0100
0000
1000
0000
0000
0100
0000
1000
0000
0010
0000
,  // measure 8
0100
0000
0001
0000
0010
0100
0000
0010
0000
0000
0100
0000
1000
0000
0001
0000
,  // measure 9
0011
0000
0001
0000
1000
0001
0000
0100
0000
0000
0001
0000
1000
0000
0100
0000
,  // measure 10
0110
0000
0000
0011
0000
0000
1001
0000
,  // measure 11
0110
0000
0100
0000
0010
1000
0000
0010
0000
0000
0100
0000
0001
0000
1000
0000
,  // measure 12
1001
1001
0000
1100
0000
0110
0110
0000
,  // measure 13
0011
0000
0010
0000
0100
1000
0000
0100
0000
0000
0010
0000
0100
0000
1000
0000
,  // measure 14
1010
0000
0000
0110
0000
0000
0101
0000
,  // measure 15
1001
0000
1000
0000
0001
0010
0000
0100
0000
0000
1000
0000
0100
0000
0010
0000
,  // measure 16
0011
0011
0000
0110
0000
1001
1001
0000
,  // measure 17
1001
0000
0000
1100
0000
0000
0110
0000
0000
0011
0000
0000
1001
0000
0000
0000
,  // measure 18
0000
0000
1001
0000
0000
1010
0000
0000
0110
0000
0000
0101
0000
0000
0000
0000
,  // measure 19
0101
0000
0000
1001
0000
0000
0110
0000
0000
1100
0000
0000
1010
0000
0000
0000
,  // measure 20
0000
0000
1010
0000
0000
0110
0000
0000
0101
0000
0000
1001
0000
0000
0000
0000
,  // measure 21
1100
0000
0000
0110
0000
0000
0011
0000
0000
0101
0000
0000
1001
0000
0000
0000
,  // measure 22
1010
0000
0000
0110
0000
0000
1001
0000
0000
0011
0000
0000
1100
0000
0000
0000
,  // measure 23
1000
0010
1000
0010
0000
0000
0100
0001
0100
0001
0000
0000
1000
0001
1000
0001
,  // measure 24
0010
0001
1000
0100
0010
0100
1000
0000
0100
0010
0000
0001
,  // measure 25
1000
0000
0010
0100
0010
1000
0001
0000
0000
0100
0000
0001
,  // measure 26
1000
0100
0010
0100
1000
0001
0010
0000
0001
1000
0000
0010
,  // measure 27
0100
0000
0010
1000
0010
0100
0001
0000
0000
1000
0000
1000
,  // measure 28
0100
0010
0001
0010
0100
1000
0100
0000
0010
0001
0000
0010
,  // measure 29
0100
0000
1000
0001
0100
0010
0100
0000
0000
0001
0000
0010
,  // measure 30
0001
0100
0010
1000
0100
0010
0100
0000
1000
0100
0000
0010
,  // measure 31
0001
0000
1000
0001
1000
0001
0100
0000
0000
0010
0000
0100
,  // measure 32
0001
0000
0000
0011
0000
0000
0110
0000
0000
1010
0000
0000
1001
0000
0000
0000
,  // measure 33
0000
0000
1001
0000
0000
1010
0000
0000
0110
0000
0000
0101
0000
0000
0000
0000
,  // measure 34
0101
0000
0000
1001
0000
0000
1100
0000
0000
0110
0000
0000
0011
0000
0000
0000
,  // measure 35
0010
0001
0010
0001
0000
0000
1000
0100
1000
0100
0000
0000
1000
0001
1000
0000
,  // measure 36
1001
0000
0000
1010
0000
0000
0110
0000
0000
0101
0000
0000
0011
0000
0000
0000
,  // measure 37
0000
0000
0110
0000
0000
1100
0000
0000
1010
0000
0000
0101
0000
0000
0000
0000
,  // measure 38
1010
0000
0000
0101
0000
0000
0011
0000
0000
1100
0000
0000
1010
0000
0000
0000
,  // measure 39
1000
0010
1000
0010
0000
0000
0100
0001
0100
0001
0000
0000
1000
0001
1000
0000
,  // measure 40
1001
0000
0000
0101
0000
0000
1010
0000
0000
0110
0000
0000
0011
0000
0000
0000
,  // measure 41
0010
0001
0010
0001
0000
0000
0010
0100
0010
0100
0000
0000
1000
0001
1000
0001
,  // measure 42
1000
0001
1000
0000
0001
1000
0001
0000
1000
0001
1000
0000
,  // measure 43
1001
0000
1000
0001
1000
0001
1000
0000
0000
0010
0000
1000
,  // measure 44
0010
0000
0100
0001
0000
0010
0100
0000
0000
0010
0000
0000
,  // measure 45
0001
0000
0010
0001
0010
0001
0010
0000
0000
0001
0000
1000
,  // measure 46
0010
0000
0100
0010
0000
1000
0001
0000
0000
1000
0000
0000
,  // measure 47
0100
0000
1000
0100
1000
0100
1000
0000
0000
0100
0000
0010
,  // measure 48
0001
0000
1000
0010
0000
0100
0001
0000
0000
1000
0000
0000
,  // measure 49
0001
0000
1000
0001
1000
0001
1000
0000
0000
0010
0000
0100
,  // measure 50
0010
0000
0000
0000
1000
0000
0001
0000
0000
0000
1000
0000
0200
0000
0000
0000
0000
0000
0000
0000
0000
0310
0000
0000
,  // measure 51
0110
0000
0000
0010
0001
0000
0000
1000
0001
0000
0000
0100
0010
0000
0000
1000
,  // measure 52
0010
0000
0000
0100
0001
0000
0000
1000
0001
0000
0000
0010
0100
0000
0000
1000
,  // measure 53
0100
0000
0000
0010
0001
0000
0000
1000
0010
0000
0000
0100
0001
0000
0000
1000
,  // measure 54
0100
0000
0000
0010
0100
0000
0000
1000
0010
0000
0000
0100
0010
0000
0000
1000
,  // measure 55
0010
1000
0001
0100
0001
0010
0100
1000
,  // measure 56
0100
0010
0100
1000
0001
0010
0001
1000
,  // measure 57
0010
0010
1000
0001
0000
0100
0001
1000
,  // measure 58
0000
0000
0000
0000
,  // measure 59
0000
0000
0000
0000
,  // measure 60
0000
0000
0002
1003
0000
0000
0000
0000
,  // measure 61
0000
0000
0000
0000
,  // measure 62
0000
0000
0000
1000
1000
0000
0000
0001
1000
0000
0000
0010
0100
0000
0000
0010
,  // measure 63
1000
0000
0000
0001
0010
0000
0000
0100
1000
0000
0000
0100
0010
0000
0000
0001
,  // measure 64
1000
0000
0010
0000
0100
0000
0000
0001
1000
0000
0000
0001
0010
0000
0000
0100
,  // measure 65
1000
0000
0000
0100
0010
0000
0000
0001
1000
0000
0000
0010
0100
0000
0000
0010
,  // measure 66
1000
0000
0010
0000
0100
0000
0000
0001
1000
0000
0000
0100
0010
0000
0000
0100
,  // measure 67
1000
0000
0000
0010
0100
0000
0000
0001
1000
0000
0000
0001
0010
0000
0000
0100
,  // measure 68
1000
0000
0100
0000
0010
0000
0000
0001
0010
0000
0000
0100
1000
0000
0000
0010
,  // measure 69
0100
0000
0000
0010
1000
0000
0000
0001
0100
0000
0000
0001
0010
0000
0000
0100
,  // measure 70
1000
0000
0100
0000
0010
0000
0001
0000
0010
0001
0000
1000
0000
0010
0100
0000
,  // measure 71
0010
0000
1000
0000
0001
0000
0100
0000
0001
0010
0000
0100
0000
1000
0100
0000
,  // measure 72
0010
0000
0001
0000
1000
0000
0010
0000
0100
0010
0000
1000
0000
0001
0100
0000
,  // measure 73
0001
0000
0010
0000
0100
0000
1000
0000
0100
0010
0000
0001
0000
1000
0010
0000
,  // measure 74
0100
0000
0010
0000
1000
0000
0001
0000
0100
0001
0000
0010
0000
0100
1000
0000
,  // measure 75
0100
0000
0010
0000
0001
0000
1000
0000
0010
1000
0000
0010
0000
0100
0001
0000
,  // measure 76
0010
0000
0100
0000
1000
0000
0100
0000
0010
0001
0000
1000
0000
0010
0100
0000
,  // measure 77
0010
0000
1000
0000
0001
0000
0100
0000
0001
0010
0000
0100
0000
1000
0001
0000
,  // measure 78
0100
0000
0010
0000
1000
0000
0010
0000
0100
0001
0000
1000
0000
0100
0010
0000
,  // measure 79
0100
0000
1000
0000
0010
0000
0100
0000
0001
1000
0000
0100
0000
0010
0100
0000
,  // measure 80
1000
0000
0001
0000
0100
0000
0010
0000
1000
0010
0000
0100
0000
0001
0010
0000
,  // measure 81
0100
0000
1000
0000
0100
0000
0010
0000
0001
1000
0000
0010
0000
0100
0001
0000
,  // measure 82
1000
0000
0001
0000
0010
0000
0010
0000
0100
0000
1000
0000
0000
1001
0000
0000
;

//---------------dance-single - ----------------
#NOTES:
     dance-single:
     :
     Beginner:
     2:
     0.186389,0.236571,0.121870,0.000000,0.000000,182.000000,165.000000,17.000000,0.000000,0.000000,0.000000,0.186389,0.236571,0.121870,0.000000,0.000000,182.000000,165.000000,17.000000,0.000000,0.000000,0.000000:
0000
0000
0000
0000
,
0000
0000
0000
0000
,
0000
0000
0000
0000
,
0000
0000
0000
0000
,
0000
0000
0000
0000
,
0010
0000
0010
0000
,
0100
0000
0100
0000
,
0001
0000
0001
0000
,
1000
0000
1000
0000
,
1001
0000
0100
0000
,
0110
0000
0010
0000
,
1001
0000
0100
0000
,
1001
0000
0010
0000
,
0110
0000
0100
0000
,
1001
0000
0100
0000
,
0110
0000
0010
0000
,
1001
0000
0100
0000
,
1001
0000
1000
0000
,
1000
0000
0001
0000
,
0001
0000
0010
0000
,
0010
0000
0100
0000
,
0100
0000
1000
0000
,
1000
0000
0001
0000
,
0001
0001
0001
0001
,
0001
0000
0001
0000
,
1000
0000
1000
0000
,
0010
0000
0010
0000
,
0100
0000
0100
0000
,
0001
0000
0001
0000
,
1000
0000
1000
0000
,
0010
0000
0010
0000
,
0100
0000
0010
0000
,
0100
0100
0100
0000
,
0001
0001
0001
0000
,
1000
1000
1000
0000
,
0010
0010
0010
0010
,
0010
0010
0010
0000
,
0100
0100
0100
0000
,
0001
0001
0001
0000
,
1000
1000
1000
1000
,
1000
1000
1000
0000
,
0001
0001
0001
0001
,
0001
0000
0000
0000
,
0100
0000
0110
0000
,
1000
0000
1001
0000
,
0001
0000
0110
0000
,
0100
0000
1001
0000
,
1000
0000
0110
0000
,
0010
0000
0110
0000
,
0001
0000
1001
0000
,
1000
0000
1001
0000
,
0100
0000
0100
0000
,
0010
0000
0010
0000
,
1000
0000
1000
0000
,
0001
0000
0001
0000
,
0100
0100
0100
0100
,
0000
0010
0010
0010
,
0000
0100
0100
0000
,
0000
0000
0000
0000
,
0000
0000
0000
0000
,
0000
0000
0000
0000
,
0000
0000
0000
0000
,
0000
0100
0000
0100
,
0000
0010
0000
0010
,
0000
1000
0000
1000
,
0000
0001
0000
0001
,
0000
0100
0000
0100
,
0000
0001
0000
0001
,
0000
1000
0000
1000
,
0000
0010
0000
0010
,
0000
0100
0000
0100
,
0000
0010
0000
0010
,
0000
1000
0000
1000
,
0000
0001
0000
0001
,
0000
0100
0000
0100
,
0000
0010
0000
0010
,
0000
1000
0000
1000
,
0000
0001
0000
0001
,
0000
0100
0000
0001
,
0000
1000
0000
0010
,
0000
1000
0000
0100
,
0000
1000
0000
0001
,
0000
0010
0010
0000
;

//---------------dance-single - ----------------
#NOTES:
     dance-single:
     :
     Easy:
     5:
     0.311332,0.445251,0.114701,0.000000,0.014338,304.000000,288.000000,16.000000,0.000000,0.000000,0.000000,0.311332,0.445251,0.114701,0.000000,0.014338,304.000000,288.000000,16.000000,0.000000,0.000000,0.000000:
0000
0000
0000
0000
,
0000
0000
0000
0000
,
0000
0000
0000
0000
,
0000
0000
0000
0000
,
0000
0000
0000
0000
,
0100
0010
1000
0001
,
0100
0001
0010
0100
,
0010
0001
1000
0010
,
0100
0010
1000
0001
,
0100
0001
1000
0100
,
0010
0000
0000
0100
0000
0000
1000
0000
,
0100
0010
0001
0100
,
0001
0100
0000
0010
0000
1000
0010
0000
,
1000
0001
0100
0001
,
1000
0000
0000
0100
0000
0000
0010
0000
,
0001
0100
0001
0010
,
0100
0010
0000
0001
0000
0010
0001
0000
,
1000
0010
0100
0010
,
1000
0001
0100
0001
,
0010
0100
1000
0100
,
0010
0001
1000
0010
,
0100
0001
1000
0100
,
1000
0010
0100
0001
,
1000
0001
0000
1000
0001
0000
1000
0001
,
1000
0010
0100
0001
,
0010
0100
1100
0000
,
0100
1000
0001
0100
,
0001
0010
0011
0000
,
0010
0001
1000
0010
,
0100
0001
1001
0000
,
1000
0100
1000
0010
,
0100
0001
0101
0000
,
0001
0100
0010
1000
,
0100
1000
0001
0100
,
0001
0010
0100
1000
,
0001
1000
0000
0001
1000
0000
0001
1000
,
0001
1000
0010
0100
,
0010
1000
0100
1000
,
0001
0010
0100
0010
,
0001
0010
0000
0100
1000
0000
0100
0010
,
0100
0010
0001
1000
,
0010
1000
0000
0001
0100
0000
0001
0000
,
1000
0000
0000
0000
0001
0000
0000
0000
1000
0000
0000
0000
,
0001
1000
0010
0100
,
0001
1000
1001
0000
,
0001
0010
0100
1000
,
0100
0010
0011
0000
,
0001
1000
0010
1000
,
0010
0100
0101
0000
,
0001
1000
0100
1000
,
0010
1000
1010
0000
,
0010
1000
0001
0100
,
0001
0010
0100
1000
,
0001
0100
0010
1000
,
0001
0010
0100
1000
,
0000
0001
1000
0001
1000
0001
1000
0001
,
0000
0100
0010
0100
0010
0100
0010
0000
,
1000
0001
1000
0001
0000
0100
0010
0100
,
0000
0000
0000
0000
,
0000
0000
0000
0000
,
0000
0000
0000
0000
,
0000
0000
0000
0000
,
0000
0000
0000
0100
0100
0000
0000
0000
0000
0000
0000
0000
0110
0000
0000
0000
,
0000
1000
0000
1001
,
0000
0001
0000
0101
,
0000
0010
0000
0110
,
0000
1000
0000
1010
,
0000
0100
0000
0110
,
0000
0001
0000
0011
,
0000
1000
0000
1001
,
0000
0001
0100
0010
,
1000
0100
1000
0001
,
0010
0100
1000
0010
,
0100
0001
1000
0100
,
1000
0001
0010
0100
,
1000
0010
0100
0001
,
0010
0100
1000
0001
,
0100
0001
0010
0100
,
0010
0001
1000
0010
,
0100
0001
1000
0100
,
1000
0010
0100
0001
,
1000
0001
0010
0100
,
1000
0000
0000
0000
0001
0000
1000
0000
0001
0000
1000
0000
0000
0001
0000
0000
;

//---------------dance-single - ----------------
#NOTES:
     dance-single:
     :
     Medium:
     7:
     0.440370,0.504618,0.093195,0.000000,0.193558,430.000000,417.000000,13.000000,0.000000,0.000000,0.000000,0.440370,0.504618,0.093195,0.000000,0.193558,430.000000,417.000000,13.000000,0.000000,0.000000,0.000000:
0000
0000
0000
0000
,
0000
0000
0000
0000
,
0000
0000
0000
0000
,
0000
0000
0000
0000
,
0000
0000
0000
0000
,
1000
0000
0001
0000
0100
0000
0000
0010
0000
0000
1000
0000
0010
0000
0000
0000
,
0100
0000
0001
0000
1000
0000
0000
0100
0000
0000
1000
0000
0100
0000
0000
0000
,
0010
0000
0001
0000
1000
0000
0000
0001
0000
0000
1000
0000
0010
0000
0000
0000
,
1000
0000
0010
0000
0100
0000
0000
0001
0000
0000
1000
0000
0001
0000
0000
0000
,
0110
0000
0000
0000
0010
0000
0000
0001
0000
0000
1000
0000
0010
0000
0000
0000
,
0100
0000
0000
0010
0000
0000
1000
0000
,
0001
0000
0000
0000
1000
0000
0000
0001
0000
0000
0100
0000
0010
0000
1000
0000
,
0100
1000
0000
0100
0000
0010
0001
0000
,
1000
0000
0000
0000
0001
0000
0000
1000
0000
0000
0010
0000
0100
0000
0001
0000
,
1000
0000
0000
0100
0000
0000
1000
0000
,
0010
0000
0000
0000
1000
0000
0000
0010
0000
0000
0100
0000
0001
0000
1000
0000
,
0100
0100
0000
1000
0000
0100
0010
0000
,
0001
0010
0001
1000
0100
0010
0100
0000
,
1000
0010
0100
0010
1000
0001
0100
0000
,
0001
1000
0100
0010
0100
1000
0001
0000
,
0100
0001
1000
0100
0010
0100
1000
0000
,
0010
1000
0001
0100
0001
0010
0100
0000
,
0010
0100
1000
0001
0100
0001
1000
0000
,
0001
0000
0000
1000
0000
0000
0010
0000
0000
0100
0000
0000
0010
0000
0000
0000
,
1000
0010
1010
0100
,
0001
0000
0100
0001
0000
1000
0010
0000
0000
0100
0000
0000
,
0001
0100
0101
0001
,
0010
0000
0100
1000
0000
0100
0010
0000
0000
0001
0000
0000
,
1000
0001
1001
1000
,
0010
0000
1000
0010
0000
0100
0001
0000
0000
1000
0000
0000
,
0100
0010
0011
0010
,
0100
0000
1000
0010
0000
0100
0001
0000
0000
1000
0000
0000
,
0001
1000
0010
0100
0001
1000
0100
0000
,
1000
0100
0010
0001
1000
0010
0100
0000
,
0010
1000
0001
0100
0001
0010
0100
0000
,
1000
0000
0000
0100
0000
0000
0010
0000
0000
0001
0000
0000
1000
0000
0000
0000
,
0001
0100
0010
1000
0100
0010
0001
0000
,
1000
0010
0100
0001
1000
0100
1000
0000
,
0100
1000
0010
0100
0010
1000
0001
0000
,
0010
0000
0000
0100
0000
0000
1000
0000
0000
0001
0000
0000
0100
0000
0000
0000
,
0001
1000
0100
0010
0100
1000
0010
0000
,
0100
0000
0000
0010
0000
0000
1000
0000
0000
0001
0000
0000
0100
0000
0000
0000
,
0001
0000
0100
0000
0001
0000
1000
0000
0010
0000
0100
0000
,
0001
0000
0000
0100
0000
0010
1000
0000
0000
0100
0000
0000
,
0010
0000
0001
0010
0000
0100
1000
0000
0000
0010
0000
0000
,
0100
0000
0000
0001
0000
1000
0100
0000
0000
0010
0000
0000
,
0001
0000
1000
0010
0000
0100
0001
0000
0000
1000
0000
0000
,
0100
0000
0000
0010
0000
0001
0010
0000
0000
0100
0000
0000
,
1000
0000
0010
1000
0000
0001
0100
0000
0000
0001
0000
0000
,
1000
0000
0000
0100
0000
1000
0100
0000
0000
0010
0000
0000
,
0001
0000
0000
0000
1000
0000
0010
0000
0000
0000
0100
0000
0001
0000
0000
0000
0000
0000
0000
0000
0000
1000
0000
0000
,
0001
0100
0010
1000
,
0100
0010
0001
1000
,
0010
1000
0001
0100
,
0001
0010
0100
1000
,
0100
0010
0001
1000
0010
0100
0001
1000
,
0100
1000
0100
0010
0001
1000
0010
0100
,
0001
1000
0001
0010
0000
0100
1000
0001
,
0000
0000
0000
0000
,
0000
0000
0000
0000
,
0000
0000
0000
0000
,
0000
0000
0000
0000
,
0000
0000
0000
0001
1000
0000
0000
0000
0100
0000
0000
0000
0110
0000
0000
0000
,
0010
0001
1000
1001
,
0001
0100
0010
0000
1000
0000
1010
0000
,
0010
1000
0001
0101
,
0001
0010
0100
0000
0010
0000
0110
0000
,
0100
0010
0001
1001
,
1000
0010
0100
0000
0001
0000
0101
0000
,
0001
1000
0100
0110
,
0010
0000
0001
0000
1000
0000
0000
0000
0001
0000
0000
0100
0000
0000
0010
0000
,
1000
0000
0100
0000
0010
0000
0000
0000
0001
0000
0000
0010
0000
0000
0100
0000
,
1000
0000
0010
0000
0100
0000
0000
0000
0001
0000
0000
1000
0000
0000
0100
0000
,
0010
0000
0001
0000
1000
0000
0000
0000
0010
0000
0000
1000
0000
0000
0001
0000
,
0100
0000
0001
0000
0010
0000
0000
0000
0100
0000
0000
0010
0000
0000
0001
0000
,
1000
0000
0010
0000
0100
0000
0000
0000
0010
0000
0000
1000
0000
0000
0001
0000
,
0100
0000
0001
0000
0010
0000
0000
0000
0100
0000
0000
1000
0000
0000
0010
0000
,
1000
0000
0001
0000
0100
0000
0000
0000
0001
0000
0000
1000
0000
0000
0100
0000
,
0010
0000
0001
0000
1000
0000
0000
0000
0010
0000
0000
1000
0000
0000
0001
0000
,
0100
0000
0001
0000
0010
0000
0000
0000
0100
0000
0000
1000
0000
0000
0100
0000
,
0010
0000
0001
0000
1000
0000
0000
0000
0010
0000
0000
1000
0000
0000
0001
0000
,
0100
0000
0001
0000
1000
0000
0000
0000
0100
0000
0000
0010
0000
0000
0001
0000
,
1000
0000
0010
0000
0100
0000
0100
0000
0100
0000
0010
0000
0000
1000
0000
0000
;
