#TITLE:Bohemian;
#SUBTITLE:;
#ARTIST:M2U;
#TITLETRANSLIT:;
#SUBTITLETRANSLIT:;
#ARTISTTRANSLIT:;
#GENRE:;
#CREDIT:;
#BANNER:[Mid Speed] - Bohemian.png;
#BACKGROUND:[Mid Speed] - Bohemian-bg.png;
#LYRICSPATH:;
#CDTITLE:cdtitle.png;
#MUSIC:[Mid Speed] - Bohemian.ogg;
#OFFSET:-0.414000;
#SAMPLESTART:50.014000;
#SAMPLELENGTH:12.800003;
#SELECTABLE:YES;
#DISPLAYBPM:150.000000;
#BPMS:0.000000=150.000000
,124.000000=300.000000
,126.000000=150.000000
,250.000000=300.000000
;
#STOPS:124.000000=1.200000,
250.000000=1.200000
;
#BGCHANGES:;
#KEYSOUNDS:;
#ATTACKS:;

//---------------dance-single - ----------------
#NOTES:
     dance-single:
     :
     Hard:
     10:
     0.716590,0.846994,0.472870,0.111264,0.440418,541.000000,490.000000,51.000000,12.000000,0.000000,0.000000,0.716590,0.846994,0.472870,0.111264,0.440418,541.000000,490.000000,51.000000,12.000000,0.000000,0.000000:
0000
0000
0000
0000
,
0000
0000
0000
0000
,
0000
0000
0000
0000
,
0000
0000
0000
0000
,
0101
0000
0001
0000
1000
0000
0100
0000
0010
0000
0100
0000
1000
0001
1000
0000
,
1000
0100
0001
0100
1000
0010
0100
0001
,
1000
0000
1000
0000
0001
0000
0100
0000
0010
0000
0000
1000
0000
0000
1000
0100
,
1000
0000
0001
0000
0001
0000
0100
0001
0010
0000
0100
1000
0010
0000
0100
0000
,
0110
0000
0010
0000
1000
0000
0001
0000
0100
0000
0010
0000
1000
0001
1000
0000
,
1000
0000
0010
0000
0001
0000
0010
0000
1000
0000
0001
0000
0100
0010
0100
0000
,
0001
0000
0001
0000
1000
0000
0100
0000
0010
0000
0100
0000
1000
0001
1000
0000
,
1000
0000
0100
0000
0001
0000
0100
0000
1000
0000
0010
0000
0100
0001
0100
0000
,
0001
0000
0001
0000
1000
0000
0010
0000
0100
0000
0010
0000
1000
0010
1000
0000
,
1000
0000
0010
0000
0001
0000
0010
0000
1000
0000
0100
0000
0010
0001
0010
0000
,
0001
0000
0001
0000
1000
0000
0100
0000
0010
0000
0000
0001
0000
0000
1000
0100
,
1000
0000
0001
0000
0100
0000
0010
1000
0100
0000
0010
0001
0100
0000
0010
0000
,
0110
0000
0000
1000
0001
0000
0010
0000
0011
0000
0000
0001
1000
0000
0010
0000
,
1010
0000
0000
1000
0001
0000
0010
0000
0011
0000
0001
0000
0100
0000
0010
0000
,
1010
0000
0000
1000
0001
0000
0010
0000
0011
0000
0000
0001
1000
0000
0010
0000
,
1010
0000
0000
1000
0001
0000
0010
0000
0011
0000
0001
0000
0010
0000
0100
0000
,
1100
0000
0000
1000
0001
0000
0100
0000
0101
0000
0000
0001
1000
0000
0100
0000
,
1100
0000
0000
1000
0001
0000
0100
0000
0101
0000
0001
0000
0010
0000
0100
0000
,
1100
0000
0000
1000
0001
0000
0100
0000
0101
0000
0000
0001
1000
0000
0100
0000
,
1100
0000
0000
1000
0001
0000
0100
0000
0101
0000
0100
0000
0110
0000
0000
0000
,
1001
0000
0001
0000
0100
0010
0000
0120
0000
0000
1000
0000
0000
0000
0100
0000
,
0130
0000
0001
0000
0010
0100
0000
0210
0000
0000
1000
0000
0000
0000
0010
0000
,
0310
0000
0001
0000
1000
0010
0000
1020
0000
0000
0100
0000
0000
0000
1000
0000
,
1030
0000
0100
0010
0000
0001
0010
0000
0100
0000
1000
0000
0010
0000
0100
0000
,
0101
0001
0010
0100
1100
1000
0010
0100
,
0101
0001
0010
0100
1100
1000
0010
0100
,
0101
0000
0101
0000
1001
0000
1001
0000
0001
0010
0100
1000
0010
0100
0001
1000
,
0002
0000
4003
0001
,
3010
0000
0010
0000
0010
0000
0010
0000
0010
0100
0010
0100
0010
0000
0010
0000
,
0010
0000
1000
0000
0004
0100
0000
0000
4003
0000
0000
0000
0010
0000
0000
0000
,
3100
0000
0100
0000
0100
0000
0100
0000
0010
0000
0010
0100
0010
0000
0110
0000
,
0110
0000
0100
0000
4000
0010
0000
0000
3004
0000
0000
0000
0100
0000
0000
0000
,
0013
0000
0010
0000
0100
0000
0100
0010
0100
0000
0100
0000
0010
0000
0010
0000
,
0100
0000
1000
0000
0004
0100
0000
0000
4003
0000
0000
0000
3010
0000
0010
0000
,
0010
0000
0100
0001
1000
0000
0001
0000
1001
0000
0000
0000
0000
0000
0000
0000
,
1001
0000
0010
1000
0001
0000
0000
0000
1004
0000
0000
0000
0100
0000
0000
0000
,
0103
0000
0100
0000
0100
0010
0100
0010
0100
0001
0100
0010
0100
0001
0100
0010
,
1000
0000
0001
0000
4000
0010
0000
0000
3004
0000
0000
0000
0100
0000
0000
0000
,
0013
0000
0010
0000
0010
0100
0010
0100
0010
0001
0010
0100
0010
0001
1000
0000
,
1000
0000
0010
0000
0400
0010
0000
0000
0304
0000
0000
0000
1000
0000
0000
0000
,
0103
0000
0100
0000
0010
0000
0010
0100
0010
0000
0010
0000
0010
0000
0100
0000
,
0001
0000
1000
0000
0004
0100
0000
0000
4003
0000
0000
0000
3010
0000
0010
0000
,
0010
0000
0100
0001
1000
0000
0001
0000
0101
0000
0100
0000
0010
0000
1000
0010
,
1000
0100
0010
0001
1000
0000
0000
0000
1001
0000
0001
0000
0100
0010
0100
0020
,
0000
0000
1000
0000
0000
0000
1030
0000
0100
0000
0010
0000
0001
0010
0001
0020
,
0000
0000
0100
0000
0000
0000
0130
0000
1000
0000
0010
0000
0100
0001
0100
0002
,
0000
0000
1000
0000
0000
0000
1003
0000
0100
0000
0010
0000
0001
0010
0001
0020
,
0000
0000
0001
0000
0000
0000
0031
0000
0100
0000
1000
0000
0100
0010
0100
0020
,
0000
0000
1000
0000
0000
0000
1030
0000
0100
0000
0001
0000
0100
0010
0100
0020
,
0000
0000
0001
0000
0000
0000
0031
0000
0100
0000
1000
0000
0100
0010
0100
0020
,
0000
0001
0000
0031
0010
1000
0010
0001
,
0010
0000
0100
0000
0110
0000
0000
0000
1001
0000
0000
0001
0100
0000
0010
0000
,
1000
0000
0100
0000
0010
0001
0010
0000
0001
0000
1000
0000
0010
0100
0000
0010
,
0100
0000
0001
0000
0010
0000
0100
0000
1000
0000
0000
1000
0010
0000
0100
0000
,
0001
0000
0010
0000
0100
0000
1000
0000
1001
0000
0000
0011
0000
0000
1100
0000
,
0100
0000
1000
0000
0010
0000
0100
0000
0101
0000
1000
0010
1000
0000
0001
0000
,
0011
0000
0100
0010
0100
0000
1000
0000
1010
0000
0001
0100
0001
0000
0010
0000
,
0110
0000
1000
0100
1000
0000
0001
0000
0101
0000
0101
0000
1001
0000
1001
0000
,
0001
0010
0100
1000
0010
0100
0001
1000
0002
0000
0000
0000
0000
0000
0000
0000
,
1003
0000
0000
0000
;

//---------------dance-single - ----------------
#NOTES:
     dance-single:
     :
     Medium:
     7:
     0.598704,0.613340,0.352335,0.278159,0.055632,452.000000,414.000000,38.000000,30.000000,0.000000,0.000000,0.598704,0.613340,0.352335,0.278159,0.055632,452.000000,414.000000,38.000000,30.000000,0.000000,0.000000:
0000
0000
0000
0000
,
0000
0000
0000
0000
,
0000
0000
0000
0000
,
0000
0000
0000
0000
,
1000
0100
0010
0100
1000
0010
0100
0001
,
0001
0010
0100
0010
0001
0100
0010
1000
,
1000
0000
0100
0000
0010
0000
0100
0000
1000
0000
0000
1000
0000
0000
0010
0000
,
0110
0100
1000
0100
0001
0100
0010
1000
,
0001
0100
0010
0100
0001
0010
0100
1000
,
1000
0010
0100
0010
1000
0100
0010
0001
,
0001
0100
0010
0100
0001
0010
0100
1000
,
1000
0010
0100
0010
1000
0100
0010
0001
,
0001
0100
0010
0100
0001
0010
0100
1000
,
1000
0010
0100
0010
1000
0100
0010
0001
,
0001
0100
0010
0100
0001
0010
0100
0010
,
0001
1000
0001
0010
0001
0100
0001
1000
,
1010
0000
1001
0001
0101
0000
1001
1000
,
1100
0000
1001
0001
0100
0010
1000
0100
,
1100
0000
1001
0001
0101
0000
1001
1000
,
1100
0000
1001
0001
0100
0010
1000
0001
,
0011
0000
1001
1000
1010
0000
1001
0001
,
0011
0000
1001
1000
0010
0100
0001
0010
,
0011
0000
1001
1000
1010
0000
1001
0001
,
0010
1000
0010
0001
0100
0010
1000
0000
,
1001
0000
0000
0000
0001
0000
0000
0100
0002
0000
1000
0000
0000
0000
1003
0000
,
0001
0000
0000
0000
0001
0000
0000
0010
0002
0000
0100
0000
0000
0000
1003
0000
,
1000
0000
0000
0000
1000
0000
0000
0010
2000
0000
0001
0000
0000
0000
3001
0000
,
1001
0000
0000
1001
0000
0000
1000
0000
0001
0000
0100
0000
0010
0000
1000
0000
,
0001
0010
0001
0010
0001
0010
0001
0010
,
0001
0100
0001
0100
0001
0100
0001
0100
,
0010
1000
0001
0010
0100
1000
0010
0100
,
0002
0000
0000
0000
1003
0000
2020
0030
,
3010
0100
0001
1000
0010
0100
0001
1000
,
0100
0010
0200
0000
1300
0000
0202
0003
,
0301
0010
0100
1000
0001
0010
0100
1000
,
1000
0010
0200
0000
0301
0000
2020
3000
,
1030
0010
0100
0001
1000
0010
0100
0001
,
1000
0100
0020
0000
0031
0000
1000
0100
,
0010
0001
1000
0100
0010
0000
0000
0000
,
1001
0010
1010
0000
1001
0000
0202
0300
,
0103
0010
1000
0001
0010
0100
1000
0010
,
0100
0100
0002
0000
1003
0000
2020
3000
,
1030
0100
0010
0001
0100
0010
1000
0100
,
0010
0010
0200
0000
1300
0000
2020
0030
,
3010
0100
0001
0010
0100
1000
0010
0100
,
0001
0001
2000
0000
3100
0000
0010
0001
,
0100
0010
1000
0100
0010
0001
0010
1000
,
0010
0000
0001
0000
0101
0000
0000
0000
1010
0000
0010
0000
0100
0000
0001
0200
,
0000
0000
0001
0000
0000
0000
0301
0000
0010
0000
0100
0000
1000
0000
0001
0020
,
0000
0000
0100
0000
0000
0000
0130
0000
1000
0000
0010
0000
0100
0000
0001
0200
,
0000
0000
0010
0000
0000
0000
0310
0000
1000
0000
0100
0000
0010
0000
0001
0020
,
0000
0000
0100
0000
0000
0000
0130
0000
1000
0000
0010
0000
0100
0000
0001
0200
,
0000
0000
0010
0000
0000
0000
0310
0000
1000
0000
0100
0000
0010
0000
0001
0020
,
0000
0000
0001
0000
0000
0000
0031
0000
0100
0000
0010
0000
1000
0000
0010
2000
,
0000
0001
0000
3001
0010
1000
0010
0001
,
0010
0100
1000
0000
1001
0001
0100
1000
,
0100
0001
0010
0010
0010
0100
1000
0100
,
0001
0100
1000
0010
0100
1000
0100
0001
,
0100
1000
0100
0001
0010
1000
0010
0100
,
0010
0001
0100
0010
1000
0100
0001
0100
,
1000
0010
0001
0010
1000
0100
0001
0100
,
1000
0010
0001
0010
1000
1000
0001
0001
,
1000
0010
0100
0001
2000
0000
0000
0000
,
3001
0000
0000
0000
;

//---------------dance-single - ----------------
#NOTES:
     dance-single:
     :
     Easy:
     4:
     0.357633,0.438100,0.333791,0.083448,0.000000,270.000000,234.000000,36.000000,9.000000,0.000000,0.000000,0.357633,0.438100,0.333791,0.083448,0.000000,270.000000,234.000000,36.000000,9.000000,0.000000,0.000000:
// measure 0
0000
0000
0000
0000
,  // measure 1
0000
0000
0000
0000
,  // measure 2
0000
0000
0000
0000
,  // measure 3
0000
0000
0000
0000
,  // measure 4
1000
0010
1000
1000
,  // measure 5
0001
0010
0001
0001
,  // measure 6
0100
0010
0100
0100
,  // measure 7
0101
0001
0011
0001
,  // measure 8
1001
1000
0010
0010
,  // measure 9
0100
0001
0010
0010
,  // measure 10
0001
0100
0010
0010
,  // measure 11
1000
0100
0010
0010
,  // measure 12
0001
1000
0010
0010
,  // measure 13
0100
0001
0010
0010
,  // measure 14
0100
1000
0010
0010
,  // measure 15
0110
0100
0101
0100
,  // measure 16
1001
0001
0010
1000
,  // measure 17
0010
0001
0100
0010
,  // measure 18
1010
1000
0010
0001
,  // measure 19
0010
1000
0001
0010
,  // measure 20
0110
0100
1000
0100
,  // measure 21
0001
0100
1000
0001
,  // measure 22
1001
1000
0010
0100
,  // measure 23
1001
0110
1001
0110
,  // measure 24
1001
1000
0100
0010
,  // measure 25
0001
0100
1000
0100
,  // measure 26
0001
0001
0010
0100
,  // measure 27
1000
0010
0001
0010
,  // measure 28
1000
0100
0010
0001
,  // measure 29
1000
0100
0010
0001
,  // measure 30
2001
0001
0010
0010
,  // measure 31
3020
0000
0130
0101
,  // measure 32
1000
1000
1000
1000
,  // measure 33
1000
0020
1030
1010
,  // measure 34
0001
0001
0001
0001
,  // measure 35
0001
2000
3001
0101
,  // measure 36
1000
1000
1000
1000
,  // measure 37
1000
0020
1030
0001
,  // measure 38
0001
0001
0001
0000
,  // measure 39
1001
0110
1001
0101
,  // measure 40
1000
1000
1000
1000
,  // measure 41
1010
0020
0130
0110
,  // measure 42
0001
0001
0001
0001
,  // measure 43
0101
0200
0310
0110
,  // measure 44
1000
1000
1000
1000
,  // measure 45
1100
0200
0310
0001
,  // measure 46
0001
0001
0001
0100
,  // measure 47
1000
0100
0101
0001
,  // measure 48
0100
1000
0100
0001
,  // measure 49
0010
0100
1100
1000
,  // measure 50
0100
0001
0100
1000
,  // measure 51
0010
0100
0101
0001
,  // measure 52
0100
1000
0100
0001
,  // measure 53
0010
0100
1100
1000
,  // measure 54
0010
0100
1001
0110
,  // measure 55
1001
0110
1001
0001
,  // measure 56
0100
0010
1000
1000
,  // measure 57
0100
0010
0001
1000
,  // measure 58
0010
0100
0001
0001
,  // measure 59
1000
0010
0100
0100
,  // measure 60
0001
0001
0010
0010
,  // measure 61
0100
0100
1000
0010
,  // measure 62
0100
0001
2000
0000
,  // measure 63
3001
0000
0000
0000
;
