#VERSION:0.81;
#TITLE:戦場の聖バレンタイン;
#SUBTITLE:;
#ARTIST:虹のコンキスタドール;
#TITLETRANSLIT:Battlefield of St. Valentine;
#SUBTITLETRANSLIT:;
#ARTISTTRANSLIT:Niji no Conquistador;
#GENRE:;
#ORIGIN:;
#CREDIT:mf32892;
#BANNER:[Mid Speed] - Battlefield of St. Valentine.png;
#BACKGROUND:[Mid Speed] - Battlefield of St. Valentine-bg.png;
#PREVIEWVID:;
#JACKET:[Mid Speed] - Battlefield of St. Valentine-jacket.png;
#CDIMAGE:;
#DISCIMAGE:;
#LYRICSPATH:;
#CDTITLE:cdtitle.png;
#MUSIC:[Mid Speed] - Battlefield of St. Valentine.ogg;
#OFFSET:0.808090;
#SAMPLESTART:84.276039;
#SAMPLELENGTH:13.955750;
#SELECTABLE:YES;
#BPMS:0.000=139.996;
#STOPS:;
#DELAYS:;
#WARPS:;
#TIMESIGNATURES:0.000=4=4;
#TICKCOUNTS:0.000=4;
#COMBOS:0.000=1;
#SPEEDS:0.000=1.000=0.000=0;
#SCROLLS:0.000=1.000;
#FAKES:;
#LABELS:0.000=Song Start;
#BGCHANGES:1.875=[Mid Speed] - Battlefield of St. Valentine.mp4=1.000=0=0=1=====,
99999=-nosongbg-=1.000=0=0=0 // don't automatically add -songbackground-
;
#KEYSOUNDS:;
#ATTACKS:
;

//---------------dance-single - ----------------
#NOTEDATA:;
#CHARTNAME:;
#STEPSTYPE:dance-single;
#DESCRIPTION:;
#CHARTSTYLE:;
#DIFFICULTY:Hard;
#METER:8;
#RADARVALUES:0.583171,0.612329,0.084406,0.230199,0.395175,491.000000,11.000000,30.000000,0.000000,0.000000,0.000000,0.000000,0.000000,0.583171,0.612329,0.084406,0.230199,0.395175,491.000000,11.000000,30.000000,0.000000,0.000000,0.000000,0.000000,0.000000;
#CREDIT:;
#NOTES:
// measure 0
0000
0000
0000
0000
,  // measure 1
0000
0000
0000
0000
,  // measure 2
0000
0000
0000
0000
,  // measure 3
0000
0000
0000
0000
,  // measure 4
0000
0000
0000
0000
,  // measure 5
0000
0000
0000
0000
,  // measure 6
0000
0000
0000
0000
,  // measure 7
0000
0000
0000
0000
,  // measure 8
0000
0000
0000
0000
,  // measure 9
0000
0000
0000
0000
,  // measure 10
0001
0000
0100
0000
0010
0000
0100
0001
0000
0001
0010
0000
0100
0000
0100
0000
,  // measure 11
1000
0000
0010
0000
0100
0000
0010
1000
0000
1000
0100
0000
0020
0000
0000
0000
,  // measure 12
0031
0000
0100
0000
0010
0000
0100
0001
0000
0001
0010
0000
0100
0000
1000
0000
,  // measure 13
0010
0000
0100
0000
0100
0000
0001
1000
0002
0000
0000
0000
0023
0000
0000
0000
,  // measure 14
0130
0000
1000
0000
0010
0000
0100
0010
0000
0010
1000
0000
0001
0000
0010
0000
,  // measure 15
0100
0000
1000
0000
0100
0000
0010
0001
0000
0001
1000
0000
0001
0000
0100
0001
,  // measure 16
0000
0001
0010
0000
1000
0000
0010
0100
0000
0100
1000
0000
0001
0000
1000
0000
,  // measure 17
0001
0010
0100
1000
0000
0000
1000
0010
0100
0001
0000
0000
1000
0000
0100
0000
,  // measure 18
1000
0000
0001
0000
0100
0000
0001
1000
0000
0100
0000
0010
0001
0000
1000
0000
,  // measure 19
0000
0000
0001
0000
0100
0000
0001
0000
1000
0000
0000
1000
0000
0000
1000
0000
,  // measure 20
0001
0000
1000
0000
0100
0000
1000
0001
0000
0100
0000
0010
1000
0000
0001
0000
,  // measure 21
0000
0000
0010
0000
0100
0000
0010
0000
0100
0000
0000
0100
0000
0000
0000
0000
,  // measure 22
1000
0000
0100
0000
0001
0000
0100
0010
0000
0100
0000
1000
0001
0000
0100
0000
,  // measure 23
0000
0000
0010
0000
1000
0000
0001
0000
0010
0000
0000
0010
0000
0000
0010
0000
,  // measure 24
0001
0000
0100
0000
1000
0000
0100
0010
0000
0100
0000
0001
1000
0000
0100
0000
,  // measure 25
0000
0000
0110
0000
0000
0000
0010
0000
0001
0000
1000
0010
0000
0000
0100
0000
,  // measure 26
0001
0010
0100
0010
1000
0010
0001
2000
,  // measure 27
0000
0000
3001
0000
0000
0000
0100
0000
0001
0000
1000
0100
0000
0000
0100
0000
,  // measure 28
1000
0000
0010
0000
0100
0000
0010
0000
0002
0000
0000
0013
0000
0000
1000
0001
,  // measure 29
0000
0000
0001
0000
0010
0000
0100
0000
0020
0000
0000
0130
0000
0000
0000
0000
,  // measure 30
1000
0100
1000
0010
0200
0310
1000
0002
,  // measure 31
0000
0000
0013
0000
0000
0000
0010
0000
0100
0000
1000
0001
0000
0000
1000
0000
,  // measure 32
0010
0000
1000
0000
0100
0000
1000
0000
0002
0000
0000
0013
0000
0000
0100
0010
,  // measure 33
0000
0000
0010
0000
0001
0000
0100
0000
0002
0000
0000
1003
0000
0000
0000
0000
,  // measure 34
0001
0000
1000
0000
0100
0000
1000
0001
0000
0100
0000
0010
1000
0000
0001
0000
,  // measure 35
0000
0000
1000
0000
0100
0000
1000
0000
0001
0000
0000
0001
0000
0000
0001
0000
,  // measure 36
1000
0000
0001
0000
0100
0000
0001
1000
0000
0100
0000
0010
0001
0000
1000
0000
,  // measure 37
0000
0000
0010
0000
0100
0000
0010
0000
1000
0001
1000
0001
0000
1000
0000
1000
,  // measure 38
0001
0000
0100
0000
1000
0000
0100
0010
0000
0100
0000
0001
1000
0000
0100
0000
,  // measure 39
0000
0000
0010
0000
0001
0000
1000
0000
0010
0000
0000
0010
0000
0000
0100
0000
,  // measure 40
0101
0110
2001
3100
,  // measure 41
0010
0000
1001
0000
0001
0000
0010
0000
1000
0000
0000
0010
0000
0000
0100
0000
,  // measure 42
1000
0010
0100
0010
0001
0010
1000
0002
,  // measure 43
0000
0000
1003
0000
0000
0000
0100
0000
0010
0000
0001
1000
0000
0000
1000
0000
,  // measure 44
0001
0000
0100
0000
0010
0000
0100
0000
2000
0000
0000
3100
0000
0000
0001
1000
,  // measure 45
0000
0000
1000
0000
0010
0000
0100
0000
0020
0000
0000
0130
0000
0000
0001
0000
,  // measure 46
0010
0100
0010
0001
0200
0310
1000
0002
,  // measure 47
0000
0000
0013
0000
0000
0000
0100
0000
1000
0000
0001
1000
0000
0000
0010
0000
,  // measure 48
2000
0000
3100
1000
0002
0000
0013
0100
,  // measure 49
0020
0000
0031
0100
0020
0100
0130
0010
,  // measure 50
0200
0000
0000
0000
0310
0000
1000
0001
0000
0000
0001
0000
1000
0000
0100
0000
,  // measure 51
0001
0000
0100
0000
1000
0000
0001
0100
0000
0000
0001
0000
1000
0000
0010
0000
,  // measure 52
0002
0000
0000
0000
0013
0000
1000
0001
0000
0000
0001
0000
0010
0000
0001
0000
,  // measure 53
1000
0000
0010
0000
0100
0010
0000
1000
0000
0000
1000
0000
0100
0000
1000
0000
,  // measure 54
0002
0000
0000
0000
0103
0000
0001
1000
0000
0000
0001
0000
1000
0000
0100
0000
,  // measure 55
0001
0000
0100
0000
1000
0000
0001
0100
0000
0000
0100
0000
0010
0000
1000
0000
,  // measure 56
1010
0000
0000
0000
0101
0000
0000
0000
0011
0000
0000
0110
0000
0000
1100
0000
,  // measure 57
0001
0000
0100
0000
0010
1000
0000
0002
0000
0000
1003
0000
0001
0000
1000
0000
,  // measure 58
0200
0000
0000
0000
0310
0000
0001
1000
0000
0000
1000
0000
0001
0000
0010
0000
,  // measure 59
1000
0000
0010
0000
0001
0000
1000
0010
0000
0000
1000
0000
0001
0000
0100
0000
,  // measure 60
2000
0000
0000
0000
3100
0000
0001
1000
0000
0000
1000
0000
0100
0000
1000
0000
,  // measure 61
0001
0000
0100
0000
0010
0100
0000
0001
0000
0000
0001
0000
0010
0000
0001
0000
,  // measure 62
2000
0000
0000
0000
3010
0000
1000
0001
0000
0000
1000
0000
0001
1000
0010
0000
,  // measure 63
0001
0000
0010
0000
1000
0000
0010
0100
0000
0000
0010
0000
0100
0010
1000
0000
,  // measure 64
0200
0000
0000
0000
0310
0000
0001
1000
0000
0000
1000
0000
0010
0000
1000
0000
,  // measure 65
0001
0010
1000
0010
0001
0100
1000
0100
,  // measure 66
0001
0000
0010
0000
0100
0000
1000
0010
0000
0010
1000
0000
0100
0000
0010
0000
,  // measure 67
0001
0000
0100
0000
0010
0000
1000
0001
0000
0001
1000
0000
0001
0000
0010
0000
,  // measure 68
0100
0000
1000
0000
0100
0000
0010
0001
0000
0001
0100
0000
0001
0000
0010
0000
,  // measure 69
0100
0000
1000
0000
0010
0000
0100
0010
0000
0010
1000
0000
0010
0000
1000
0010
,  // measure 70
0100
0000
0001
0000
1000
0000
0100
0010
0000
0010
0001
0000
1000
0000
0001
0000
,  // measure 71
0010
0000
0001
0000
0100
0000
0010
1000
0000
1000
0001
0000
1000
0000
0100
0000
,  // measure 72
1000
0000
0010
0000
0001
0000
0010
0100
0000
0100
0001
0000
1000
0000
0001
0000
,  // measure 73
1000
0010
0100
0001
0000
0000
0001
0010
0100
1000
0000
0000
2002
0000
0000
0000
,  // measure 74
0000
0000
0000
0000
,  // measure 75
0000
0000
0000
0000
,  // measure 76
3003
0000
0000
0000
;

//---------------dance-single - ----------------
#NOTEDATA:;
#CHARTNAME:;
#STEPSTYPE:dance-single;
#DESCRIPTION:;
#CHARTSTYLE:;
#DIFFICULTY:Medium;
#METER:6;
#RADARVALUES:0.414358,0.495695,0.130446,0.222526,0.115100,332.000000,17.000000,29.000000,0.000000,0.000000,0.000000,0.000000,0.000000,0.414358,0.495695,0.130446,0.222526,0.115100,332.000000,17.000000,29.000000,0.000000,0.000000,0.000000,0.000000,0.000000;
#CREDIT:;
#NOTES:
// measure 0
0000
0000
0000
0000
,  // measure 1
0000
0000
0000
0000
,  // measure 2
0000
0000
0000
0000
,  // measure 3
0000
0000
0000
0000
,  // measure 4
0000
0000
0000
0000
,  // measure 5
0000
0000
0000
0000
,  // measure 6
0000
0000
0000
0000
,  // measure 7
0000
0000
0000
0000
,  // measure 8
0000
0000
0000
0000
,  // measure 9
0000
0000
0000
0000
,  // measure 10
1000
0000
0100
0000
0010
0001
0010
0000
,  // measure 11
0001
0000
0100
0000
0010
1000
0002
0000
,  // measure 12
1003
0000
0100
0000
0010
0001
1000
0000
,  // measure 13
0001
0100
0100
0000
0110
0000
1001
0000
,  // measure 14
0001
0010
0100
0000
1000
0000
0001
0000
,  // measure 15
1000
0100
0010
0000
0001
0000
1000
0000
,  // measure 16
0001
0100
0010
0000
1000
0000
0001
0000
,  // measure 17
1000
1000
0000
0001
0001
0000
1001
0000
,  // measure 18
1000
0000
0001
0000
0000
1000
0001
0000
,  // measure 19
0000
0000
0010
0000
0100
0000
0000
0000
1000
0000
0000
1000
0000
0000
1000
0000
,  // measure 20
0001
0000
0100
0000
0000
0001
1000
0000
,  // measure 21
0000
0000
0001
0000
0010
0000
0100
0000
1000
0000
0000
1000
0000
0000
0000
0000
,  // measure 22
0001
1000
0010
1000
,  // measure 23
0100
0000
0000
0000
1000
0000
0000
0000
0001
0000
0000
0001
0000
0000
0001
0000
,  // measure 24
0010
0001
1000
0001
,  // measure 25
0100
0010
0000
0100
0010
0100
0001
0000
,  // measure 26
1000
0100
1000
0000
0001
0100
0001
0200
,  // measure 27
0000
0010
0300
0010
1000
0001
1000
0000
,  // measure 28
0001
0000
0010
0000
0001
0000
0000
0000
0010
0000
0000
0010
0000
0000
0200
0000
,  // measure 29
0000
0000
1300
0000
0001
0000
0000
0000
0100
0000
0000
0100
0000
0000
0000
0000
,  // measure 30
0001
0100
0001
0000
1000
0100
1000
0200
,  // measure 31
0000
0310
0000
0010
0001
1000
0001
0000
,  // measure 32
1000
0000
0010
0000
1000
0000
0000
0000
0010
0000
0000
0010
0000
0000
0200
0000
,  // measure 33
0000
0000
0301
0000
1000
0000
0000
0000
0100
0000
0000
0200
0000
0000
0000
0000
,  // measure 34
1300
1000
1000
1000
,  // measure 35
0001
0000
0000
0000
0001
0000
0000
0000
0100
0000
0000
0100
0000
0000
0100
0000
,  // measure 36
0010
0010
0010
0010
,  // measure 37
0110
0000
0000
0000
0000
0000
0000
0000
0002
0000
0000
1003
0000
0001
0000
1000
,  // measure 38
0001
0000
0010
0000
0100
0010
0001
0000
,  // measure 39
0100
0000
0010
0000
1000
0000
0000
0000
0001
0000
0000
0001
0000
0000
0001
0000
,  // measure 40
1000
1010
0102
1003
,  // measure 41
0000
0000
0001
0000
0001
0000
0000
0000
1000
0000
0000
0001
0000
0000
1000
0000
,  // measure 42
0001
0100
0001
0000
1000
0100
1000
0200
,  // measure 43
0000
0010
0300
0010
0001
1000
0001
0000
,  // measure 44
1000
0000
0010
0000
1000
0000
0000
0000
0010
0000
0000
0010
0000
0000
0200
0000
,  // measure 45
0000
0000
0301
0000
1000
0000
0000
0000
0100
0000
0000
0100
0000
0000
0000
0000
,  // measure 46
1000
0100
1000
0000
0001
0100
0001
0200
,  // measure 47
0000
0310
0000
0010
1000
0001
1000
0000
,  // measure 48
1020
0130
0210
0301
,  // measure 49
0102
0000
1003
0000
2001
0000
3100
0010
,  // measure 50
0002
0000
0000
0000
1000
0000
0000
1003
0000
0000
0000
0000
0001
0000
0100
0000
,  // measure 51
0010
0000
0100
0000
0002
0000
0000
1003
0000
0000
0000
0000
1000
0000
0100
0000
,  // measure 52
0020
0000
0000
0000
0001
0000
0000
0031
0000
0000
0000
0000
1000
0000
0001
0000
,  // measure 53
0100
0000
0001
0000
1000
0000
0000
1000
0000
0000
0000
0000
0100
0000
1000
0000
,  // measure 54
0002
0000
0000
0000
0100
0000
0000
0103
0000
0000
0000
0000
0010
0000
1000
0000
,  // measure 55
0001
0000
1000
0000
0010
0000
0000
0100
0000
0000
0000
0000
0100
0000
0001
0000
,  // measure 56
2000
0000
0000
0000
3100
0000
0000
0000
0200
0000
0000
0010
0000
0000
0310
0000
,  // measure 57
0001
0000
1000
0000
0001
0000
0000
0100
0000
0000
0000
0000
0100
0000
0010
0000
,  // measure 58
2000
0000
0000
0000
0001
0000
0000
3001
0000
0000
0000
0000
1000
0000
0100
0000
,  // measure 59
0010
0000
0100
0000
2000
0000
0000
3001
0000
0000
0000
0000
0001
0000
0100
0000
,  // measure 60
0020
0000
0000
0000
1000
0000
0000
1030
0000
0000
0000
0000
0001
0000
1000
0000
,  // measure 61
0100
0000
1000
0000
0001
0000
0000
0001
0000
0000
0000
0000
0100
0000
0001
0000
,  // measure 62
2000
0000
0000
0000
3100
0000
0000
0100
0000
0000
0000
0000
0010
0000
0001
0000
,  // measure 63
1000
0000
0001
0000
0020
0000
0000
0130
0000
0000
0000
0000
0100
0000
1000
0000
,  // measure 64
0002
0000
0000
0000
0103
0000
0000
0100
0000
0000
0000
0000
0010
0000
1000
0000
,  // measure 65
0001
1000
0001
1000
0100
0010
0100
0010
,  // measure 66
0001
0000
0100
0000
0010
1000
0010
0000
,  // measure 67
1000
0000
0100
0000
0010
0001
0010
0000
,  // measure 68
0001
0000
0100
0000
0010
1000
0001
0000
,  // measure 69
1000
0000
0100
0000
0010
0100
0010
0000
,  // measure 70
0001
0100
0010
0000
1010
0000
1001
0000
,  // measure 71
1000
0010
0100
0000
0101
0000
1001
0000
,  // measure 72
0001
0010
0100
0000
1100
0000
1001
0000
,  // measure 73
1000
1000
0000
0001
0001
0000
2002
0000
,  // measure 74
0000
0000
0000
0000
,  // measure 75
0000
0000
0000
0000
,  // measure 76
3003
0000
0000
0000
;

//---------------dance-single - ----------------
#NOTEDATA:;
#CHARTNAME:;
#STEPSTYPE:dance-single;
#DESCRIPTION:;
#CHARTSTYLE:;
#DIFFICULTY:Easy;
#METER:3;
#RADARVALUES:0.236776,0.291585,0.038367,0.107426,0.000000,197.000000,5.000000,14.000000,0.000000,0.000000,0.000000,0.000000,0.000000,0.236776,0.291585,0.038367,0.107426,0.000000,197.000000,5.000000,14.000000,0.000000,0.000000,0.000000,0.000000,0.000000;
#CREDIT:;
#NOTES:
// measure 0
0000
0000
0000
0000
,  // measure 1
0000
0000
0000
0000
,  // measure 2
0000
0000
0000
0000
,  // measure 3
0000
0000
0000
0000
,  // measure 4
0000
0000
0000
0000
,  // measure 5
0000
0000
0000
0000
,  // measure 6
0000
0000
0000
0000
,  // measure 7
0000
0000
0000
0000
,  // measure 8
0000
0000
0000
0000
,  // measure 9
0000
0000
0000
0000
,  // measure 10
1000
0100
1000
0000
,  // measure 11
0001
0100
0001
0000
,  // measure 12
0010
0100
0010
0000
,  // measure 13
0100
1000
0002
2003
,  // measure 14
3001
0001
0010
0000
,  // measure 15
0100
1000
0001
0000
,  // measure 16
1000
1000
0010
0000
,  // measure 17
0100
0000
0000
0001
0000
0000
1001
0000
,  // measure 18
1000
1000
0100
0000
,  // measure 19
0010
0001
0010
0000
,  // measure 20
0001
0001
0100
0000
,  // measure 21
0010
1000
0010
0000
,  // measure 22
1000
1000
0001
0001
,  // measure 23
1000
0001
0010
0000
,  // measure 24
0001
0001
1000
1000
,  // measure 25
0001
1000
0010
0000
,  // measure 26
0100
0001
0010
0100
,  // measure 27
2000
0000
3001
0000
,  // measure 28
1000
0010
0100
0001
,  // measure 29
1000
0001
0010
0000
,  // measure 30
0001
0010
0100
1000
,  // measure 31
0002
0000
1003
0000
,  // measure 32
0001
0100
0010
1000
,  // measure 33
0001
1000
0100
0000
,  // measure 34
1000
1000
0010
0000
,  // measure 35
0100
0001
0100
0000
,  // measure 36
0001
0001
0100
0000
,  // measure 37
1001
0000
0000
0000
,  // measure 38
0100
0100
0100
0000
,  // measure 39
0010
0010
0010
0000
,  // measure 40
1001
0000
0110
0000
,  // measure 41
1000
0000
0001
0000
,  // measure 42
0010
0010
0100
0010
,  // measure 43
0002
0000
1003
0000
,  // measure 44
0001
0001
1000
1000
,  // measure 45
0001
1000
0010
0000
,  // measure 46
2000
0000
3001
0000
,  // measure 47
0010
0100
1000
0001
,  // measure 48
2000
0000
0000
3000
0020
0000
0000
0030
,  // measure 49
0200
0000
0000
0300
0002
0000
0000
0003
,  // measure 50
1000
1000
0001
0000
,  // measure 51
0010
0100
1000
0000
,  // measure 52
0001
0001
1000
0000
,  // measure 53
0010
0100
0001
0000
,  // measure 54
0010
0010
0100
0000
,  // measure 55
0010
0001
1000
0000
,  // measure 56
0020
0100
0230
0001
,  // measure 57
0301
1000
0001
0000
,  // measure 58
0001
0001
1000
0000
,  // measure 59
0010
0100
0001
0000
,  // measure 60
1000
1000
0001
0000
,  // measure 61
0010
0100
1000
0000
,  // measure 62
0010
0010
0100
0000
,  // measure 63
0010
1000
0001
0000
,  // measure 64
0010
0010
0100
0000
,  // measure 65
1000
1000
0001
1000
,  // measure 66
0001
0100
0001
0000
,  // measure 67
1000
0100
1000
0000
,  // measure 68
0010
0100
0010
0000
,  // measure 69
0100
0100
0001
0000
,  // measure 70
1000
1000
0001
0001
,  // measure 71
0010
0010
0100
0100
,  // measure 72
1000
1000
0010
0010
,  // measure 73
0100
0000
0000
0001
0000
0000
2002
0000
,  // measure 74
0000
0000
0000
0000
,  // measure 75
0000
0000
0000
0000
,  // measure 76
3003
0000
0000
0000
;
