#VERSION:0.83;
#TITLE:BLACK & WHITE;
#SUBTITLE:;
#ARTIST:GHOST feat. Dex;
#TITLETRANSLIT:;
#SUBTITLETRANSLIT:;
#ARTISTTRANSLIT:;
#GENRE:;
#ORIGIN:;
#CREDIT:;
#BANNER:[Mid Speed] - BLACK & WHITE.png;
#BACKGROUND:[Mid Speed] - BLACK & WHITE-bg.png;
#PREVIEWVID:;
#JACKET:[Mid Speed] - BLACK & WHITE-jacket.png;
#CDIMAGE:;
#DISCIMAGE:;
#LYRICSPATH:[Mid Speed] - BLACK & WHITE.lrc;
#CDTITLE:;
#MUSIC:[Mid Speed] - BLACK & WHITE.ogg;
#OFFSET:-1.690783;
#SAMPLESTART:93.673660;
#SAMPLELENGTH:14.400002;
#SELECTABLE:YES;
#DISPLAYBPM:150.000000;
#BPMS:0.000=150.000,
287.000=37.500;
#STOPS:;
#DELAYS:;
#WARPS:287.000=61.000;
#TIMESIGNATURES:0.000=4=4;
#TICKCOUNTS:0.000=4;
#COMBOS:0.000=1;
#SPEEDS:0.000=1.000=0.000=0;
#SCROLLS:0.000=1.000;
#FAKES:;
#LABELS:0.000=Song Start;
#BGCHANGES:0.667=[Mid Speed] - BLACK & WHITE.avi=1.000=1=0=0=StretchNoLoop==CrossFade==,
99999=-nosongbg-=1.000=0=0=0 // don't automatically add -songbackground-
;
#KEYSOUNDS:;
#ATTACKS:
;

//---------------dance-single - ----------------
#NOTEDATA:;
#CHARTNAME:;
#STEPSTYPE:dance-single;
#DESCRIPTION:;
#CHARTSTYLE:;
#DIFFICULTY:Hard;
#METER:8;
#RADARVALUES:0.483507,0.713173,0.253266,0.521881,0.345362,441.000000,408.000000,33.000000,68.000000,44.000000,0.000000,0.000000,0.000000,45.000000,0.483507,0.713173,0.253266,0.521881,0.345362,441.000000,408.000000,33.000000,68.000000,44.000000,0.000000,0.000000,0.000000,45.000000;
#CREDIT:;
#DISPLAYBPM:150.000000;
#NOTES:
// measure 0
0000
0000
0000
0000
,  // measure 1
0000
0000
0000
0000
,  // measure 2
0000
0000
0000
0000
,  // measure 3
0000
0000
0000
0000
,  // measure 4
0001
0000
0010
0000
0100
1000
0001
0000
,  // measure 5
1000
0000
0001
0100
0010
0000
0000
0000
0100
0000
0010
0000
1000
0000
0000
0000
,  // measure 6
0001
0000
0100
0000
0010
1000
0001
0000
,  // measure 7
0010
0100
1000
0000
,  // measure 8
0001
0000
1000
0010
0100
0010
0002
0000
,  // measure 9
0023
0000
1030
0001
0020
0000
0230
0000
,  // measure 10
2300
0000
3100
1000
0002
0000
1003
0001
,  // measure 11
0200
0000
0301
0100
0020
0000
2030
0000
,  // measure 12
3001
0000
1000
0100
0010
0100
0002
0000
,  // measure 13
0203
0000
1300
0001
0200
0000
0320
0000
,  // measure 14
2030
0000
3010
1000
0002
0000
1003
0001
,  // measure 15
0020
0000
0031
0010
0200
0000
2300
0000
,  // measure 16
3001
0000
1000
1000
0001
0100
2000
0000
,  // measure 17
3200
0000
0301
0100
0020
0000
2030
0000
,  // measure 18
3002
0000
0013
0001
0020
0000
0130
0010
,  // measure 19
0200
0000
1300
0100
2000
0000
3002
0000
,  // measure 20
0013
0000
0001
0001
1000
0100
0002
0000
,  // measure 21
0203
0000
1300
0001
0200
0000
0320
0000
,  // measure 22
2030
0000
3010
1000
0020
0000
0130
0010
,  // measure 23
0200
0000
0301
1000
0200
0000
0300
0000
,  // measure 24
1000
0100
0001
0100
1000
1000
0001
0000
,  // measure 25
1000
0010
0001
0010
1000
1000
0010
0100
,  // measure 26
0001
0100
0002
0000
1003
0100
1000
0000
,  // measure 27
1100
0110
0011
1001
,  // measure 28
0001
0100
0010
0100
1000
0100
0001
1000
,  // measure 29
0001
0010
0100
0010
1000
0010
0001
1000
,  // measure 30
0001
0100
0010
1000
1010
1000
0001
0010
,  // measure 31
0011
0001
1000
0100
1100
1000
0001
0100
,  // measure 32
0101
0000
0000
0001
0100
0000
0010
0000
1000
0000
1000
0000
1010
0000
0000
0000
,  // measure 33
1000
0000
0010
0000
0001
0000
0010
0000
1000
0000
0000
1000
0001
0000
0010
0000
,  // measure 34
0100
0100
1000
1000
,  // measure 35
0001
0000
0000
0000
0100
0000
0000
0100
0010
0000
1000
0000
0001
0000
0000
0000
,  // measure 36
0011
0000
0000
0001
0010
0000
0100
0000
1000
0000
1000
0000
1100
0000
0000
0000
,  // measure 37
1000
0000
0100
0000
0001
0000
0100
0000
1000
0000
0000
1000
0010
0000
0100
0000
,  // measure 38
0001
0010
1000
0010
0001
0001
1000
1000
,  // measure 39
0001
0100
1000
0100
0001
0001
1000
1000
,  // measure 40
1001
0000
0002
0023
,  // measure 41
1030
0001
0200
0000
1300
0000
1000
0000
,  // measure 42
1000
0000
1000
0100
2000
0000
3002
0000
,  // measure 43
0103
0010
2000
0000
3001
0000
0001
0000
,  // measure 44
1000
0010
0100
0001
2000
0000
3020
0000
,  // measure 45
0031
1000
0200
0000
0301
0000
0001
0000
,  // measure 46
0001
0000
0001
0100
0002
0000
2003
0000
,  // measure 47
3100
0010
0002
0000
1003
0000
1000
0000
,  // measure 48
0001
0010
0100
1000
0001
0000
1000
1000
,  // measure 49
0001
0000
1001
0000
0001
0100
1000
0100
,  // measure 50
0001
0100
0010
1000
0010
1000
0001
0010
,  // measure 51
0011
0000
0110
0000
1100
0000
1001
0001
,  // measure 52
1000
0000
0010
0010
1000
0010
0100
0001
,  // measure 53
1000
0000
1001
0000
0001
0010
1000
0010
,  // measure 54
0001
0010
0100
1000
0001
0100
0010
1000
,  // measure 55
0001
1001
1010
1001
,  // measure 56
0011
0000
0110
0000
0100
1000
0001
0100
,  // measure 57
0010
0000
0010
0000
1000
0000
1010
0010
,  // measure 58
1000
0000
0000
1000
0002
0000
0000
0000
1003
0000
0100
0000
0001
0000
0100
0000
,  // measure 59
1000
0010
0001
0010
1010
0000
0110
0000
,  // measure 60
0101
0000
1001
1000
0200
0000
0310
0010
,  // measure 61
0001
0010
0100
1000
0001
0000
0011
0010
,  // measure 62
0100
0000
0000
0100
2000
0000
0000
0000
3001
0000
0010
0000
1000
0000
0010
0000
,  // measure 63
0001
0100
1000
0100
0001
0000
0011
0000
,  // measure 64
1010
0101
1100
0002
,  // measure 65
2003
0000
3020
0000
0230
0000
0302
0000
1003
0000
0000
1000
0100
0000
0000
0100
,  // measure 66
0010
0000
0000
0010
0001
0000
0000
0001
1000
0000
0000
1000
0010
0000
0000
0010
,  // measure 67
0200
0000
0301
0100
0001
1000
0200
0000
,  // measure 68
0320
0000
0031
0010
0200
0000
2300
0000
,  // measure 69
3002
0000
0103
0001
2000
0000
3010
1000
,  // measure 70
0200
0000
1300
0100
0020
0000
0032
0000
,  // measure 71
2003
0000
0000
0000
0000
0000
0000
0000
0000
0000
0000
0000
0000
0000
0000
0000
0000
0000
0000
0000
0000
0000
0000
0000
0000
0000
0000
0000
0000
0000
0000
0000
0000
0000
0000
0000
0000
0000
0000
0000
0000
0000
0000
0000
0000
0000
0000
0000
3010
0000
0000
0000
0000
0000
0000
0000
0000
0000
0000
0000
0000
0000
0000
0000
0000
0000
0000
0000
0000
0000
0000
0000
0100
0000
0000
0000
0000
0000
0000
0000
0000
0000
0000
0000
0000
0000
0000
0000
0000
0000
0000
0000
0000
0000
0000
0000
0001
0000
0000
0000
0000
0000
0000
0000
0000
0000
0000
0000
0000
0000
0000
0000
0000
0000
0000
0000
0000
0000
0000
0000
1000
0000
0000
0000
0000
0000
0000
0000
0000
0000
0000
0000
0000
0000
0000
0000
0000
0000
0000
0000
0000
0000
0000
0000
0200
0000
0000
0000
0000
0000
0000
0000
0010
0000
0000
0000
0001
0000
0000
0000
0000
0010
0000
0000
0000
0000
0000
0000
0001
0000
0000
0000
0010
0000
0000
0000
0000
0000
0001
0000
1000
0000
0000
0010
0000
0000
0000
0000
0000
0000
0000
0000
,  // measure 72
0001
0000
1000
0000
0000
0000
0000
0000
0001
0000
0000
0000
0000
0000
0000
0000
0000
0000
0000
0000
0000
0000
0000
0000
1000
0000
0000
0000
0000
0000
0000
0000
0010
0000
0000
0000
0001
0000
0000
0000
0000
0000
0000
0000
0001
0000
0000
0000
0000
0000
0000
0000
0000
0000
0000
0000
0001
0000
0000
0000
0000
0000
0000
0000
1000
0000
0000
0000
0010
0000
0000
0000
0300
0000
0000
0000
0001
0000
0010
0000
0000
0000
0000
0000
1000
0000
0000
0000
0010
0000
0000
0000
0000
0000
0000
0000
0001
0000
0000
0000
0000
0000
1000
0000
0000
0000
0000
0100
0001
0000
0000
0000
0000
0000
0010
0000
0000
0000
0000
0000
0000
0000
0000
0000
0000
0000
0000
0000
0000
0000
0100
0000
0001
0000
0000
0000
0000
0000
0000
0000
0000
1000
0000
0000
0000
0000
0000
0000
0000
0000
0000
0001
0000
0000
0000
0000
0000
0000
0000
0010
0000
0000
0000
0000
0000
0000
0000
0000
0000
0000
0000
0000
0000
0100
0000
0000
0000
0000
0000
1000
0000
0000
0000
0001
0000
0000
0000
0000
0000
0000
0000
0000
,  // measure 73
1000
0000
0000
0000
0000
0010
0000
0000
0100
0000
0000
0000
0000
0000
0000
0000
0000
0000
0000
0000
0000
0000
0000
0000
0000
0000
0000
0000
0000
0000
0010
0001
0000
0000
1000
0000
0100
0000
0000
0000
0000
0000
0000
0000
0000
0010
0000
0000
1000
0000
0000
0000
0000
0000
0000
0000
0000
0000
0000
0000
0000
0000
0000
0000
0000
0000
0000
0000
0000
0000
0000
0000
0000
0000
0000
0000
0000
0000
0000
0000
0000
0000
0000
0000
0000
0000
0000
0000
0000
0000
0000
0000
0000
0000
0000
0000
0000
0000
0000
0000
0000
0000
0000
0000
0000
0000
0000
0000
0000
0000
0000
0000
0000
0000
0000
0000
0000
0000
0000
0000
0000
0000
0000
0000
0000
0000
0000
0000
0000
0000
0000
0000
0000
0000
0000
0000
0000
0000
0000
0000
0000
0000
0000
0000
0000
0000
0000
0000
0000
0000
0000
0000
0000
0000
0000
0000
0000
0000
0000
0000
0000
0000
0000
0000
0000
0000
0000
0000
0000
0000
0000
0000
0000
0000
0000
0000
0000
0000
0000
0000
0000
0000
0000
0000
0000
0000
0000
0000
0000
0000
0000
0000
,  // measure 74
0000
0000
0000
0000
,  // measure 75
0000
0000
0000
0000
,  // measure 76
0000
0000
0000
0000
,  // measure 77
0000
0000
0000
0000
,  // measure 78
0000
0000
0000
0000
,  // measure 79
0000
0000
0000
0000
,  // measure 80
0000
0000
0000
0000
,  // measure 81
0000
0000
0000
0000
,  // measure 82
0000
0000
0000
0000
,  // measure 83
0000
0000
0000
0000
,  // measure 84
0000
0000
0000
0000
,  // measure 85
0000
0000
0000
0000
,  // measure 86
0000
0000
0000
0000
,  // measure 87
0200
0000
0000
0000
0000
0000
0000
0000
00M0
0000
0000
0000
000M
0000
0000
0000
0000
00M0
0000
0000
0000
0000
0000
0000
000M
0000
0000
0000
00M0
0000
0000
0000
0000
0000
000M
0000
M000
0000
0000
00M0
0000
0000
0000
0000
0000
0000
0000
0000
000M
0000
M000
0000
0000
0000
0000
0000
000M
0000
0000
0000
0000
0000
0000
0000
0000
0000
0000
0000
0000
0000
0000
0000
M000
0000
0000
0000
0000
0000
0000
0000
00M0
0000
0000
0000
000M
0000
0000
0000
0000
0000
0000
0000
000M
0000
0000
0000
0000
0000
0000
0000
0000
0000
0000
0000
000M
0000
0000
0000
0000
0000
0000
0000
M000
0000
0000
0000
00M0
0000
0000
0000
0300
0000
0000
0000
000M
0000
00M0
0000
0000
0000
0000
0000
M000
0000
0000
0000
00M0
0000
0000
0000
0000
0000
0000
0000
000M
0000
0000
0000
0000
0000
M000
0000
0000
0000
0000
0M00
000M
0000
0000
0000
0000
0000
00M0
0000
0000
0000
0000
0000
0000
0000
0000
0000
0000
0000
0000
0000
0000
0000
0M00
0000
000M
0000
0000
0000
0000
0000
0000
0000
0000
M000
0000
0000
,  // measure 88
0000
0000
0000
0000
0000
0000
0000
000M
0000
0000
0000
0000
0000
0000
0000
00M0
0000
0000
0000
0000
0000
0000
0000
0000
0000
0000
0000
0000
0000
0M00
0000
0000
0000
0000
0000
M000
0000
0000
0000
000M
0000
0000
0000
0000
0000
0000
0000
0000
M000
0000
0000
0000
0000
00M0
0000
0000
0M00
0000
0000
0000
0000
0000
0000
0000
0000
0000
0000
0000
0000
0000
0000
0000
0000
0000
0000
0000
0000
0000
00M0
000M
0000
0000
M000
0000
0M00
0000
0000
0000
0000
0000
0000
0000
0000
00M0
0000
0000
M000
0000
0000
0000
0000
0000
0000
0000
0000
0000
0000
0000
0000
0000
0000
0000
0000
0000
0000
0000
0000
0000
0000
0000
0000
0000
0000
0000
0000
0000
0000
0000
0000
0000
0000
0000
0000
0000
0000
0000
0000
0000
0000
0000
0000
0000
0000
0000
0000
0000
0000
0000
0000
0000
0000
0000
0000
0000
0000
0000
0000
0000
0000
0000
0000
0000
0000
0000
0000
0000
0000
0000
0000
0000
0000
0000
0000
0000
0000
0000
0000
0000
0000
0000
0000
0000
0000
0000
0000
0000
0000
0000
0000
0000
0000
0000
;

//---------------dance-single - ----------------
#NOTEDATA:;
#CHARTNAME:;
#STEPSTYPE:dance-single;
#DESCRIPTION:;
#CHARTSTYLE:;
#DIFFICULTY:Medium;
#METER:7;
#RADARVALUES:0.345362,0.504373,0.122795,0.130470,0.042211,315.000000,299.000000,16.000000,17.000000,17.000000,0.000000,0.000000,0.000000,1.000000,0.345362,0.504373,0.122795,0.130470,0.042211,315.000000,299.000000,16.000000,17.000000,17.000000,0.000000,0.000000,0.000000,1.000000;
#CREDIT:;
#DISPLAYBPM:150.000000;
#NOTES:
0000
0000
0000
0000
,
0000
0000
0000
0000
,
0000
0000
0000
0000
,
0000
0000
0000
0000
,
1000
0010
0100
0100
,
0001
0100
0001
0000
1000
0100
1000
0000
,
0001
0010
0100
0100
,
1000
0001
0200
0300
,
0010
1000
0010
0010
,
1000
0001
0010
0000
,
0100
0100
1000
1000
,
0001
0001
0100
0100
,
0010
1000
0001
0001
,
1000
0100
0010
0000
,
0001
0001
0010
0010
,
0100
1000
0001
0100
,
0010
0000
1000
1000
0000
0001
0001
0000
,
1000
0000
0001
0010
1000
0000
0010
0000
,
0001
0100
0100
0010
,
0010
1000
1000
0001
,
0010
0000
0100
0100
0000
1000
1000
0000
,
0001
0000
1000
0010
0001
0000
0010
0000
,
1000
0100
0100
0010
,
0010
0001
0002
0003
,
1000
0010
1010
0000
,
1000
0001
0011
0001
,
0010
0100
0010
0000
0100
1000
0100
0000
,
1000
0001
1001
0000
,
1000
0001
0101
0101
,
0001
1000
1100
1100
,
0100
0000
0010
0001
0010
0000
0001
1000
,
0001
0000
1000
0010
1000
0000
0001
1000
,
0001
0010
0100
0010
,
1000
0010
0001
0010
,
0100
0100
1000
1000
,
0001
0100
0010
0010
,
1000
0010
0100
0010
,
0001
0010
1000
0001
,
0010
0000
0100
0000
1000
0100
1000
0000
,
0100
0000
1000
0000
0001
0100
0001
0000
,
1001
0000
1000
0010
,
0100
0100
0001
0010
,
1000
0000
0010
0001
1000
0000
0010
0000
,
0100
0100
0001
0100
,
1000
0100
0001
1000
0001
0000
0010
0000
,
0100
0100
1000
0100
,
0001
0000
0100
1000
0100
0000
0010
0000
,
0001
0100
0010
0000
1000
0000
0010
0000
,
0001
0010
1000
0010
0100
0000
0001
1000
,
0001
0000
0010
0000
0100
1000
0100
0010
,
0001
0100
0010
0010
,
1000
1000
1000
1000
,
0001
0000
0001
0000
1000
0001
1000
0100
,
0010
0000
0001
0000
1000
0010
0100
0001
,
0100
0010
1000
0001
,
1000
0100
0100
0010
,
0010
0000
0001
0001
0000
1000
1000
0000
,
2002
3003
0201
0310
,
1200
0310
0021
0100
,
1000
0130
0012
0010
,
0010
0013
2010
0010
,
3010
1000
0010
0100
0001
0000
0101
0000
,
0001
1000
0001
1000
0100
0000
0010
0000
,
0001
0000
1000
0001
1000
0000
0010
0000
,
0010
1000
1000
0001
,
0010
0100
1000
0000
2002
0000
3003
0000
,
0000
0000
0000
0000
,
0001
0010
0100
0100
,
1000
0001
0100
0100
,
0020
0000
0130
0001
2000
0000
3100
0010
,
0002
0000
1003
0010
0200
0000
0302
0000
,
1003
0000
0100
0010
0001
1000
0002
0000
,
0000
0000
0000
0003
0000
0000
0000
0000
,
0000
0000
0000
0000
,
0000
0000
0000
0000
,
0000
0000
0000
0000
,
0000
0000
0000
0000
,
0000
0000
0000
0000
,
0000
0000
0000
0000
,
0000
0000
0000
0000
,
0000
0000
0000
0000
,
0000
0000
0000
0000
,
0000
0000
0000
0000
,
0000
0000
0000
0000
,
0000
0000
0000
0000
,
0000
0000
0000
0000
,
0000
0000
0000
0000
,
00M2
0M00
M000
0000
0000
0000
0000
0000
0MM0
0000
0000
M000
00M0
0000
0M00
0000
M000
00M0
0000
0000
0MM0
0000
M000
0000
00M0
0000
0M00
0000
M000
0000
00M3
0000
0000
0000
0000
0000
0000
0000
0000
0000
0000
0000
0000
0000
0000
0000
0000
0000
;

//---------------dance-single - ----------------
#NOTEDATA:;
#CHARTNAME:;
#STEPSTYPE:dance-single;
#DESCRIPTION:;
#CHARTSTYLE:;
#DIFFICULTY:Easy;
#METER:4;
#RADARVALUES:0.237916,0.336248,0.038374,0.000000,0.000000,217.000000,212.000000,5.000000,0.000000,5.000000,0.000000,0.000000,0.000000,1.000000,0.237916,0.336248,0.038374,0.000000,0.000000,217.000000,212.000000,5.000000,0.000000,5.000000,0.000000,0.000000,0.000000,1.000000;
#CREDIT:;
#DISPLAYBPM:150.000000;
#NOTES:
0000
0000
0000
0000
,
0000
0000
0000
0000
,
0000
0000
0000
0000
,
0000
0000
0000
0000
,
1000
0010
1000
1000
,
0001
0001
1000
1000
,
0001
0010
0001
0001
,
1000
0001
1000
0000
,
0001
0100
0010
0000
,
1000
0100
0010
0000
,
0001
0000
0001
0000
,
1000
0000
1000
0000
,
0010
0100
0001
0000
,
0010
0100
1000
0000
,
0001
0000
0001
0000
,
1000
0000
1000
0000
,
0010
1000
0010
0010
,
0100
0001
0100
0000
,
0001
0000
0001
0000
,
1000
0000
1000
0000
,
0001
0010
0100
0100
,
0010
0100
1000
0000
,
0001
0000
0001
0000
,
1000
0000
1000
0000
,
0010
0010
0010
0000
,
0100
0100
0100
0000
,
0001
0000
0001
0000
,
1000
1000
1000
0000
,
0001
0010
0001
0001
,
1000
0010
1000
1000
,
0010
0100
0001
0000
,
1000
0000
0100
0000
,
0010
0010
0010
0010
,
0001
0001
0001
0000
,
1000
0000
1000
0000
,
0001
0000
0001
0000
,
0010
0010
0010
0010
,
0100
0100
0100
0000
,
1000
0000
1100
0000
,
0001
0000
0101
0000
,
1001
0000
1000
0010
,
0100
0001
1000
1000
,
1000
1000
0100
0010
,
0001
0100
0010
0010
,
1000
1000
0001
0010
,
0100
1000
0001
0001
,
0001
0001
1000
0001
,
0100
0010
1000
1000
,
0001
0001
0010
0100
,
1000
1000
0100
1000
,
0000
0001
0001
1000
,
1000
0001
1000
0001
,
0100
0010
0100
0010
,
0100
0010
1000
1000
,
0000
0010
1000
0001
,
0010
0100
0100
1000
,
1000
0001
0000
1000
,
1000
0000
0001
0100
,
0001
0101
0000
1000
,
0010
1000
0010
0010
,
0010
0010
1000
1000
,
1000
1000
0001
0010
,
0100
1100
0000
1000
,
0100
0010
0001
1000
,
1000
0010
0010
0100
,
0001
1000
0100
0000
,
0000
0000
0000
0000
,
0010
0000
0010
0000
,
0001
0001
0001
0000
,
1000
0000
0001
0000
,
1000
0000
0001
0000
,
0010
0010
0100
0F00
,
0000
0000
0000
0000
,
0000
0000
0000
0000
,
0000
0000
0000
0000
,
0000
0000
0000
0000
,
0000
0000
0000
0000
,
0000
0000
0000
0000
,
0000
0000
0000
0000
,
0000
0000
0000
0000
,
0000
0000
0000
0000
,
0000
0000
0000
0000
,
0000
0000
0000
0000
,
0000
0000
0000
0000
,
0000
0000
0000
0000
,
0000
0000
0000
0000
,
0000
0000
0000
0000
,
0100
0M00
0M00
0M00
0M00
0M00
0000
0000
;

//---------------dance-single - ----------------
#NOTEDATA:;
#CHARTNAME:;
#STEPSTYPE:dance-single;
#DESCRIPTION:;
#CHARTSTYLE:;
#DIFFICULTY:Beginner;
#METER:2;
#RADARVALUES:0.122795,0.233695,0.000000,0.000000,0.000000,112.000000,112.000000,0.000000,0.000000,0.000000,0.000000,0.000000,0.000000,1.000000,0.122795,0.233695,0.000000,0.000000,0.000000,112.000000,112.000000,0.000000,0.000000,0.000000,0.000000,0.000000,0.000000,1.000000;
#CREDIT:;
#DISPLAYBPM:150.000000;
#NOTES:
0000
0000
0000
0000
,
0000
0000
0000
0000
,
0000
0000
0000
0000
,
0000
0000
0000
0000
,
0001
0000
0001
0000
,
0010
0000
0010
0000
,
0100
0000
0100
0000
,
1000
0000
1000
0000
,
0001
0000
0000
0000
,
0001
0000
0000
0000
,
0100
0000
0100
0000
,
0100
0000
0000
0000
,
0010
0000
0000
0000
,
0010
0000
0000
0000
,
1000
0000
1000
0000
,
1000
0000
0000
0000
,
0001
0000
0000
0000
,
1000
0000
0000
0000
,
0100
0000
0100
0000
,
0100
0000
0000
0000
,
1000
0000
0000
0000
,
0001
0000
0000
0000
,
0100
0000
0100
0000
,
0100
0000
0000
0000
,
0010
0000
0000
0000
,
0010
0000
0000
0000
,
1000
0000
1000
0000
,
0001
0000
0001
0000
,
0010
0000
0000
0000
,
0010
0000
0000
0000
,
0100
0000
0100
0000
,
1000
0000
1000
0000
,
0001
0000
0000
0000
,
0001
0000
0000
0000
,
1000
0000
1000
0000
,
1000
0000
0000
0000
,
0010
0000
0000
0000
,
0010
0000
0000
0000
,
0100
0000
0100
0000
,
0010
0000
0010
0000
,
0100
0000
0100
0000
,
0000
0000
0001
0000
,
0000
0000
1000
0000
,
1000
0000
0001
0000
,
0001
0000
0010
0000
,
0000
0000
0100
0000
,
0000
0000
1000
0000
,
1000
0000
0001
0000
,
0001
0000
0000
0000
,
0100
0000
0000
0000
,
0010
0000
0010
0000
,
1000
1000
1000
0000
,
0001
0001
0001
0000
,
0010
0000
0000
0000
,
0100
0000
0100
0000
,
1000
1000
1000
0000
,
0001
0001
0001
0000
,
0000
0000
1000
0000
,
1000
0000
0010
0010
,
0010
0000
0100
0000
,
0001
0000
1000
1000
,
1000
0000
0001
0000
,
0001
0000
0010
0010
,
0010
0000
0100
0000
,
1000
1000
1000
0000
,
0001
0001
0001
0000
,
0000
0000
0000
0000
,
1000
0000
0000
0000
,
1000
0000
0000
0000
,
0010
0000
0010
0000
,
0010
0000
0000
0000
,
0100
0000
0100
0100
,
0000
0000
0000
0000
,
0000
0000
0000
0000
,
0000
0000
0000
0000
,
0000
0000
0000
0000
,
0000
0000
0000
0000
,
0000
0000
0000
0000
,
0000
0000
0000
0000
,
0000
0000
0000
0000
,
0000
0000
0000
0000
,
0000
0000
0000
0000
,
0000
0000
0000
0000
,
0000
0000
0000
0000
,
0000
0000
0000
0000
,
0000
0000
0000
0000
,
0000
0000
0000
0000
,
0100
0000
0000
0000
;
