#TITLE:Apocalypse;
#SUBTITLE:;
#ARTIST:The Qemists;
#TITLETRANSLIT:;
#SUBTITLETRANSLIT:;
#ARTISTTRANSLIT:;
#GENRE:;
#CREDIT:;
#BANNER:;
#BACKGROUND:;
#LYRICSPATH:;
#CDTITLE:;
#MUSIC:The Qemists - Apocalypse Feat. Rob of The Automatic.mp3;
#OFFSET:-0.348000;
#SAMPLESTART:55.993000;
#SAMPLELENGTH:12.000000;
#SELECTABLE:YES;
#DISPLAYBPM:140.000000;
#BPMS:0.000000=140.000000
;
#STOPS:128.000000=-3.428571
;
#BGCHANGES:;
#KEYSOUNDS:;
#ATTACKS:;

//---------------dance-single - ----------------
#NOTES:
     dance-single:
     :
     Challenge:
     11:
     0.372267,0.494525,0.070630,0.029739,0.425638,701.000000,682.000000,19.000000,8.000000,0.000000,0.000000,0.372267,0.494525,0.070630,0.029739,0.425638,701.000000,682.000000,19.000000,8.000000,0.000000,0.000000:
0000
0000
0000
0000
,
0001
1000
0001
0000
0100
0000
0001
0010
0000
0010
0001
0000
0100
0010
0000
1000
,
0010
0100
0010
0000
0100
0000
0001
0100
0000
0100
0001
0000
0001
0100
0000
0100
,
0010
1000
0010
0000
0100
0000
0001
1000
0000
1000
0001
0000
0100
0010
0000
1000
,
0020
0000
1030
2000
0000
3001
0002
0000
,
0023
0000
0130
0200
0000
1300
1000
0000
,
0001
0000
0000
0100
0000
0000
0010
0000
,
0400
0040
0000
0000
0000
0000
0000
0000
0000
0000
0000
0000
0330
0000
0000
0000
,
0110
0000
0010
0000
0000
0000
1000
0000
1001
0000
0001
0000
0100
0010
0100
0001
,
0100
0010
1000
0000
0001
1000
0000
0000
1010
0000
0010
0000
0000
0000
0100
0000
,
0001
0100
0010
0000
1000
0000
0010
1000
1010
0000
0010
0000
0100
0001
0000
0100
,
0010
1000
0100
0000
0010
0000
0001
1000
1001
0000
0001
0000
1000
0100
1000
0001
,
1000
0010
0100
0000
0001
0000
1000
0010
1010
0000
0010
0000
0100
0001
0100
0010
,
1000
0100
0010
0000
0001
1000
0000
0010
1010
0000
0010
0000
0100
0001
0100
0001
,
0100
0010
0100
0000
0001
0000
1000
0001
1001
0000
1000
0000
0100
0000
0010
0000
,
0110
0000
0010
0001
0010
0000
0100
1000
0100
0000
0010
0001
0010
0000
0100
0000
,
1100
0000
1000
0001
0100
0010
1000
0100
0010
0000
0004
0000
0000
0000
0000
0000
,
1003
0000
0010
0100
0010
0100
0010
1000
0001
0000
0400
0000
0000
0000
0000
0000
,
0310
0000
1000
0001
0100
0010
1000
0100
0010
0000
0004
0000
0000
0000
0000
0000
,
0103
0000
0010
1000
0100
0010
0001
0100
0020
0000
0000
0000
0000
0000
0000
0000
,
1030
0000
0001
0100
0010
1000
0010
0100
0001
0000
4000
0000
0000
0000
0000
0000
,
3100
0000
0010
0001
0010
0100
1000
0001
0100
0000
0040
0000
0000
0000
0000
0000
,
1030
0000
0001
0100
0010
1000
0100
0010
0001
0000
0400
0000
0000
0000
0000
0000
,
0301
0000
0010
0100
1000
0000
0001
0100
0040
0000
0000
0000
0000
0000
0000
0000
,
0130
0001
0100
0000
0010
0000
1000
0010
0000
0010
0100
0000
0001
0000
0000
0000
,
1000
0010
1000
0000
0001
0000
0100
0000
0010
1000
0010
1000
0010
1000
0010
1000
,
0010
0000
0100
0000
0001
0000
0100
0000
0010
1000
0010
1000
0010
1000
0010
1000
,
0010
0100
0001
0100
0010
1000
0100
0010
0001
0010
0100
1000
0001
0100
0010
1000
,
0001
0100
0010
1000
0100
0010
0100
1000
0001
0100
0010
1000
0100
0010
0001
0100
,
0010
1000
0001
0100
0010
1000
0100
0010
0001
0010
0100
0010
0001
0100
0010
1000
,
0001
0100
0010
1000
0100
0010
0100
0010
0100
1000
0001
0100
0010
1000
0100
0010
,
0100
0100
0001
0001
0100
0100
0101
0000
,
M000
0000
000M
0000
M000
0000
000M
0000
0000
0M00
0000
0000
00M0
0000
0000
0M00
0000
0000
00M0
0000
0000
M000
0000
0000
,
0M00
00M0
000M
0M00
00M0
0000
0000
0000
,
1000
0000
0001
0000
1000
0000
0001
0000
0000
0100
0000
0000
0010
0000
0000
0100
0000
0000
0010
0000
0000
1000
0000
0000
,
0100
0010
0001
0100
0010
1000
0001
0000
,
000M
0000
0M00
0000
000M
0000
0M00
0000
0000
00M0
0000
0000
M000
0000
0000
0M00
0000
0000
00M0
0000
0000
000M
0000
0000
,
0M00
00M0
M000
000M
M000
00M0
0M00
0000
,
0001
0000
0100
0000
0001
0000
0100
0000
0000
0010
0000
0000
1000
0000
0000
0100
0000
0000
0010
0000
0000
0001
0000
0000
,
0100
0010
1000
0001
1000
0010
0100
0000
,
000M
0000
0M00
0000
00M0
0000
0M00
0000
0000
000M
0000
0000
0M00
0000
0000
00M0
0000
0000
M000
0000
0000
000M
0000
0000
,
0M00
00M0
M000
000M
0M00
00M0
0000
0000
,
0001
0000
0100
0000
0010
0000
0100
0000
0000
0001
0000
0000
0100
0000
0000
0010
0000
0000
1000
0000
0000
0001
0000
0000
,
0100
0010
1000
0001
0100
0010
1000
0000
,
000M
0000
M000
0000
000M
0000
M000
0000
0000
00M0
0000
0000
0M00
0000
0000
000M
0000
0000
0M00
0000
0000
00M0
0000
0000
,
M000
0M00
00M0
000M
0M00
00M0
0000
0000
,
0001
0000
1000
0000
0001
0000
1000
0000
0000
0010
0000
0000
0100
0000
0000
0001
0000
0000
0100
0000
0000
0010
0000
0000
,
1000
0100
0010
0001
0100
0010
1000
0000
,
0001
0000
1000
0000
0001
0000
1000
0000
0000
1000
0000
0000
0010
0000
0000
0010
0000
0000
0100
0000
0000
0100
0000
0000
,
0001
0001
0100
0100
0010
0010
1000
0000
,
0001
0000
0100
0000
0010
0000
1000
0000
0000
1000
0000
0000
0010
0000
0000
0010
0000
0000
0100
0000
0000
0100
0000
0000
,
0001
0001
0100
0100
0010
0010
1000
0000
,
0001
0000
0100
0000
0010
0000
1000
0000
0000
0100
0000
0000
0001
0000
0000
0100
0000
0000
1000
0000
0000
0010
0000
0000
,
0001
0010
1000
0100
0001
0100
1000
0000
,
0001
0000
0100
0000
0010
0000
1000
0000
0000
0001
0000
0000
0100
0000
0000
0010
0000
0000
1000
0000
0000
0100
0000
0000
,
0010
0001
0100
0010
1000
0100
0010
0000
,
0001
0000
1000
0000
0001
0000
4000
0000
0000
0000
0000
0000
0000
0000
0000
3000
0000
0000
0040
0000
0000
0000
0000
0000
,
0000
0030
0400
0000
0000
0000
0301
0000
,
0010
0000
1000
0000
0010
0000
0400
0000
0000
0000
0000
0000
0000
0000
0000
0300
0000
0000
0004
0000
0000
0000
0000
0000
,
0000
0003
0400
0000
0000
0000
0310
0000
,
1000
0000
0001
0000
1000
0000
0040
0000
0000
0000
0000
0000
0000
0000
0000
0030
0000
0000
0400
0000
0000
0000
0000
0000
,
0000
0300
0004
0000
0000
0000
0013
0000
,
1000
0000
0001
0000
1000
0000
0001
0000
0000
0001
0000
0000
0100
0000
0000
0100
0000
0000
0010
0000
0000
0010
0000
0000
,
1000
0001
0100
0010
0000
1000
1010
0000
,
1000
0001
1000
0000
0010
0000
1000
0100
1000
0001
0100
0010
1000
0100
0010
0001
,
0100
0010
1000
0001
0100
0010
1000
0001
0100
0010
1000
0001
0100
0010
1000
0010
,
0100
0001
0100
0000
1010
0000
1000
0001
0100
0010
1000
0100
0010
0001
0010
0100
,
1000
0001
0100
0010
1000
0100
0010
0100
1000
0001
0100
0010
1000
0001
0100
0000
,
0010
1000
0001
0000
1001
0000
1000
0001
0100
0010
1000
0100
0010
0001
0010
0100
,
1000
0001
0100
0010
1000
0100
0010
0001
0010
0100
1000
0001
1000
0100
0010
0000
,
0001
0000
1000
0000
0001
0000
1000
0000
0000
1000
0000
0000
0010
0000
0000
0010
0000
0000
0100
0000
0000
0100
0000
0000
,
0001
0000
0000
0000
0000
0000
0001
0000
0000
0000
0000
0000
0100
0000
0000
0000
0000
0000
0100
0000
0000
0000
0000
0000
0001
0000
0000
0000
0000
0000
1000
0000
0001
0000
0100
0000
0010
0000
0000
1000
0000
0000
0010
0000
0000
0100
0000
0000
,
0001
0010
0001
0000
1001
0000
1000
0010
0100
0001
0100
0010
1000
0100
0010
0001
,
0010
0100
1000
0001
0100
0010
1000
0100
0010
0001
0100
0010
1000
0010
1000
0000
,
0001
0100
0010
0000
1010
0000
1000
0001
0100
0010
1000
0100
0010
0001
0010
0100
,
1000
0001
0100
0010
1000
0100
0010
0100
1000
0001
0100
0010
0100
0001
0100
0000
,
0010
1000
0010
0000
1010
0000
1000
0001
0100
0010
1000
0100
0010
0001
0010
0100
,
0010
0001
0100
0010
1000
0100
0010
0100
1000
0001
0100
0010
1000
0100
0010
0001
,
0100
0000
0010
0000
1000
0000
0010
0000
0000
0010
0000
0000
0100
0000
0000
0100
0000
0000
0001
0000
0000
0001
0000
0000
,
1000
0000
0000
0010
0000
0010
1001
0000
,
2002
0000
0000
0000
0000
3003
0000
0000
;

//---------------dance-single - ----------------
#NOTES:
     dance-single:
     :
     Hard:
     9:
     0.277209,0.329683,0.040891,0.048326,0.083641,522.000000,511.000000,11.000000,13.000000,0.000000,0.000000,0.277209,0.329683,0.040891,0.048326,0.083641,522.000000,511.000000,11.000000,13.000000,0.000000,0.000000:
0000
0000
0000
0000
,
0001
0000
0100
0000
,
0010
0000
1000
0000
,
0020
0000
1030
0020
0000
0130
0001
0000
,
2000
0000
3010
0020
0000
0130
0200
0000
,
0320
0000
0130
0200
0000
0301
0001
0000
,
1000
0000
0000
0010
0000
0000
1000
0000
,
0220
0000
0000
0330
,
1001
0001
0000
0001
0010
0001
0000
0100
,
0000
0100
0000
0010
1000
0001
0000
0001
,
1000
0010
0100
0000
0101
0000
0010
0000
,
1000
0010
1000
0000
0001
0000
0100
0000
,
0010
1000
0001
0000
0101
0000
0001
0000
,
0010
0001
0010
0000
1001
0000
0001
0000
,
0100
0001
0100
0010
1010
1000
0100
0010
,
0001
0000
0010
0001
0010
0000
0100
1000
0100
0000
0010
0001
0010
0000
0100
0000
,
1100
1000
0100
1000
0001
1000
1000
1000
,
0010
0100
0001
0100
0001
0100
0100
0100
,
0010
1000
0100
1000
0010
0100
0100
0100
,
0001
0010
0100
1000
0200
0000
0000
0000
,
1300
0001
0010
0010
0001
1000
1000
1000
,
0100
0010
0100
1000
0100
0010
0010
0010
,
0100
1000
1000
0100
0001
0100
0100
0100
,
0010
0001
1000
0001
0020
0000
0000
0000
,
0130
0100
0010
0000
1000
0000
0001
0000
,
0100
0000
0010
0000
1000
0010
1000
0010
,
1000
0000
0001
0000
0100
0010
0100
0010
,
1000
0001
1000
0001
0100
0010
0100
0010
,
1000
0100
1000
0100
0010
0001
0010
0001
,
0100
0010
0100
0010
1000
0100
0010
0001
,
0100
0010
1000
0010
1000
0010
1000
0001
,
0100
0100
0001
0001
0100
0100
0101
0000
,
M000
0000
000M
0000
M000
0000
000M
0000
0000
0M00
0000
0000
00M0
0000
0000
0M00
0000
0000
00M0
0000
0000
M000
0000
0000
,
0M00
00M0
000M
0M00
00M0
0000
0000
0000
,
1000
0000
0001
0000
1000
0000
0001
0000
0000
0100
0000
0000
0010
0000
0000
0100
0000
0000
0010
0000
0000
1000
0000
0000
,
0100
0010
0001
0100
0010
1000
0001
0000
,
000M
0000
0M00
0000
000M
0000
0M00
0000
0000
00M0
0000
0000
M000
0000
0000
0M00
0000
0000
00M0
0000
0000
000M
0000
0000
,
0M00
00M0
M000
000M
M000
00M0
0M00
0000
,
0001
0000
0100
0000
0001
0000
0100
0000
0000
0010
0000
0000
1000
0000
0000
0100
0000
0000
0010
0000
0000
0001
0000
0000
,
0100
0010
1000
0001
1000
0010
0100
0000
,
000M
0000
0M00
0000
00M0
0000
0M00
0000
0000
000M
0000
0000
0M00
0000
0000
00M0
0000
0000
M000
0000
0000
000M
0000
0000
,
0M00
00M0
M000
000M
0M00
00M0
0000
0000
,
0001
0000
0100
0000
0010
0000
0100
0000
0000
0001
0000
0000
0100
0000
0000
0010
0000
0000
1000
0000
0000
0001
0000
0000
,
0100
0010
1000
0001
0100
0010
1000
0000
,
000M
0000
M000
0000
000M
0000
M000
0000
0000
00M0
0000
0000
0M00
0000
0000
000M
0000
0000
0M00
0000
0000
00M0
0000
0000
,
M000
0M00
00M0
000M
0M00
00M0
0000
0000
,
0001
0000
1000
0000
0001
0000
1000
0000
0000
0010
0000
0000
0100
0000
0000
0001
0000
0000
0100
0000
0000
0010
0000
0000
,
1000
0100
0010
0001
0100
0010
1000
0000
,
0001
0000
1000
0000
0001
0000
1000
0000
0000
1000
0000
0000
0010
0000
0000
0010
0000
0000
0100
0000
0000
0100
0000
0000
,
0001
0001
0100
0100
0010
0010
1000
0000
,
0001
0000
0100
0000
0010
0000
1000
0000
0000
1000
0000
0000
0010
0000
0000
0010
0000
0000
0100
0000
0000
0100
0000
0000
,
0001
0001
0100
0100
0010
0010
1000
0000
,
0001
0000
0100
0000
0010
0000
1000
0000
0000
0100
0000
0000
0001
0000
0000
0100
0000
0000
1000
0000
0000
0010
0000
0000
,
0001
0010
1000
0100
0001
0100
1000
0000
,
0001
0000
0100
0000
0010
0000
1000
0000
0000
0001
0000
0000
0100
0000
0000
0010
0000
0000
1000
0000
0000
0100
0000
0000
,
0010
0001
0100
0010
1000
0100
0010
0000
,
0001
0000
1000
0000
0001
0000
1000
0000
0000
0010
0000
0000
1000
0000
0000
0010
0000
0000
0100
0000
0000
0001
0000
0000
,
0100
0001
0100
0010
0100
0010
0100
0000
,
0010
0000
1000
0000
0010
0000
0100
0000
0000
0010
0000
0000
0100
0000
0000
0010
0000
0000
0100
0000
0000
0001
0000
0000
,
0100
0001
0100
0010
0100
0010
0100
0000
,
0001
0000
0010
0000
0100
0000
0010
0000
0000
0100
0000
0000
0010
0000
0000
0100
0000
0000
1000
0000
0000
0001
0000
0000
,
1000
0001
0010
0001
0010
0001
0010
0000
,
1000
0000
0001
0000
1000
0000
0001
0000
0000
0001
0000
0000
0100
0000
0000
0100
0000
0000
0010
0000
0000
0010
0000
0000
,
1000
0001
0100
0010
0000
1000
1010
0000
,
1000
0001
1000
0000
0010
0000
0100
0000
0001
0000
1000
0000
0100
0000
0010
0000
,
0001
0100
0010
1000
0100
0010
0001
0100
,
0010
1000
0010
0000
0100
0000
0001
0000
0010
0000
0100
0000
1000
0000
0100
0000
,
0010
0001
0100
0010
1000
0100
0010
0001
,
0010
0100
0010
0000
0100
0000
0010
0000
0001
0000
0100
0000
1000
0000
0100
0000
,
0001
0100
0010
1000
0100
0001
0100
1000
,
0001
0000
1000
0000
0001
0000
1000
0000
0000
1000
0000
0000
0010
0000
0000
0010
0000
0000
0100
0000
0000
0100
0000
0000
,
0001
0001
0100
0100
0001
0100
0010
0100
,
0001
0010
0001
0000
1000
0000
0100
0000
0001
0000
0100
0000
1000
0000
0001
0000
,
0010
1000
0010
0001
0100
0010
1000
0001
,
0100
0010
0100
0000
0001
0000
0100
0000
0010
0000
1000
0000
0100
0000
0001
0000
,
0100
1000
0010
0001
0010
1000
0100
0010
,
0100
1000
0100
0000
0010
0000
0001
0000
0100
0000
1000
0000
0100
0000
0001
0000
,
0010
1000
0010
0001
0100
0010
1000
0001
,
0100
0000
0010
0000
1000
0000
0010
0000
0000
0100
0000
0000
0001
0000
0000
0010
0000
0000
1000
0000
0000
0010
0000
0000
,
0001
0000
0000
0010
0000
0010
1001
0000
,
2002
0000
0000
0000
0000
3003
0000
0000
;

//---------------dance-single - ----------------
#NOTES:
     dance-single:
     :
     Medium:
     7:
     0.200738,0.254755,0.092934,0.037174,0.014869,378.000000,353.000000,25.000000,10.000000,0.000000,0.000000,0.200738,0.254755,0.092934,0.037174,0.014869,378.000000,353.000000,25.000000,10.000000,0.000000,0.000000:
0000
0000
0000
0000
,
0001
0000
0100
0000
,
0010
0000
1000
0000
,
0001
0000
0100
0000
,
0010
0000
1000
0000
,
0020
0000
0230
0000
,
0302
0000
1003
1000
,
0220
0000
0000
0330
,
1001
0001
0000
0100
0000
0010
0000
1000
,
0000
0010
0000
0100
0000
0001
0000
0010
,
0000
0000
1001
0000
,
0010
0000
1001
0000
,
0001
1000
0000
0010
0000
0100
0000
0001
,
0000
0010
0000
0100
0000
1000
0000
0001
,
0000
0000
0100
0010
0000
1000
0010
0100
,
0010
1010
0101
0011
,
1001
0001
0000
0100
0000
0010
0000
1000
,
0000
0010
0000
0100
0000
0001
0000
0010
,
0000
0000
1001
0000
,
0001
0000
0220
0330
,
1001
0001
0000
0100
0000
0010
0000
1000
,
0000
0010
0000
0100
0000
0001
0000
0100
,
0000
0000
0010
1000
0000
0010
0100
0010
,
0100
0011
0110
1100
,
1000
0100
0010
0000
0001
0000
0010
0000
,
0100
0000
1000
0000
0010
1000
0010
1000
,
0010
0000
1000
0000
0001
0100
0001
0100
,
0001
0000
0100
0000
0010
0100
0010
0100
,
0010
0000
1000
0000
0001
0010
0001
0000
,
1000
0100
1000
0000
0010
0100
0010
0000
,
0100
0001
0100
0000
0010
1000
0010
0000
,
1010
0000
0000
0101
,
M000
0000
000M
0000
000M
0M00
00M0
0000
,
M000
000M
M000
00M0
M000
0000
0000
0000
,
1000
0000
0001
0000
0001
0100
0010
0000
,
1000
0001
1000
0010
1000
0000
0000
0000
,
000M
0000
00M0
0000
0M00
M000
0M00
0000
,
00M0
000M
00M0
000M
M000
0000
0000
0000
,
0001
0000
0010
0000
0100
1000
0100
0000
,
0010
0001
0010
0001
1000
0000
0000
0000
,
000M
0000
M000
0000
000M
0M00
000M
0000
,
M000
00M0
M000
00M0
M000
0000
0000
0000
,
0001
0000
1000
0000
0001
0100
0001
0000
,
0010
1000
0010
1000
0010
0000
0000
0000
,
000M
0000
M000
0000
0M00
00M0
0M00
0000
,
M000
0M00
00M0
000M
0M00
0000
0000
0000
,
0001
0000
1000
0000
0100
0010
0100
0000
,
1000
0100
0010
0001
0100
0000
0000
0000
,
0001
1000
0001
1000
0000
0000
0010
0000
0000
0100
0000
0000
,
0001
0010
0100
1000
,
0100
0010
0100
0010
0000
0000
0000
0000
0000
1000
0000
0000
,
0010
0110
0100
0001
,
0010
0001
0010
0001
0000
0000
0010
0000
0000
0011
0000
0000
,
0001
0100
0010
1000
,
0010
1000
0010
1000
0000
0000
0001
0000
0000
0000
0000
0000
,
0002
0000
0000
0103
,
0010
0000
1000
0000
0010
0100
0010
0100
,
0010
1000
0010
1000
0010
1000
0000
0000
,
0001
0000
0101
0000
0001
0100
0001
0100
,
0010
1000
0010
1000
0010
0100
0001
0000
,
0010
0000
0110
0000
0100
1000
0100
1000
,
0001
0100
0010
1000
0010
0100
0010
0000
,
1000
0000
1001
0000
0001
0100
0001
0010
,
0001
0000
0000
1010
,
1000
0100
1000
0100
1000
0100
1000
0100
,
0010
0100
0010
0100
0010
0100
0010
0100
,
0010
0001
0010
0001
0010
0001
0010
0001
,
0100
0001
0100
0001
0100
0001
0100
0001
,
0100
0010
0100
0010
0100
0010
0100
0010
,
1000
0010
1000
0010
1000
0010
1000
0010
,
1000
0000
0001
0000
0100
0100
0100
0000
,
0010
0010
0010
0000
1000
0000
1001
0000
,
1000
0100
0010
0001
1000
0100
0010
0001
,
1000
0100
0010
0001
1000
0100
0010
0001
,
1000
0010
0100
0001
1000
0010
0100
0001
,
1000
0010
0100
0001
1000
0010
0100
0010
,
1000
0100
0010
0001
0100
0010
1000
0010
,
0100
0001
0010
0100
1000
0001
0010
0100
,
1000
0001
0100
0010
,
0001
0000
0000
0010
0000
0010
1001
0000
,
2002
0000
0000
0000
0000
3003
0000
0000
;

//---------------dance-single - ----------------
#NOTES:
     dance-single:
     :
     Easy:
     4:
     0.125328,0.164842,0.085499,0.052043,0.000000,236.000000,213.000000,23.000000,14.000000,0.000000,0.000000,0.125328,0.164842,0.085499,0.052043,0.000000,236.000000,213.000000,23.000000,14.000000,0.000000,0.000000:
0000
0000
0000
0000
,
0000
0000
0000
0000
,
0000
0000
0000
0000
,
1000
0000
0001
0000
,
0100
0000
0010
0000
,
1000
0000
0010
0000
,
0200
0300
0002
0003
,
0020
0000
0000
0030
,
0001
0000
1001
0000
,
0100
0000
0110
0000
,
0010
0000
1001
0000
,
0010
0000
0110
0000
,
0001
0000
1001
0000
,
0100
0000
0110
0000
,
0010
0000
1001
0000
,
1000
1000
1000
1000
,
1001
0000
1001
0000
,
0010
0000
1000
1000
,
1001
0000
0110
0010
,
1000
0001
0220
0330
,
0001
0010
0011
0000
,
1000
0001
1001
0000
,
0100
0010
0110
0100
,
0010
0010
0010
0010
,
1001
0001
0100
0010
,
1000
0100
0010
0010
,
0010
0001
0100
0100
,
0100
0010
1000
0100
,
0010
0001
0100
0010
,
1000
0001
0100
0010
,
1000
0100
0010
0001
,
1001
0000
0000
0101
,
M000
000M
M000
000M
,
0M00
00M0
M000
000M
,
1000
0001
1000
0001
,
0100
0010
1000
0001
,
000M
0M00
00M0
M000
,
000M
0M00
00M0
M000
,
0001
0100
0010
1000
,
0001
0100
0010
1000
,
000M
0M00
00M0
M000
,
0M00
00M0
000M
0M00
,
0001
0100
0010
1000
,
0100
0010
0001
0100
,
000M
0M00
00M0
M000
,
000M
0M00
00M0
M000
,
0001
0100
0010
1000
,
0001
0100
0010
1000
,
0001
1000
0010
0100
,
0001
0010
0100
1000
,
0100
0010
0000
1000
,
0010
0110
0100
0001
,
0010
0001
0010
0011
,
0001
0100
0010
1000
,
0010
1000
0001
0000
,
0002
0000
0000
0103
,
0010
1000
0001
0100
,
0010
1000
0100
0000
,
0010
0001
0100
0010
,
1000
0001
0010
0000
,
0001
1000
0010
0100
,
0001
0010
0100
0000
,
1000
0001
0100
0010
,
1000
0000
0000
1001
,
0002
0000
0000
0000
,
0203
0000
0000
0000
,
0320
0000
0000
0000
,
2030
0000
0000
0000
,
3200
0000
0000
0000
,
0320
0000
0000
0000
,
0031
1000
0001
0100
,
0010
1000
0010
0000
,
0100
0100
0001
0001
,
0100
0100
0010
0010
,
1000
1000
0001
0001
,
1000
1000
0010
0010
,
0100
0001
0100
0001
,
1000
0010
1000
0010
,
0100
0001
0100
0001
,
0001
0000
0000
1001
,
2002
0000
0000
0000
0000
3003
0000
0000
;

//---------------dance-single - ----------------
#NOTES:
     dance-single:
     :
     Beginner:
     1:
     0.057885,0.118584,0.033456,0.003717,0.000000,109.000000,100.000000,9.000000,1.000000,0.000000,0.000000,0.057885,0.118584,0.033456,0.003717,0.000000,109.000000,100.000000,9.000000,1.000000,0.000000,0.000000:
0000
0000
0000
0000
,
0000
0000
0000
0000
,
1000
0000
0000
0000
,
0001
0000
0000
0000
,
0100
0000
0000
0000
,
0010
0000
0000
0000
,
1000
0000
0000
0000
,
0001
0000
0000
0000
,
1000
0000
1001
0000
,
0001
0000
0110
0000
,
0100
0000
0110
0000
,
0010
0000
1001
0000
,
1000
0000
1001
0000
,
0010
0000
0100
0000
,
0001
0000
0010
0000
,
0010
0010
0010
0000
,
0110
0000
1000
0000
,
0001
0000
0100
0000
,
0010
0000
1000
0000
,
0010
0000
0200
0300
,
0000
0000
0100
0000
,
0000
0000
0010
0000
,
0000
0000
1000
0000
,
0001
0001
0001
0000
,
1001
0000
0000
0000
,
0000
0000
1000
0000
,
0000
0000
0010
0000
,
0000
0000
0100
0100
,
0100
0000
0010
0010
,
0010
0000
0100
0100
,
0100
0000
0001
0000
,
1000
0000
0000
1001
,
0000
0000
0000
0000
,
0000
0000
0000
0000
,
0000
0000
1000
0000
,
1000
0000
1000
0000
,
0000
0000
0000
0000
,
0000
0000
0000
0000
,
0000
0000
0010
0000
,
0010
0000
0010
0000
,
0000
0000
0000
0000
,
0000
0000
0000
0000
,
0000
0000
0001
0000
,
0001
0000
0000
0000
,
0000
0000
0000
0000
,
0000
0000
0000
0000
,
0000
0000
0010
0000
,
0001
0000
0000
0000
,
1000
0000
0010
0000
,
0100
0000
0000
0000
,
0010
0000
1000
0000
,
0001
0000
0000
0000
,
0010
0000
1000
0000
,
0001
0000
0000
0000
,
0100
0000
0000
0000
,
0010
0000
0000
0000
,
1000
0000
0000
0000
,
0001
0000
0000
0000
,
0010
0000
0000
0000
,
0100
0000
0000
0000
,
1000
0000
0000
0000
,
0010
0000
0000
0000
,
0100
0000
0000
0000
,
0001
0000
0000
0000
,
1000
0000
0000
0000
,
0010
0000
0010
0000
,
0100
0000
0000
0000
,
0010
0000
0000
0000
,
1000
0000
0001
0000
,
0100
0000
0010
0000
,
1000
0000
0000
0000
,
0010
0000
0000
0000
,
0100
0000
0000
0000
,
0010
0000
0000
0000
,
0100
0000
0000
0000
,
0001
0000
0000
0000
,
1000
0000
0000
0000
,
0010
0000
0000
0000
,
0000
0000
0100
0000
,
0000
0000
0000
0110
;

//---------------dance-single - Hard Edit----------------
#NOTES:
     dance-single:
     :
     Edit:
     13:
     0.527334,0.734295,0.074347,0.007435,0.823396,993.000000,973.000000,20.000000,2.000000,0.000000,0.000000,0.527334,0.734295,0.074347,0.007435,0.823396,993.000000,973.000000,20.000000,2.000000,0.000000,0.000000:
// measure 0
0000
0000
0000
0000
,  // measure 1
0001
0100
0001
0000
0100
0000
0010
1000
0000
1000
0010
0000
0100
0001
0000
0000
,  // measure 2
1000
0100
1000
0000
0001
0000
0100
0001
0000
0100
0001
0000
0010
0100
1000
0100
,  // measure 3
0010
0000
0000
0000
0000
0000
0001
0000
0000
0000
0000
0000
1000
0000
0000
0000
0000
0000
1000
0000
0000
0001
0000
0000
1000
0000
0100
0000
0010
0000
0001
0000
0010
0000
0100
0000
1000
0000
0001
0000
0100
0000
0010
0000
1000
0000
0001
0000
,  // measure 4
0100
0010
1000
0100
0010
0001
0010
0100
1000
0001
0100
0010
1000
0001
0100
0010
1000
0100
0010
0001
0010
0100
1000
0001
,  // measure 5
0100
0010
1000
0100
0010
0001
0010
0100
1000
0001
0100
0010
1000
0100
0010
0100
1000
0001
0100
0010
1000
0001
0100
0010
,  // measure 6
1000
0100
0010
0001
0010
0100
1000
0001
0100
0010
1000
0100
0010
0001
0010
0100
1000
0001
0100
0010
1000
0100
0010
0001
,  // measure 7
0010
0100
1000
0001
0100
0010
0100
0001
1000
0010
0100
0001
0100
0010
1000
0100
0010
0001
0100
0010
1000
0001
0010
0100
,  // measure 8
1000
0001
1000
0000
0001
0000
0100
0010
0000
0010
1000
0000
0001
0100
0010
1000
,  // measure 9
0100
0010
0001
0000
0100
0000
0010
1000
0000
1000
0010
0000
0100
0001
0100
0001
,  // measure 10
0100
0010
1000
0000
0001
0000
0100
0010
0110
0000
0010
0000
1000
0001
0100
0010
,  // measure 11
1000
0100
0010
0000
0001
0000
0100
0010
0110
0000
0010
0000
0100
0010
0001
0010
,  // measure 12
0100
1000
0001
0000
0100
0000
0001
0100
0000
0100
0001
0000
1000
0010
0100
0001
,  // measure 13
0100
0010
1000
0000
0010
0000
1000
0001
0000
0001
0100
0000
0001
0100
0001
0100
,  // measure 14
0010
1000
0001
0000
0100
0000
0010
1000
1010
0000
1000
0000
0100
0010
0001
0010
,  // measure 15
0011
0000
0001
0100
0101
0000
0010
1000
1010
0000
1000
0001
1001
0000
0100
1000
,  // measure 16
1100
0000
0000
0000
0000
0000
1000
0000
0000
0000
0000
0000
0100
0000
0000
0010
0000
0000
0001
0000
0000
0010
0000
0000
0001
0000
0000
0000
0000
0000
1000
0000
0010
0000
0100
0000
0001
0000
0100
0000
0010
0000
1000
0000
0001
0000
0100
0000
,  // measure 17
0010
0000
0000
0000
0000
0000
1000
0000
0000
0000
0000
0000
0001
0000
0000
0100
0000
0000
0010
0000
0000
1000
0000
0000
0001
0000
0000
0000
0000
0000
0010
0000
0100
0000
1000
0000
0100
0000
0010
0000
0001
0000
0100
0000
0010
0000
1000
0000
,  // measure 18
0010
0000
0000
0000
0000
0000
1000
0000
0000
0100
0000
0000
0010
0000
0000
0001
0000
0000
0100
0000
0000
0010
0000
0000
1000
0000
0000
0000
0000
0000
0100
0000
0010
0000
0001
0000
0010
0000
0100
0000
1000
0000
0010
0000
0100
0000
0001
0000
,  // measure 19
0010
0000
0000
0000
0000
0000
0100
0000
0000
0000
0000
0000
0010
0000
0000
0001
0000
0000
1000
0000
0000
0100
0000
0000
0010
0000
0001
0000
0100
0000
0010
0000
1000
0000
0001
0000
0100
0000
0010
0000
1000
0000
0100
0000
0010
0000
0001
0000
,  // measure 20
1000
0000
0000
0000
0000
0000
0001
0000
0000
0010
0000
0000
0001
0000
0000
0010
0000
0000
0001
0000
0000
0010
0000
0000
0100
0000
0000
0000
0000
0000
1000
0000
0010
0000
0100
0000
0001
0000
0100
0000
0010
0000
1000
0000
0000
0000
0000
0000
,  // measure 21
0001
0000
0000
0000
0000
0000
0010
0000
0000
0100
0000
0000
1000
0000
0000
0100
0000
0000
0010
0000
0000
0001
0000
0000
0100
0000
0000
0000
0000
0000
0010
0000
0100
0000
1000
0000
0100
0000
0010
0000
0001
0000
0100
0000
0010
0000
1000
0000
,  // measure 22
0100
0000
0000
0000
0000
0000
1000
0000
0000
0100
0000
0000
0010
0000
0000
0001
0000
0000
0100
0000
0000
0010
0000
0000
1000
0000
0000
0000
0000
0000
0100
0000
0010
0000
0001
0000
0100
0000
0010
0000
1000
0000
0010
0000
0000
0000
0000
0000
,  // measure 23
1010
0000
0000
0000
0000
0000
0100
0000
0000
0001
0000
0000
0101
0000
0000
0000
0000
0000
0010
0000
0000
1000
0000
0000
0010
0000
0100
0000
0001
0000
0100
0000
0010
0000
1000
0000
0100
0000
0010
0000
0001
0000
0010
0000
0100
0000
1000
0000
,  // measure 24
0100
0010
0001
0000
0100
0000
0010
1000
0000
1000
0010
0000
0100
0001
0100
0001
,  // measure 25
0100
0010
1000
0000
0010
0000
0100
0000
0001
0010
0100
1000
0100
0010
0001
0100
,  // measure 26
0010
0000
1000
0000
0001
0000
1000
0000
0100
0010
0001
0010
0100
1000
0010
0100
,  // measure 27
0001
0010
0100
1000
0001
0100
0010
0100
0001
0100
0010
1000
0100
0010
0001
0010
,  // measure 28
0100
1000
0001
0100
0010
1000
0100
0010
0001
0010
0100
1000
0001
0100
0010
1000
0001
0100
0010
1000
0100
0010
0001
0100
,  // measure 29
0010
1000
0100
0010
0001
0100
0010
1000
0100
0010
0001
0010
0100
1000
0001
0100
0010
1000
0100
0010
0001
0100
0010
1000
,  // measure 30
0100
0010
0001
1000
0001
0100
0010
1000
0001
0100
0010
1000
0100
0010
0001
0010
0100
1000
0001
0100
0010
1000
0001
0010
,  // measure 31
0100
0100
0010
0010
1000
0100
0011
0000
,  // measure 32
M000
0000
000M
0000
M000
0000
000M
0000
0000
0M00
0000
0000
00M0
0000
0000
0M00
0000
0000
00M0
0000
0000
M000
0000
0000
,  // measure 33
0M00
00M0
000M
0M00
00M0
0000
0000
0000
,  // measure 34
1000
0000
0001
0000
1000
0000
0001
0000
0000
0100
0000
0000
0010
0000
0000
0100
0000
0000
0010
0000
0000
1000
0000
0000
,  // measure 35
0100
0010
0001
0100
0010
1000
0001
0000
,  // measure 36
000M
0000
0M00
0000
000M
0000
0M00
0000
0000
00M0
0000
0000
M000
0000
0000
0M00
0000
0000
00M0
0000
0000
000M
0000
0000
,  // measure 37
0M00
00M0
M000
000M
M000
00M0
0M00
0000
,  // measure 38
0001
0000
0100
0000
0001
0000
0100
0000
0000
0010
0000
0000
1000
0000
0000
0100
0000
0000
0010
0000
0000
0001
0000
0000
,  // measure 39
0100
0010
1000
0001
1000
0010
0100
0000
,  // measure 40
000M
0000
0M00
0000
00M0
0000
0M00
0000
0000
000M
0000
0000
0M00
0000
0000
00M0
0000
0000
M000
0000
0000
000M
0000
0000
,  // measure 41
0M00
00M0
M000
000M
0M00
00M0
0000
0000
,  // measure 42
0001
0000
0100
0000
0010
0000
0100
0000
0000
0001
0000
0000
0100
0000
0000
0010
0000
0000
1000
0000
0000
0001
0000
0000
,  // measure 43
0100
0010
1000
0001
0100
0010
1000
0000
,  // measure 44
000M
0000
M000
0000
000M
0000
M000
0000
0000
00M0
0000
0000
0M00
0000
0000
000M
0000
0000
0M00
0000
0000
00M0
0000
0000
,  // measure 45
M000
0M00
00M0
000M
0M00
00M0
0000
0000
,  // measure 46
0001
0000
1000
0000
0001
0000
1000
0000
0000
0010
0000
0000
0100
0000
0000
0001
0000
0000
0100
0000
0000
0010
0000
0000
,  // measure 47
1000
0100
0010
0001
0100
0010
1000
0000
,  // measure 48
0001
0000
1000
0000
0001
0000
1000
0000
0000
1000
0000
0000
0010
0000
0000
0010
0000
0000
0100
0000
0000
0100
0000
0000
,  // measure 49
0001
0001
0100
0100
0010
0010
1000
0001
,  // measure 50
1000
0000
0100
0000
0010
0000
0001
0000
0000
1000
0000
0000
0010
0000
0000
1010
0000
0000
0100
0000
0000
0001
0000
0000
,  // measure 51
0100
0001
0101
0100
0010
0010
1000
0010
,  // measure 52
1000
0000
0100
0000
0010
0000
0001
0000
0000
0100
0000
0000
0001
0000
0000
0101
0000
0000
0010
0000
0000
1000
0000
0000
,  // measure 53
0010
0100
0001
0100
0001
0100
0010
1000
,  // measure 54
0001
0000
0100
0000
0010
0000
1000
0000
0000
0001
0000
0000
0100
0000
0000
1010
0000
0000
1000
0000
0000
0100
0000
0000
,  // measure 55
0010
0000
0001
0000
0100
0000
0010
1000
0010
0000
1000
0000
1010
0000
1000
0000
,  // measure 56
0001
0000
1000
0000
0001
0000
1000
0000
0000
0010
0000
0000
1000
0000
0000
0010
0000
0000
0100
0000
0000
0001
0000
0000
,  // measure 57
0100
0000
0001
0000
0100
0000
0010
0000
0100
0000
0010
0100
0010
0000
1000
0000
,  // measure 58
0010
0000
1000
0000
0010
0000
0100
0000
0000
0010
0000
0000
0100
0000
0000
0010
0000
0000
0100
0000
0000
0001
0000
0000
,  // measure 59
0100
0000
0001
0000
0100
0000
0010
0000
0100
0000
0010
0100
0001
0100
0010
0000
,  // measure 60
1000
0000
0010
0000
0100
0000
0001
0100
0010
1000
0001
0100
0010
1000
0100
0010
0001
0010
0100
1000
0001
0100
0010
1000
,  // measure 61
0001
0100
0010
1000
0100
0010
0100
1000
0001
0100
0010
1000
0100
0010
0001
0010
0100
1000
0010
0100
0001
0100
0010
1000
,  // measure 62
0100
0010
0001
0010
0100
1000
0001
0100
0010
1000
0100
0010
0001
0010
0100
1000
0001
0100
0010
1000
0010
1000
0010
1000
,  // measure 63
0010
0100
0001
0100
0000
0010
1010
0000
,  // measure 64
1000
0100
0010
0001
0010
0100
1000
0001
0100
0010
1000
0001
0100
0010
1000
0100
,  // measure 65
0010
0001
0010
0100
1000
0001
0100
0010
1000
0001
0100
0010
1000
0000
0100
0000
,  // measure 66
0010
1000
0010
0100
0001
0010
0100
1000
0001
0100
0010
1000
0100
0010
0100
1000
,  // measure 67
0001
0100
0010
1000
0010
0100
0001
0100
0010
1000
0100
0010
0100
1000
0001
0000
,  // measure 68
0010
0100
1000
0000
0001
1000
0100
0010
0001
0010
0100
1000
0001
0100
0010
1000
,  // measure 69
0100
0010
0001
0010
0100
1000
0001
0100
0010
1000
0001
0100
0010
1000
0001
0000
,  // measure 70
0001
0000
1000
0000
0001
0000
1001
0000
0000
1000
0000
0000
0010
0000
0000
0010
0000
0000
0100
0000
0000
0100
0000
0000
,  // measure 71
0001
0000
0001
0000
0100
0000
0100
0000
0001
0000
1000
0000
0001
0100
0010
1000
,  // measure 72
0001
0010
0100
1000
0001
0100
0010
1000
0001
0100
0010
1000
0100
0010
0001
0010
,  // measure 73
0100
1000
0001
0100
0010
1000
0001
0100
0010
1000
0100
0010
0001
0100
0001
0000
,  // measure 74
0100
0010
0100
0000
0001
0100
0010
1000
0001
0010
0001
1000
0010
0100
0001
0010
,  // measure 75
0001
1000
0010
0100
0001
0100
0010
1000
0100
0010
0001
0100
0010
1000
0010
0000
,  // measure 76
1000
0100
0010
0000
0001
0100
0010
1000
0001
0100
0010
1000
0100
0010
0001
0010
,  // measure 77
0100
0000
0000
1000
0000
0000
0001
0000
0000
0100
0000
0000
0010
0000
0000
1000
0000
0000
0001
0000
0000
0100
0000
0000
0010
0000
0000
1000
0000
0000
0001
0000
0000
0100
0000
0000
0010
0000
1000
0000
0001
0000
0100
0000
0010
0000
1000
0000
,  // measure 78
0001
0100
0010
1000
0100
0010
0001
0010
0100
1000
0001
0100
0010
1000
0001
0100
0010
1000
0001
0100
0010
1000
0001
0100
,  // measure 79
0001
0000
0000
0010
0000
0010
1001
0000
,  // measure 80
2002
0000
0000
0000
0000
3003
0000
0000
;
