#VERSION:0.83;
#TITLE:Alive (Remix);
#SUBTITLE:;
#ARTIST:Hillsong Young & Free;
#TITLETRANSLIT:;
#SUBTITLETRANSLIT:;
#ARTISTTRANSLIT:;
#GENRE:FUTURE BASS;
#ORIGIN:;
#CREDIT:;
#BANNER:[Mid Speed] - Alive (Remix).png;
#BACKGROUND:[Mid Speed] - Alive (Remix)-bg.png;
#PREVIEWVID:;
#JACKET:[Mid Speed] - Alive (Remix)-jacket.png;
#CDIMAGE:;
#DISCIMAGE:;
#LYRICSPATH:;
#CDTITLE:IAN-cdtitle;
#MUSIC:[Mid Speed] - Alive (Remix)-jacket.ogg;
#OFFSET:1.210000;
#SAMPLESTART:56.077000;
#SAMPLELENGTH:15.000000;
#SELECTABLE:YES;
#BPMS:0.000=155.000,
276.000=77.500,
291.000=155.000;
#STOPS:291.000=0.387;
#DELAYS:;
#WARPS:;
#TIMESIGNATURES:0.000=4=4;
#TICKCOUNTS:0.000=4;
#COMBOS:0.000=1;
#SPEEDS:0.000=1.000=0.000=0;
#SCROLLS:0.000=1.000;
#FAKES:;
#LABELS:0.000=Song Start;
#BGCHANGES:;
#KEYSOUNDS:;
#ATTACKS:
;

//---------------dance-single - ----------------
#NOTEDATA:;
#CHARTNAME:;
#STEPSTYPE:dance-single;
#DESCRIPTION:;
#CHARTSTYLE:;
#DIFFICULTY:Hard;
#METER:9;
#RADARVALUES:0.516164,0.864977,0.315493,0.285446,0.123944,481.000000,439.000000,42.000000,38.000000,0.000000,0.000000,0.000000,0.000000,0.000000,0.516164,0.864977,0.315493,0.285446,0.123944,481.000000,439.000000,42.000000,38.000000,0.000000,0.000000,0.000000,0.000000,0.000000;
#CREDIT:ohaiimian;
#NOTES:
// measure 0
0000
0000
0000
0000
,  // measure 1
0000
0000
0000
0000
,  // measure 2
0000
0000
0000
0000
,  // measure 3
0000
0000
0000
0000
,  // measure 4
0000
0000
0000
0000
0000
0000
0100
0010
,  // measure 5
2000
0000
0000
0000
,  // measure 6
3002
0000
0000
0010
,  // measure 7
0023
0000
0000
0000
,  // measure 8
0230
0000
0000
1000
,  // measure 9
2300
0000
0000
0000
,  // measure 10
3020
0000
0000
0100
,  // measure 11
0230
0000
0000
0000
,  // measure 12
0302
0000
0000
0000
0000
0000
0013
0100
,  // measure 13
1000
0000
0100
0010
0001
1000
0200
0000
,  // measure 14
0000
0000
0000
0000
0000
0000
0310
0001
,  // measure 15
1000
0000
0010
0100
0001
1000
0001
0020
,  // measure 16
0000
0000
0000
0000
0000
0000
0130
1000
,  // measure 17
0100
0000
1000
0100
0010
0001
2000
0000
,  // measure 18
0000
0000
0000
0000
0000
3000
0010
0100
,  // measure 19
0010
0000
0001
0010
0100
1000
0020
0200
,  // measure 20
0000
0000
0330
1001
,  // measure 21
1000
0200
0000
0301
0200
0000
1300
0020
,  // measure 22
0000
0001
1030
1001
,  // measure 23
0010
0100
0001
0100
,  // measure 24
0010
1000
0100
0010
,  // measure 25
0001
0020
0000
1030
0020
0000
0031
0200
,  // measure 26
0000
1000
1000
0000
0301
0000
1001
0000
,  // measure 27
0100
0001
0100
0010
,  // measure 28
1000
0000
0001
0000
0010
0001
0010
0001
,  // measure 29
0100
0000
0010
0100
0010
1000
0001
0000
,  // measure 30
0100
1010
0101
0010
,  // measure 31
1000
0000
0100
0010
0001
0100
0010
0000
,  // measure 32
1000
0100
2000
0000
3010
1000
0001
0100
,  // measure 33
0010
0000
1000
0010
0100
0000
0001
0000
,  // measure 34
1000
0011
1100
1001
,  // measure 35
0200
0000
0000
0020
0330
0000
2002
0000
,  // measure 36
0000
0000
0000
0000
0000
0000
0000
3003
,  // measure 37
1000
0000
0001
0100
0001
0000
0100
0000
0010
0000
1000
0000
1001
0000
0000
0000
,  // measure 38
0001
0000
1000
0100
1000
0000
0010
0000
0100
0000
0001
0000
0010
0000
0010
0000
,  // measure 39
0100
0000
1000
0010
1000
0000
0100
0000
0010
0000
0001
0000
1001
0000
0000
0000
,  // measure 40
0100
0000
0001
0010
0001
0000
0010
0000
1000
0000
0010
0000
0001
0000
1000
0000
,  // measure 41
0010
0000
0100
0001
0100
0000
0010
0000
1000
0000
0100
0000
1100
0000
0000
0000
,  // measure 42
1000
0100
0001
1000
0010
0001
0100
0010
,  // measure 43
0100
0000
0010
1000
0010
0000
0100
0000
0001
0000
1000
0000
1001
0000
0000
0000
,  // measure 44
0110
0100
0001
1000
0001
0020
0100
0130
,  // measure 45
1000
0000
0001
0100
0001
0000
0100
0000
0110
0000
0000
0000
0110
0000
0000
0000
,  // measure 46
0001
0000
1000
0100
1000
0000
0010
0000
0100
0000
0001
0000
0010
0000
0010
0000
,  // measure 47
0100
0000
1000
0010
1000
0000
0010
0000
0110
0000
0000
0000
0110
0000
0000
0000
,  // measure 48
0010
0000
1000
0100
1000
0000
0010
0000
0001
0000
0010
0000
1000
0000
0001
0000
,  // measure 49
0010
0000
0100
1000
0100
0000
1000
0000
1001
0000
0000
0000
1001
0000
0000
0000
,  // measure 50
0001
0100
1000
0001
0010
1000
0100
0010
,  // measure 51
0100
0000
0010
0001
0010
0000
0100
0000
0110
0000
0000
0000
1001
0000
0000
0000
,  // measure 52
0110
0100
0001
0100
0010
1000
0100
0010
,  // measure 53
0001
0002
0000
0100
0203
0000
1000
2300
,  // measure 54
0000
3100
0101
1100
,  // measure 55
1000
0010
0100
0001
,  // measure 56
1000
1000
0001
0001
,  // measure 57
1000
2000
0000
0100
3200
0000
0001
0302
,  // measure 58
0000
0103
1000
0000
1010
0000
0011
0000
,  // measure 59
1000
0100
0010
0001
,  // measure 60
0100
0000
0100
0000
0010
1000
0010
1000
,  // measure 61
0100
0000
0010
0001
1000
0010
0100
0000
,  // measure 62
0001
0101
1100
0100
,  // measure 63
0010
0000
0001
0010
0100
0010
0001
0000
,  // measure 64
1000
0010
0200
0000
0301
0100
0001
1000
,  // measure 65
0010
0000
1000
0100
0010
0001
0100
0000
,  // measure 66
0010
1010
0011
0100
,  // measure 67
0010
0000
1000
0010
1000
0000
0002
0000
,  // measure 68
0000
0000
0100
0000
0103
0010
2000
0000
,  // measure 69
3001
0100
0001
0000
0101
0000
1000
0100
1000
0000
1100
0000
1010
0000
0100
0001
,  // measure 70
0010
0100
1000
0000
1100
0000
1000
0001
0200
0000
0310
0100
0002
0000
1003
0000
,  // measure 71
1000
0010
1000
0000
1010
0000
0001
0010
0001
0000
0011
0000
0101
0000
0010
1000
,  // measure 72
0010
0000
0000
0000
0100
0000
0000
0000
0001
0000
0000
0000
0000
0000
0000
0000
0011
0000
0000
0000
0000
0000
0000
0000
0100
0000
0000
0000
1000
0000
0000
0000
0010
0000
0000
0000
0000
0000
0000
0000
1000
0000
0000
0000
0001
0000
0010
0000
0200
0300
0000
0000
0000
0000
0000
0000
0000
0000
0000
0000
0000
0000
0000
0000
,  // measure 73
0001
0000
1000
0010
0100
0000
0001
0000
1000
0000
0100
0000
0011
0000
0000
0000
,  // measure 74
1000
0000
0001
0100
0010
0000
1000
0000
0001
0000
0010
0000
0100
0000
0100
0000
,  // measure 75
1000
0000
0010
0100
0001
0000
0010
0000
0100
0000
1000
0000
1010
0000
0000
0000
,  // measure 76
0001
0000
0100
0010
0100
0000
0010
0000
1000
0000
1000
0000
0001
0000
0001
0000
,  // measure 77
0010
0000
0100
1000
0001
0000
0100
0000
0010
0000
1000
0000
1001
0000
0000
0000
,  // measure 78
0001
0100
1000
0001
0010
1000
0010
0001
,  // measure 79
0010
0000
1000
0100
0010
0000
0001
0000
1000
0000
0010
0000
1000
0000
0100
0000
,  // measure 80
0010
0000
0001
0000
0010
0000
1000
0000
0010
0000
0001
0000
0100
0010
0000
0200
,  // measure 81
0000
0000
0000
0000
,  // measure 82
0000
0300
0000
0000
;

//---------------dance-single - ----------------
#NOTEDATA:;
#CHARTNAME:;
#STEPSTYPE:dance-single;
#DESCRIPTION:;
#CHARTSTYLE:;
#DIFFICULTY:Medium;
#METER:7;
#RADARVALUES:0.405634,0.556056,0.127700,0.300469,0.003756,378.000000,361.000000,17.000000,40.000000,0.000000,0.000000,0.000000,0.000000,0.000000,0.405634,0.556056,0.127700,0.300469,0.003756,378.000000,361.000000,17.000000,40.000000,0.000000,0.000000,0.000000,0.000000,0.000000;
#CREDIT:ohaiimian;
#NOTES:
// measure 0
0000
0000
0000
0000
,  // measure 1
0000
0000
0000
0000
,  // measure 2
0000
0000
0000
0000
,  // measure 3
0000
0000
0000
0000
,  // measure 4
0000
0000
0000
0000
,  // measure 5
2000
0000
0000
0000
,  // measure 6
3200
0000
0000
0000
,  // measure 7
0320
0000
0000
0000
,  // measure 8
0032
0000
0000
0000
,  // measure 9
0203
0000
0000
0000
,  // measure 10
0320
0000
0000
0000
,  // measure 11
2030
0000
0000
0000
,  // measure 12
3002
0000
0000
0010
,  // measure 13
1003
0000
0010
0100
0010
0000
0002
0000
,  // measure 14
0000
0000
0000
0100
,  // measure 15
0013
0000
1000
0001
1000
0001
0200
0000
,  // measure 16
0000
0000
0000
0010
,  // measure 17
1300
0000
0001
1000
0001
0000
0020
0000
,  // measure 18
0000
0000
0000
0100
,  // measure 19
0031
0000
0100
0010
0100
0010
2000
0000
,  // measure 20
0000
0000
0000
3000
,  // measure 21
0001
0001
0100
0100
,  // measure 22
0010
0010
1000
1000
,  // measure 23
0100
0010
0001
0010
,  // measure 24
0100
1000
0100
0000
0010
0001
0010
0000
,  // measure 25
1000
1000
0100
0100
,  // measure 26
0010
0010
0001
0001
,  // measure 27
0100
0010
1000
0010
,  // measure 28
0100
0001
0100
0000
0010
1000
0010
0000
,  // measure 29
1001
0001
0010
0010
,  // measure 30
0100
2000
3002
0103
,  // measure 31
0010
0000
1000
0100
0010
0000
0001
0000
,  // measure 32
0100
0010
0100
0000
0001
1000
0001
0000
,  // measure 33
1001
1000
0010
0010
,  // measure 34
0100
0002
2003
3010
,  // measure 35
0100
0000
0000
0001
0000
0000
2002
0000
,  // measure 36
0000
0000
0000
3003
0000
0000
0000
0000
,  // measure 37
0001
0100
0001
0100
0001
0100
0020
0000
,  // measure 38
1030
0100
1000
0100
1000
0100
1000
0010
,  // measure 39
0100
0001
0100
0001
0100
0001
0020
0000
,  // measure 40
0130
1000
0100
1000
0001
1000
0001
1000
,  // measure 41
0010
1000
0010
1000
0010
1000
0200
0000
,  // measure 42
0310
0001
0010
0001
0010
0001
0010
0100
,  // measure 43
1000
0010
1000
0010
1000
0010
0200
0000
,  // measure 44
0301
0010
0001
0010
0001
0010
0100
0010
,  // measure 45
0001
1000
0001
0010
0200
0000
2300
0000
,  // measure 46
3001
0100
0010
0000
1000
0100
0010
0001
,  // measure 47
1000
0001
1000
0010
0200
0000
0302
0000
,  // measure 48
0013
0100
1000
0000
0001
0010
0100
1000
,  // measure 49
0010
0100
0010
1000
0200
0000
0320
0000
,  // measure 50
0031
0010
0100
0000
0010
0100
1000
0001
,  // measure 51
0100
0010
0100
0001
0020
0000
0230
0000
,  // measure 52
1300
0010
0100
0000
0010
0100
0001
1000
,  // measure 53
0100
0100
0010
0010
,  // measure 54
0001
1000
1001
0110
,  // measure 55
1000
1000
1000
1000
,  // measure 56
0001
0001
0001
0001
,  // measure 57
0100
0100
0010
0010
,  // measure 58
1000
0001
1001
0110
,  // measure 59
0100
0100
0100
0100
,  // measure 60
0010
0000
0010
0000
0010
0000
0010
1000
,  // measure 61
0100
0000
0010
0100
0010
0000
0001
0000
,  // measure 62
1000
0020
0230
0301
,  // measure 63
1000
0000
0100
0010
0100
0000
1000
0000
,  // measure 64
0001
1000
0002
0000
0100
0000
0103
0010
,  // measure 65
0100
0010
1000
0100
,  // measure 66
0010
0000
0001
1000
0001
0000
1001
0000
,  // measure 67
0100
0000
0000
0010
0000
0000
2002
0000
,  // measure 68
0000
0000
0000
3003
,  // measure 69
1000
0010
1010
0000
0001
0010
0011
0000
,  // measure 70
1000
0100
1100
0000
0001
0100
0101
0000
,  // measure 71
0010
0010
0110
0000
1000
1000
1001
0000
,  // measure 72
0100
0100
0110
0000
0001
0001
1001
0000
,  // measure 73
1000
0100
0010
0001
1000
0010
0200
0000
,  // measure 74
0301
0010
0100
1000
0001
0100
0010
1000
,  // measure 75
0010
0100
0001
1000
0100
0010
0002
0000
,  // measure 76
0103
0010
1000
0001
0100
0010
0100
0010
,  // measure 77
1000
0100
0010
0100
1000
0010
0200
0000
,  // measure 78
0301
0100
0010
0100
0001
0010
0100
0010
,  // measure 79
0001
1000
0010
0100
0010
1000
0200
0000
,  // measure 80
0310
0000
0001
0000
0010
0000
0100
0000
0010
0000
0001
0000
0100
0000
0000
0020
,  // measure 81
0000
0000
0000
0000
,  // measure 82
0000
0030
0000
0000
;

//---------------dance-single - ----------------
#NOTEDATA:;
#CHARTNAME:;
#STEPSTYPE:dance-single;
#DESCRIPTION:;
#CHARTSTYLE:;
#DIFFICULTY:Easy;
#METER:4;
#RADARVALUES:0.230718,0.370704,0.090141,0.240376,0.000000,215.000000,203.000000,12.000000,32.000000,0.000000,0.000000,0.000000,0.000000,0.000000,0.230718,0.370704,0.090141,0.240376,0.000000,215.000000,203.000000,12.000000,32.000000,0.000000,0.000000,0.000000,0.000000,0.000000;
#CREDIT:ohaiimian;
#NOTES:
// measure 0
0000
0000
0000
0000
,  // measure 1
0000
0000
0000
0000
,  // measure 2
0000
0000
0000
0000
,  // measure 3
0000
0000
0000
0000
,  // measure 4
0000
0000
0000
0000
,  // measure 5
2000
0000
0000
3000
,  // measure 6
0002
0000
0000
0003
,  // measure 7
0020
0000
0000
0030
,  // measure 8
0200
0000
0000
0300
,  // measure 9
2000
0000
0000
3000
,  // measure 10
0020
0000
0000
0030
,  // measure 11
0200
0000
0000
0300
,  // measure 12
0002
0000
0000
0003
,  // measure 13
1000
0000
0000
0100
,  // measure 14
0020
0000
0000
0030
,  // measure 15
0001
0000
0010
0100
,  // measure 16
2000
0000
0000
3000
,  // measure 17
0010
0000
0000
0100
,  // measure 18
0002
0000
0000
0003
,  // measure 19
0010
0000
0000
0010
,  // measure 20
0200
0000
0000
0300
,  // measure 21
1000
0000
1000
0000
,  // measure 22
1000
0000
0010
0000
,  // measure 23
0020
0030
0200
0300
,  // measure 24
0020
0030
0200
0300
,  // measure 25
0001
0000
0001
0000
,  // measure 26
0001
0000
0010
0000
,  // measure 27
0200
0300
0020
0030
,  // measure 28
0200
0300
0020
0030
,  // measure 29
0001
0000
0001
0000
,  // measure 30
1000
0000
1000
0000
,  // measure 31
0010
0100
0010
0100
,  // measure 32
0001
1000
0001
1000
,  // measure 33
0010
0000
0010
0000
,  // measure 34
0100
0000
0100
0000
,  // measure 35
0001
1000
0001
1000
,  // measure 36
0020
0000
0000
0030
,  // measure 37
0100
0100
0100
0000
,  // measure 38
0001
0001
0001
0000
,  // measure 39
1000
1000
1000
0000
,  // measure 40
0010
0010
0010
0000
,  // measure 41
1000
0010
1000
0000
,  // measure 42
0001
0010
0001
0000
,  // measure 43
0100
0001
0100
0000
,  // measure 44
0100
1000
0100
0100
,  // measure 45
0010
0001
1001
0000
,  // measure 46
0010
1000
1001
0000
,  // measure 47
0100
1000
1001
0000
,  // measure 48
0100
0001
1001
0100
,  // measure 49
0010
0100
0110
0000
,  // measure 50
0100
0010
0110
0000
,  // measure 51
0001
0100
0010
1000
,  // measure 52
0100
0010
0001
0010
,  // measure 53
0100
0000
0100
0000
,  // measure 54
1000
0000
1000
0000
,  // measure 55
0002
0003
0002
0003
,  // measure 56
2000
3000
2000
3000
,  // measure 57
0010
0000
0010
0000
,  // measure 58
0100
0000
0100
0000
,  // measure 59
0020
0030
0020
0030
,  // measure 60
0200
0300
0200
0300
,  // measure 61
0001
0010
0100
0000
,  // measure 62
1000
0100
0010
0000
,  // measure 63
0001
0100
0010
0000
,  // measure 64
1000
0010
0100
0001
,  // measure 65
1000
1000
0100
0000
,  // measure 66
0010
0010
0001
0000
,  // measure 67
0100
0100
0010
0010
,  // measure 68
0220
0000
0000
0330
,  // measure 69
0010
0000
0010
0000
0010
0010
1000
0000
,  // measure 70
0001
0000
0001
0000
0001
0001
0100
0000
,  // measure 71
1000
0000
1000
0000
1000
1000
0010
0000
,  // measure 72
0100
0000
0100
0000
0100
0100
1001
0000
,  // measure 73
0010
1000
0100
1000
,  // measure 74
0010
0100
0001
0010
,  // measure 75
0001
0010
0100
1000
,  // measure 76
1000
0100
0010
0001
,  // measure 77
0100
0100
0010
0110
,  // measure 78
0010
0010
0100
0110
,  // measure 79
1000
0001
0001
1001
,  // measure 80
0001
1000
1000
1001
,  // measure 81
0200
0000
0000
0000
,  // measure 82
0000
0300
0000
0000
;
