#VERSION:0.83;
#TITLE:エイリアンエイリアン;
#SUBTITLE:(DIVELA REMIX);
#ARTIST:ナユタン星人 feat. あらき;
#TITLETRANSLIT:Alien Alien;
#SUBTITLETRANSLIT:;
#ARTISTTRANSLIT:Nayutan Seijin feat. Araki;
#GENRE:;
#ORIGIN:;
#CREDIT:;
#BANNER:[Mid Speed] - Alien Alien (DIVELA REMIX).png;
#BACKGROUND:[Mid Speed] - Alien Alien (DIVELA REMIX)-bg.png;
#PREVIEWVID:;
#JACKET:[Mid Speed] - Alien Alien (DIVELA REMIX)-jacket.png;
#CDIMAGE:;
#DISCIMAGE:;
#LYRICSPATH:;
#CDTITLE:;
#MUSIC:[Mid Speed] - Alien Alien (DIVELA REMIX).ogg;
#OFFSET:-0.588000;
#SAMPLESTART:70.036133;
#SAMPLELENGTH:12.656250;
#SELECTABLE:YES;
#BPMS:0.000=152.000,
143.000=76.000,
159.000=152.000;
#STOPS:142.000=0.395;
#DELAYS:;
#WARPS:;
#TIMESIGNATURES:0.000=4=4;
#TICKCOUNTS:0.000=4;
#COMBOS:0.000=1;
#SPEEDS:0.000=1.000=0.000=0;
#SCROLLS:0.000=1.000;
#FAKES:;
#LABELS:0.000=Song Start;
#BGCHANGES:16.000=[Mid Speed] - Alien Alien (DIVELA REMIX).avi=1.000=1=0=0=StretchNoLoop==CrossFade==,
99999=-nosongbg-=1.000=0=0=0 // don't automatically add -songbackground-
;
#KEYSOUNDS:;
#ATTACKS:
;

//---------------dance-single - ----------------
#NOTEDATA:;
#CHARTNAME:;
#STEPSTYPE:dance-single;
#DESCRIPTION:;
#CHARTSTYLE:;
#DIFFICULTY:Hard;
#METER:9;
#RADARVALUES:0.563990,0.589146,0.147830,0.243485,0.213049,454.000000,437.000000,17.000000,28.000000,0.000000,0.000000,0.000000,0.000000,0.000000,0.563990,0.589146,0.147830,0.243485,0.213049,454.000000,437.000000,17.000000,28.000000,0.000000,0.000000,0.000000,0.000000,0.000000;
#CREDIT:;
#NOTES:
0000
0000
0000
0000
,
0000
0000
0000
0000
,
0000
0000
0000
0000
,
0000
0000
0000
0000
,
1000
0000
0010
0000
0100
0000
0000
0000
0001
0000
0000
0010
0000
0000
1000
0000
,
0010
0000
0001
0000
1000
0001
0000
0000
1000
0000
0000
0010
0000
0000
0001
0000
,
0010
0000
0100
0000
0001
0000
0000
0000
1000
0000
0000
0100
0000
0000
0001
0000
,
0100
0000
1000
0000
0010
0100
0000
0000
0001
0000
0000
0100
0000
0000
1000
0000
,
0100
0000
0010
0000
1000
0010
0000
0000
1000
0000
0001
1000
0000
0000
0001
0000
,
0010
0000
0100
0000
1000
0001
0000
0000
0100
0000
0010
0100
0000
0000
0010
0000
,
1000
0000
0001
0000
0010
0100
0000
0000
1000
0000
0100
1000
0000
0000
0001
0000
,
0100
0000
0010
0000
1000
0010
0000
0000
1000
0000
0001
0000
1000
0000
0100
0000
,
0020
0000
0031
0100
0020
0000
1030
0001
,
1000
1000
0100
0100
0010
0001
1000
0010
,
0200
0000
0301
1000
0200
0000
1300
0001
,
0100
0100
0010
0010
1000
0001
0010
0100
,
2000
0000
3100
1000
0002
0000
0103
0001
,
1000
1000
0010
0010
1000
0001
0010
0100
,
0010
0110
0100
0110
,
0010
0010
0001
0001
1000
0010
0100
0001
,
1000
0000
0010
0000
0100
0001
0000
0000
1000
0000
0000
1000
0000
0000
1000
0000
,
0001
0000
0010
0000
0100
1000
0000
0000
0001
0000
0000
0001
0000
0000
0001
0000
,
1000
0000
0100
0000
0010
0001
0000
0000
0100
0000
0000
0100
0000
0000
0100
0000
,
0010
0000
1000
0000
0001
0010
0000
0000
0100
0000
1000
0000
0001
0000
0100
0000
,
0020
0000
1030
0100
0020
0000
0031
1000
,
0001
0100
1000
0100
0001
0100
0010
1000
,
0200
0000
1300
0001
0200
0000
0301
1000
,
0001
0010
1000
0010
0001
0010
0100
1000
,
0002
0000
0103
0001
2000
0000
3100
1000
,
0001
0010
1000
0010
0001
0100
0010
1000
,
0001
1001
1000
1001
,
0001
0010
1000
0010
0001
0010
0100
1000
,
0002
0010
0100
1000
,
2003
0010
0100
0001
,
3010
0100
0001
0001
0100
0001
1000
1000
,
0001
0000
0010
0000
0100
0000
1000
0000
0001
0000
0000
0000
1000
0000
1000
0010
,
0000
0010
1000
0000
0001
0000
0001
0010
0000
0010
0000
0001
1000
0000
0010
0000
,
0100
0000
0001
0000
1000
0000
0001
0000
1000
0000
0000
0000
0001
0010
0001
0000
,
1000
0001
1000
0000
0010
0000
0100
0000
0001
0000
0000
0000
1000
0000
0100
0000
,
0010
0000
0010
0000
0001
0010
0001
0000
1000
0010
1000
0000
0010
0000
0000
0000
,
0010
0100
0000
0001
1000
0100
0010
0000
,
0010
0001
0000
0001
1000
0000
0001
0100
,
0010
0010
1000
0100
0010
0010
0001
0100
,
1000
0100
0001
1000
1001
0001
1000
0100
,
1000
1000
0001
1000
0001
0001
0200
0000
,
0320
0000
1030
0000
1001
0000
0001
0010
,
0100
0100
1000
0001
0100
0100
0000
0010
,
2020
3030
1000
2002
3003
0000
0002
0000
,
0013
0010
0001
1000
0010
0100
0002
0000
,
1003
1000
0001
0010
0000
0010
0100
1000
,
0100
0100
1000
0001
1000
1000
0001
0010
,
1000
0010
0001
0001
0001
1000
0001
0100
,
0001
0001
1000
0010
1000
1000
1010
0000
,
1001
0000
0022
0000
0033
0000
0001
0010
,
0100
1000
0001
0100
0010
0010
0000
1000
,
2020
3030
0001
0022
0033
1000
1001
0001
,
0010
0000
0000
0000
0001
0000
0000
0100
0000
0000
1000
0000
0100
0000
0010
0000
,
1010
0000
0000
0000
1000
0000
0000
0010
0000
0000
0001
0000
0010
0000
1000
0000
,
1001
0000
0000
0000
0001
0000
0000
0010
0000
0000
1000
0000
0010
0000
0001
0000
,
1001
0000
0000
0000
1000
0000
0000
0100
0000
0000
0001
0000
0100
0000
1000
0000
,
0100
1000
0000
0000
0001
0000
1000
0001
0000
1000
0001
0000
0100
0000
0010
0000
,
1000
0010
0000
0000
1000
0000
0001
1000
0000
0001
0010
0000
0001
0000
0010
0000
,
0100
0010
0000
0000
0100
0000
0010
0100
0000
1000
0001
0000
1000
0000
0010
0000
,
0100
0010
0000
0000
0100
0000
0010
0100
0000
0001
0100
0000
0010
0000
0000
0000
,
1000
0000
0000
0000
0001
0000
0000
0001
0000
0000
0001
0000
0010
0000
0000
0000
,
0100
0000
0000
0000
1000
0000
0000
1000
0000
0000
1000
0000
0001
0000
0000
0000
,
0100
0000
0000
0000
0010
0000
0000
1000
0000
0000
0010
0000
1000
0000
0000
0000
,
0001
0000
0000
0000
0010
0000
0000
0001
0000
0000
0010
0000
0100
0000
0000
0000
;

//---------------dance-single - ----------------
#NOTEDATA:;
#CHARTNAME:;
#STEPSTYPE:dance-single;
#DESCRIPTION:;
#CHARTSTYLE:;
#DIFFICULTY:Challenge;
#METER:10;
#RADARVALUES:0.726727,0.765890,0.417402,0.086959,0.530449,585.000000,537.000000,48.000000,10.000000,0.000000,0.000000,0.000000,0.000000,0.000000,0.726727,0.765890,0.417402,0.086959,0.530449,585.000000,537.000000,48.000000,10.000000,0.000000,0.000000,0.000000,0.000000,0.000000;
#CREDIT:;
#NOTES:
0000
0000
0000
0000
,
0000
0000
0000
0000
,
0000
0000
0000
0000
,
0000
0000
0000
0000
,
0001
0000
0100
0000
0010
1000
0000
1000
0001
0000
0001
0010
0000
0010
0100
0010
,
0100
0000
1000
0000
0001
0100
0000
0100
0001
0000
0001
1000
0000
1000
0100
0010
,
0100
0000
1000
0000
0001
1000
0000
1000
0010
0000
0010
0100
0000
0100
0001
0100
,
0001
0000
1000
0000
0001
1000
0000
1000
0100
0000
0100
0010
0000
0010
0001
1000
,
0001
0000
1000
0000
0001
0010
0000
0100
1000
0000
0001
1000
0000
0001
0100
0010
,
1000
0000
0001
0000
0010
0001
0000
1000
0001
0000
1000
0010
0000
0100
0001
1000
,
0100
0000
0010
0000
0001
0100
0000
0001
1000
0000
0100
1000
0000
0100
0010
0001
,
1000
0000
0001
0000
0100
0001
0000
1000
0001
0000
1000
0000
0100
0000
0010
0000
,
0001
0000
0101
0001
1000
0000
1100
1000
,
0001
0010
1000
0010
0001
0100
1000
0001
,
0010
0000
1010
1000
0001
0000
0011
0001
,
1000
0010
0001
0010
1000
0100
0001
1000
,
0010
0000
0110
0010
0001
0000
1001
0001
,
1000
0010
0001
0010
1000
0100
0001
0100
,
1000
1100
0001
0101
,
0001
1000
0010
0100
0001
0010
0100
1000
,
0001
0000
0010
0000
0100
1000
0000
1000
0001
0000
0001
0100
0000
0100
0001
1000
,
0001
0000
0010
0000
0100
1000
0000
1000
0001
0000
0001
0010
0000
0010
0001
1000
,
0010
0000
0100
0000
0001
0100
0000
0001
1000
0000
0100
1000
0000
0100
0010
0001
,
1000
0000
0001
0000
0010
0001
0000
1000
0001
0000
1000
0000
0010
0000
0100
0000
,
0001
0000
0101
0001
1000
0000
1100
1000
,
0001
0010
1000
0010
0001
0100
0010
0001
,
0100
0000
1100
1000
0001
0000
0101
0100
,
0001
0100
1000
0100
0001
0010
0100
0001
,
0010
0000
1010
1000
0001
0000
0011
0001
,
1000
0010
0001
0010
1000
0100
0010
1000
,
0100
0110
0001
1001
,
1000
0001
0010
0100
1000
0010
0100
0001
,
0021
0100
1000
0031
,
0201
0010
1000
0301
,
0101
0100
0010
1000
1010
1000
0001
0010
,
0011
0000
0001
0000
0010
0100
1000
0001
0100
0000
0000
0000
0010
0000
0010
1000
,
0000
1000
0001
1000
0001
0000
0001
0010
0000
0010
0000
0010
0100
0000
1000
0000
,
0001
0000
0001
0000
1000
0010
0001
0010
1000
0000
0000
0010
0010
1000
0010
0000
,
1000
0001
1000
0000
0001
0000
0010
0010
0100
0000
0000
1000
0001
0000
0010
0000
,
1000
0000
0010
0000
0001
0010
0011
0000
1000
0010
1010
0000
0020
0000
0000
0000
,
1030
0000
1000
0000
0001
0000
1000
0001
0010
0000
0100
0000
2000
0000
0000
0000
,
3001
0001
1000
2002
3003
0001
1000
0100
,
0010
0001
1000
0010
0100
0001
1000
0010
,
0001
0010
1000
1001
1001
0001
1000
0100
,
0010
0010
0100
0010
0001
0001
0011
0000
,
1001
1000
1010
0000
0110
0000
0001
0100
,
1000
0100
0010
1000
0001
0001
1000
1100
,
0110
0001
0101
0110
1001
0000
1000
0100
,
0001
0000
0100
0000
0010
0000
0001
1000
0001
0000
1001
0000
1000
0000
0010
0000
,
0001
0010
1000
2002
3003
1000
0001
0010
,
0100
0100
1000
0001
1000
1000
0001
0100
,
1000
0100
0010
0110
0110
0100
0001
0010
,
0100
0100
1000
0010
0100
0100
0101
0000
,
1001
0000
2200
0000
3300
0100
0010
0001
,
1000
0010
0100
0001
0010
0010
0001
0011
,
0011
0001
1001
1001
1000
1010
1010
0010
,
0100
0001
0000
0001
0010
0000
0010
0001
0000
0001
0010
0100
1000
0000
0001
0000
,
0100
0010
0000
0010
1000
0000
1000
0001
0000
0001
0010
0001
1000
0000
0001
0000
,
0100
0010
0000
0010
1000
0000
1000
0001
0000
0001
1000
0001
1000
0000
0100
0000
,
1000
0100
0000
0100
0010
0000
0010
0001
0000
0001
1000
0001
1000
0000
0010
0000
,
0100
0001
0000
1000
0001
0000
1000
0100
0000
0010
0001
1000
0010
0000
0100
0000
,
0001
0100
0000
0010
1000
0000
0001
1000
0000
0001
0010
0100
1000
0000
0001
0000
,
0100
0001
0000
1000
0001
0000
1000
0100
0000
0010
0001
1000
0010
0000
0100
0000
,
0001
0010
0000
0100
1000
0000
0001
1000
0000
0010
0100
0001
1000
0000
0010
0000
,
0100
0001
0000
0000
1000
0000
0000
1000
0000
0000
1000
0000
0001
0000
0010
0000
,
0100
1000
0000
0000
0001
0000
0000
0001
0000
0000
0001
0000
0010
0000
0001
0000
,
1000
0001
0000
0000
0100
0000
0000
0010
0000
0000
1000
0000
0010
0000
1000
0000
,
0001
1000
0000
0000
0001
0000
0000
0010
0000
0000
0100
1000
0001
0000
0000
0000
;

//---------------dance-single - ----------------
#NOTEDATA:;
#CHARTNAME:;
#STEPSTYPE:dance-single;
#DESCRIPTION:;
#CHARTSTYLE:;
#DIFFICULTY:Medium;
#METER:7;
#RADARVALUES:0.404979,0.441859,0.069567,0.304356,0.039131,326.000000,318.000000,8.000000,35.000000,0.000000,0.000000,0.000000,0.000000,0.000000,0.404979,0.441859,0.069567,0.304356,0.039131,326.000000,318.000000,8.000000,35.000000,0.000000,0.000000,0.000000,0.000000,0.000000;
#CREDIT:;
#NOTES:
// measure 0
0000
0000
0000
0000
,  // measure 1
0000
0000
0000
0000
,  // measure 2
0000
0000
0000
0000
,  // measure 3
0000
0000
0000
0000
,  // measure 4
0001
0000
0010
0000
0100
0000
1000
0100
,  // measure 5
0010
0000
0001
0000
0100
0000
0001
0100
,  // measure 6
0010
0000
1000
0000
0001
0000
1000
0001
,  // measure 7
0010
0000
0100
0000
1000
0000
0001
1000
,  // measure 8
0001
0000
0000
0000
0100
0000
0000
0000
0010
0000
0000
0010
0000
0000
1000
0000
,  // measure 9
0001
0000
0000
0000
0010
0000
0000
0000
0100
0000
0000
0100
0000
0000
0010
0000
,  // measure 10
0001
0000
0000
0000
1000
0000
0000
0000
0010
0000
0000
0010
0000
0000
1000
0000
,  // measure 11
0001
0000
0010
0000
0100
1000
0100
0010
,  // measure 12
0002
0000
0003
0010
0002
0000
0003
0010
,  // measure 13
0001
1000
0010
0010
,  // measure 14
0200
0000
0300
0010
0200
0000
0300
0010
,  // measure 15
0100
0000
0001
0000
1000
0001
1000
0000
,  // measure 16
0020
0000
0030
1000
0020
0000
0030
1000
,  // measure 17
0010
1000
0001
0010
,  // measure 18
0100
1100
1000
1001
,  // measure 19
0001
0000
0100
0000
0010
1000
0001
0000
,  // measure 20
1000
0000
0100
0000
0001
0000
0100
1000
,  // measure 21
0001
0000
0100
0000
1000
0000
0100
0001
,  // measure 22
1000
0000
0010
0000
0001
0000
0010
1000
,  // measure 23
0001
0000
0010
0000
1000
0010
0001
1000
,  // measure 24
0020
0000
0030
1000
0020
0000
0030
1000
,  // measure 25
0010
0000
0100
0000
0001
0001
1000
0100
,  // measure 26
0020
0000
0030
0001
0020
0000
0030
0001
,  // measure 27
0010
0000
0100
0000
1000
0001
0100
0000
,  // measure 28
0020
0000
0030
0100
0020
0000
0030
1000
,  // measure 29
0001
0000
0010
0000
0100
0010
0100
0000
,  // measure 30
1000
1001
0001
2002
,  // measure 31
3003
0001
0100
0010
1000
0001
0010
0100
,  // measure 32
2000
0010
0010
0010
,  // measure 33
3020
0100
0100
0100
,  // measure 34
0230
0001
0302
1000
,  // measure 35
2003
3200
0310
0002
,  // measure 36
0000
1000
2003
0000
0000
0000
3020
0000
,  // measure 37
0230
0000
0001
0001
0302
0000
0013
0000
,  // measure 38
0100
0000
1000
0001
1000
0000
0001
0100
,  // measure 39
0010
0000
0010
0000
0000
1000
1000
0000
0001
0001
0000
0000
0100
0000
0000
0000
,  // measure 40
0010
0000
1000
0010
0001
0010
1000
0000
,  // measure 41
0001
0000
0010
0020
0000
0030
0001
0000
,  // measure 42
0100
0000
0010
0000
1000
0000
0001
0010
,  // measure 43
1000
0010
0002
0000
0003
0100
0001
0100
,  // measure 44
0001
0000
1000
0100
1000
0000
0002
0000
,  // measure 45
0203
0000
0020
0000
0330
0010
1000
0000
,  // measure 46
0010
0000
0100
0000
0001
0000
1000
0001
,  // measure 47
1000
0000
0100
0010
0100
0000
0011
0000
,  // measure 48
1001
0000
0001
1000
0010
0000
1010
0000
,  // measure 49
0110
0000
0010
0200
0000
0301
1000
0000
,  // measure 50
0100
0000
0010
0100
0010
0000
0001
0010
,  // measure 51
0100
1000
0001
0100
0020
0000
1030
0100
,  // measure 52
1000
0000
0001
0100
0001
0000
2000
0000
,  // measure 53
3200
0020
0330
0001
,  // measure 54
0010
0000
0100
1000
0001
0100
0000
0010
,  // measure 55
0010
0000
1000
1000
0000
0001
1000
0000
,  // measure 56
0100
0000
0010
0000
0010
0001
1000
0000
,  // measure 57
0010
0000
0100
0000
0100
0010
1000
0001
,  // measure 58
0010
0000
0100
0000
0100
0010
0001
0000
,  // measure 59
1000
0000
0010
0000
0010
0100
0001
1000
,  // measure 60
0100
0000
0000
0000
0010
0000
0000
0100
0000
0000
0010
0000
0100
0000
0000
0000
,  // measure 61
0010
0000
0000
0000
0001
0000
0000
1000
0000
0000
0001
0000
1000
0000
0010
0000
,  // measure 62
0100
0000
0000
0000
0001
0000
0000
0010
0000
0000
0001
0000
0010
0000
0000
0000
,  // measure 63
0001
0000
0000
0000
1000
0000
0000
0010
0000
0000
1000
0000
0010
0000
0100
0000
,  // measure 64
0001
0000
0010
0000
0001
0010
0100
0000
,  // measure 65
1000
0000
0010
0000
1000
0010
0100
0000
,  // measure 66
0001
0000
1000
0000
0001
1000
0100
0000
,  // measure 67
0010
0000
0001
0000
1000
0010
0100
0000
;

//---------------dance-single - ----------------
#NOTEDATA:;
#CHARTNAME:;
#STEPSTYPE:dance-single;
#DESCRIPTION:;
#CHARTSTYLE:;
#DIFFICULTY:Easy;
#METER:5;
#RADARVALUES:0.306840,0.353487,0.191309,0.173918,0.000000,247.000000,225.000000,22.000000,20.000000,0.000000,0.000000,0.000000,0.000000,0.000000,0.306840,0.353487,0.191309,0.173918,0.000000,247.000000,225.000000,22.000000,20.000000,0.000000,0.000000,0.000000,0.000000,0.000000;
#CREDIT:;
#NOTES:
0000
0000
0000
0000
,
0000
0000
0000
0000
,
0000
0000
0000
0000
,
0000
0000
0000
0000
,
1000
0010
0200
0301
,
0001
0100
0020
1030
,
1000
0100
0020
0031
,
0001
0010
0200
1300
,
1000
0010
0100
0100
,
0001
0010
0100
0100
,
0010
0100
1000
1000
,
0100
1000
0001
0001
,
0001
0000
0001
0000
,
0001
0100
0010
0010
,
1000
0000
1000
0000
,
1000
0100
0110
0110
,
0010
0000
0010
0000
,
0010
0001
1000
1000
,
0001
0100
0010
1000
,
0000
0001
0010
0100
,
1000
0100
0010
0000
,
0001
0100
0010
0000
,
1000
0010
1000
0000
,
0001
0010
0001
1000
,
1000
0000
1100
0000
,
0100
1000
0001
0001
,
0100
0000
0101
0000
,
0001
0100
0110
0110
,
0010
0000
1010
0000
,
1000
0001
0010
0010
,
0001
0010
0100
1000
,
0000
0001
0100
0010
,
1000
1000
1000
1000
,
0001
0001
0001
0001
,
0100
0100
0010
0010
,
1000
0001
1000
0100
,
0000
0100
0000
0010
,
0010
0000
0001
0001
0001
0000
1000
0000
,
0010
0000
0100
0000
0001
0000
1000
1000
,
1000
0001
0001
0100
,
0000
0100
0010
1000
,
0000
1000
0001
0010
,
0010
0100
0100
1000
,
0001
1001
0000
1000
,
0010
1000
0001
1000
,
0100
0010
0000
0001
,
0001
1000
1000
0000
,
1001
1001
0000
0001
,
0001
0100
0010
1000
,
1000
1001
0000
0001
,
0001
0010
0010
0100
,
1000
1001
1001
0001
,
0100
1000
0100
0010
,
0010
0010
0000
0100
,
0010
1000
0001
0000
,
0010
0010
0000
0100
,
1000
0002
0103
0100
,
0010
2000
3001
0001
,
0010
0200
0310
0010
,
0100
2000
3010
2010
,
0100
0001
3010
1020
,
0100
0001
0130
0210
,
0001
1000
0310
0102
,
0010
0100
1003
0001
,
0010
0022
0033
0001
,
1000
2020
3030
0010
,
0100
0220
0330
1000
,
0100
0220
0330
1001
;

//---------------dance-single - ----------------
#NOTEDATA:;
#CHARTNAME:;
#STEPSTYPE:dance-single;
#DESCRIPTION:;
#CHARTSTYLE:;
#DIFFICULTY:Beginner;
#METER:2;
#RADARVALUES:0.145345,0.206201,0.017392,0.000000,0.000000,117.000000,115.000000,2.000000,0.000000,0.000000,0.000000,0.000000,0.000000,0.000000,0.145345,0.206201,0.017392,0.000000,0.000000,117.000000,115.000000,2.000000,0.000000,0.000000,0.000000,0.000000,0.000000,0.000000;
#CREDIT:;
#NOTES:
0000
0000
0000
0000
,
0000
0000
0000
0000
,
0000
0000
0000
0000
,
0000
0000
0000
0000
,
1000
0000
0000
0000
,
1000
0000
0000
0000
,
0100
0000
0100
0000
,
0010
0000
0010
0000
,
0001
0000
0000
0000
,
0001
0000
0000
0000
,
0100
0000
0100
0000
,
0010
0000
0010
0000
,
1000
0000
0000
0000
,
1000
0000
1000
0000
,
1000
0000
0000
0000
,
0001
0001
0001
0000
,
0010
0000
0000
0000
,
0010
0000
0000
0000
,
0100
0100
0100
0000
,
1000
1000
1000
0000
,
0001
0000
0000
0000
,
1000
0000
0000
0000
,
0001
0000
0001
0000
,
1000
0000
1000
0000
,
0010
0000
0000
0000
,
0010
0000
0010
0000
,
0010
0000
0000
0000
,
0100
0100
0100
0000
,
0001
0000
0000
0000
,
0001
0000
0001
0000
,
0001
0001
0001
0000
,
1000
1000
1000
0000
,
0100
0000
0000
0000
,
0010
0000
0000
0000
,
0001
0000
1000
0000
,
0001
0000
1000
0010
,
0000
0010
0000
0100
,
0100
0100
0000
0001
,
0000
1000
0000
0100
,
0100
0000
0000
0010
,
0000
0000
0000
0001
,
0000
0000
0000
1000
,
0000
1000
0000
1000
,
1000
1000
0000
0001
,
0000
0100
0000
0010
,
0000
1000
0000
0001
,
0001
0001
0000
1000
,
0000
1001
0000
0001
,
0000
0010
0000
0100
,
0000
1000
0000
0001
,
0000
0001
0000
1000
,
1000
1000
0000
0001
,
0000
0100
0000
0010
,
0010
0010
0000
1000
,
0000
0100
0000
0010
,
0000
0110
0000
0010
,
0000
0000
0000
0010
,
0000
0010
0000
0001
,
0000
0000
0000
0001
,
0000
0001
0000
1000
,
0000
0000
0000
1000
,
0000
1000
0000
0010
,
0000
0000
0000
0010
,
0000
0010
0000
0100
,
0000
0000
0000
0001
,
0000
0000
0000
1000
,
0000
0000
0000
0100
,
0000
0000
0000
0010
;
