#TITLE:When I'm Around U;
#SUBTITLE:;
#ARTIST:BURNS;
#TITLETRANSLIT:;
#SUBTITLETRANSLIT:;
#ARTISTTRANSLIT:;
#CREDIT:;
#BANNER:When I'm Around U.png;
#BACKGROUND:When I'm Around U - bg.png;
#LYRICSPATH:;
#CDTITLE:cdtitle.png;
#MUSIC:When I'm Around U.ogg;
#OFFSET:-0.150;
#SAMPLESTART:67.660;
#SAMPLELENGTH:14.480;
#SELECTABLE:YES;
#DISPLAYBPM:128.000;
#BPMS:0.000=128.000,16.000=64.000,32.000=128.000,66.000=192.000,67.000=96.000,68.000=128.000,70.000=192.000,71.000=96.000,72.000=128.000,74.000=192.000,75.000=96.000,76.000=128.000,78.000=192.000,79.000=96.000,80.000=128.000,82.000=192.000,83.000=96.000,84.000=128.000,86.000=192.000,87.000=96.000,88.000=128.000,90.000=192.000,91.000=96.000,92.000=128.000,94.000=192.000,95.000=96.000,96.000=128.000,103.000=256.000,104.000=128.000,111.000=256.000,112.000=128.000,119.000=256.000,120.000=128.000,122.000=256.000,125.000=128.000,147.000=256.000,148.000=128.000,162.000=256.000,163.000=128.000,177.000=256.000,178.000=128.000,185.000=64.000,189.000=128.000,255.000=192.000,256.000=96.000,257.000=128.000,259.000=192.000,260.000=96.000,261.000=128.000,263.000=192.000,264.000=96.000,265.000=128.000,267.000=192.000,268.000=96.000,269.000=128.000,271.000=192.000,272.000=96.000,273.000=128.000,275.000=192.000,276.000=96.000,277.000=128.000,279.000=192.000,280.000=96.000,281.000=128.000,283.000=192.000,284.000=96.000,285.000=128.000,292.000=256.000,293.000=128.000,300.000=256.000,301.000=128.000,308.000=256.000,309.000=128.000,311.000=256.000,314.000=128.000,336.000=256.000,337.000=128.000,351.000=256.000,352.000=128.000,366.000=256.000,367.000=128.000,373.000=256.000,374.000=128.000;
#STOPS:103.000=0.115
,103.500=0.115
,111.000=0.115
,111.500=0.115
,119.000=0.115
,119.500=0.115
,120.000=0.230
,120.500=0.230
,122.250=0.010
,122.500=0.010
,122.750=0.010
,123.000=0.010
,123.250=0.010
,123.500=0.010
,123.750=0.010
,124.000=1.140
,126.000=0.230
,126.500=0.230
,133.000=0.230
,133.500=0.230
,140.000=0.230
,140.500=0.230
,147.000=0.115
,147.500=0.115
,154.750=0.480
,162.000=0.115
,162.500=0.115
,170.000=0.230
,170.500=0.230
,177.000=0.115
,177.500=0.115
,292.000=0.115
,292.500=0.115
,300.000=0.115
,300.500=0.115
,308.000=0.115
,308.500=0.115
,309.000=0.230
,309.500=0.230
,311.250=0.010
,311.500=0.010
,311.750=0.010
,312.000=0.010
,312.250=0.010
,312.500=0.010
,312.750=0.010
,313.000=1.140
,315.000=0.230
,315.500=0.230
,322.000=0.230
,322.500=0.230
,329.000=0.230
,329.500=0.230
,336.000=0.115
,336.500=0.115
,343.750=0.480
,351.000=0.115
,351.500=0.115
,359.000=0.230
,359.500=0.230
,366.000=0.115
,366.500=0.115
;
#BGCHANGES:0.000=When I'm Around U.avi=1.000=1=0=0,
374.500=When I'm Around U - bg.png=1.000=0=0=1,
392.000=When I'm Around U - bg.png=1.000=0=0=1,
99999=-nosongbg-=1.000=0=0=0 // don't automatically add -songbackground-
;

//---------------dance-single - ----------------
#NOTES:
     dance-single:
     :
     Hard:
     10:
     0.518,0.796,0.335,0.309,0.443:
0000
0000
0000
0000
,
0000
0000
0000
0000
,
1000
1000
0001
0001
0100
0100
0010
0010
,
1000
0100
1000
0100
1000
0100
1000
0100
1000
0000
0000
0000
0000
0000
0000
0000
,
1M00
0000
0001
0000
1000
0000
0001
0000
1000
0000
0001
0010
0000
0000
0001
0000
0100
0000
0001
0000
0100
0000
0001
0000
0100
0000
0010
0000
0100
0000
0010
0000
,
0100
0000
0010
0000
1000
0000
0010
0000
1000
0000
0010
0100
0000
0000
0010
0000
1000
0000
0001
0000
1000
0000
0001
0000
0100
0000
0010
0000
0100
0000
0010
0000
,
1000
0000
0001
0000
1000
0000
0001
0000
1000
0000
0001
0100
0000
0000
0001
0000
0010
0000
0001
0000
0010
0000
0001
0000
0010
0000
0100
0000
0010
0000
0100
0000
,
0010
0000
0100
0000
1000
0000
0100
0000
1000
0000
0100
0010
0000
0000
0001
0000
0010
0000
0001
0000
0010
0000
0001
0000
1000
0000
0001
0000
1000
0000
0001
0000
,
10M0
0000
1000
0001
0100
0010
1000
0000
,
0001
1000
0002
0010
,
0013
0100
1000
0010
0100
0010
1000
0001
,
0020
0100
0230
1000
,
1300
0000
0001
1000
0020
0000
1000
0000
,
1030
0001
1000
0001
,
1000
0100
0000
0100
0001
0100
2000
0000
,
0010
0000
0010
0000
0002
0000
0000
3003
,
1001
0000
0000
0000
0000
0000
0000
0000
0000
0000
0000
0000
0000
0000
0000
0000
1000
0000
0000
0000
0000
0000
0000
0000
0000
0000
0000
0000
0000
0000
0000
0000
0002
0000
0000
0000
0000
0000
0000
0000
0000
0000
0000
0000
0000
0000
0000
0000
0000
0103
0000
0000
0000
0000
0000
0000
0000
0000
0000
0000
0000
0000
0000
0000
,
0100
0000
0000
0000
0000
0000
0000
0000
0000
0000
0000
0000
0000
0000
0000
0000
0001
0000
0000
0000
0000
0000
0000
0000
0000
0000
0000
0000
0000
0000
0000
0000
2000
0000
0000
0000
0000
0000
0000
0000
0000
0000
0000
0000
0000
0000
0000
0000
0000
3010
0000
0000
0000
0000
0000
0000
0000
0000
0000
0000
0000
0000
0000
0000
,
0010
0000
0000
0000
0000
0000
0000
0000
0000
0000
0000
0000
0000
0000
0000
0000
1000
0000
0000
0000
0000
0000
0000
0000
0000
0000
0000
0000
0000
0000
0000
0000
0002
0000
0000
0000
0000
0000
0000
0000
0000
0000
0000
0000
0000
0000
0000
0000
0000
0103
0000
0000
0000
0000
0000
0000
0000
0000
0000
0000
0000
0000
0000
0000
,
0100
0000
0000
0000
0000
0000
0000
0000
0000
0000
0000
0000
0000
0000
0000
0000
0001
0000
0000
0000
0000
0000
0000
0000
0000
0000
0000
0000
0000
0000
0000
0000
2000
0000
0000
0000
0000
0000
0000
0000
0000
0000
0000
0000
0000
0000
0000
0000
0000
3010
0000
0000
0000
0000
0000
0000
0000
0000
0100
0000
0000
0000
0000
0000
,
0100
0000
0000
0000
0000
0000
0000
0000
0000
0000
0000
0000
0000
0000
0000
0000
0001
0000
0000
0000
0000
0000
0000
0000
0000
0000
0000
0000
0000
0000
0000
0000
0020
0000
0000
0000
0000
0000
0000
0000
0000
0000
0000
0000
0000
0000
0000
0000
0000
0130
0000
0000
0000
0000
0000
0000
0000
0000
0000
0000
0000
0000
0000
0000
,
0100
0000
0000
0000
0000
0000
0000
0000
0000
0000
0000
0000
0000
0000
0000
0000
1000
0000
0000
0000
0000
0000
0000
0000
0000
0000
0000
0000
0000
0000
0000
0000
0200
0000
0000
0000
0000
0000
0000
0000
0000
0000
0000
0000
0000
0000
0000
0000
0000
0310
0000
0000
0000
0000
0000
0000
0000
0000
0000
0000
0000
0000
0000
0000
,
0010
0000
0000
0000
0000
0000
0000
0000
0000
0000
0000
0000
0000
0000
0000
0000
0001
0000
0000
0000
0000
0000
0000
0000
0000
0000
0000
0000
0000
0000
0000
0000
0200
0000
0000
0000
0000
0000
0000
0000
0000
0000
0000
0000
0000
0000
0000
0000
0000
0310
0000
0000
0000
0000
0000
0000
0000
0000
0000
0000
0000
0000
0000
0000
,
0010
0000
0000
0000
0000
0000
0000
0000
0000
0000
0000
0000
0000
0000
0000
0000
1000
0000
0000
0000
0000
0000
0000
0000
0000
0000
0000
0000
0000
0000
0000
0000
0020
0000
0000
0000
0000
0000
0000
0000
0000
0000
0000
0000
0000
0000
0000
0000
0000
0130
0000
0000
0000
0000
0000
0000
0000
0000
0010
0000
0000
0000
0000
0000
,
1010
0000
0000
1000
0001
0000
0000
0000
0010
0000
0000
0010
0000
0000
0000
0000
,
0001
0000
0000
0001
1000
0000
0000
0000
0001
0000
0000
0001
0100
0000
0100
0000
,
0001
0000
0000
0001
0100
0000
0000
0000
0010
0000
0000
0010
0000
0000
0000
0000
,
1000
0000
0000
1000
0001
0000
0000
0000
1000
0000
0000
1000
0100
0000
0100
0000
,
1000
0001
1000
0010
0100
0001
1000
0001
,
1000
0100
0010
0001
1000
0001
1000
1000
,
002M
0000
2M30
0000
0002
0000
0000
0000
0MM0
0MM0
0MM0
0MM0
0MM0
0MM0
0MM0
0MM0
,
3MM3
0000
0000
0000
0000
0000
0000
0000
101M
0000
M110
0000
0201
0000
0000
0001
,
0000
0000
0001
0000
0301
1000
0000
1000
0100
0000
1000
0010
1000
0010
1000
0000
,
0001
0000
0000
0000
M011
0000
011M
0000
1200
0000
0000
1000
0000
0000
1000
0000
,
1300
0001
0000
0001
0100
0000
0001
0010
0001
0010
0001
0000
1000
0000
0000
0000
,
00M2
0003
2M00
3000
2010
0000
0000
0010
0000
0000
0010
0000
3010
1000
0000
1000
,
0001
0000
0010
0100
0010
0100
0010
0000
0001
0000
0000
0000
0101
0000
0100
0000
,
0210
0000
0000
0000
0000
0000
0000
0000
0000
0000
0000
0000
0010
0000
0000
0000
0000
0000
0000
0000
0000
0010
0000
0000
0000
0000
0000
0000
0000
0000
0010
0000
0000
0000
0000
0000
0310
0000
0000
0000
1000
0000
0000
0000
0010
0000
0000
0000
,
0100
0001
0100
0010
1000
0001
1000
0000
0000
1001
0000
0000
,
0101
0000
0000
1100
0000
0000
0101
0000
0001
1000
0000
0100
0010
0000
0001
0010
,
0100
0010
0001
0000
1000
0000
0000
0000
1010
0000
0010
0000
0110
0000
0000
0000
,
1010
0000
0000
0011
0000
0000
1010
0000
1000
0001
0000
0100
0010
0000
1000
0010
,
0100
0010
1000
0000
0001
0000
0000
0000
M020
0030
020M
0300
1100
0000
0000
0011
,
0000
0000
1100
0000
1000
0010
0000
0100
0001
0000
1000
0100
1000
0100
0010
0000
,
0001
0000
0000
0000
0011
0000
0010
0000
0110
0000
0000
0000
1010
0000
0000
0101
,
0000
0000
0000
1010
0000
0000
1000
0000
0100
0000
0010
0000
0001
0000
0100
0000
0010
0000
1000
0000
0010
0000
0100
0000
,
0001
0000
0000
0000
2002
0000
0000
0000
3003
0000
0000
0000
000M
00M0
0M00
M000
,
000M
00M0
0M00
M000
0M00
0000
0001
0000
0100
0000
0001
0000
0100
0000
0020
0000
,
0000
003M
0000
M000
0000
000M
0000
M000
,
0000
000M
0000
1000
0010
0001
0010
1000
,
0001
2000
0000
30M0
0000
0M00
0000
00M0
,
0000
0M00
0000
2000
0000
0010
0020
0000
,
0000
303M
0000
M000
0000
000M
0000
M000
,
0000
000M
0010
1000
0000
1000
0010
0100
,
0002
0000
0000
2000
,
0000
3003
1001
0000
0001
1000
0100
0010
,
0001
1000
0001
2000
,
0010
0000
3010
0100
0001
0010
0100
0010
,
0001
1000
0020
0000
0100
0000
0230
0000
,
0001
0000
0301
0000
1000
0001
0020
0000
,
0001
0031
1000
0001
,
1000
0000
0001
0100
0000
0100
1000
0100
,
0002
0010
0010
2000
,
0000
3003
1001
0000
0001
0000
2000
0000
,
0000
3100
0000
0000
0000
0000
0000
0000
0000
0000
0000
0000
0000
0000
0000
0000
0100
0000
0000
0000
0000
0000
0000
0000
0000
0000
0000
0000
0000
0000
0000
0000
1000
0000
0000
0000
0000
0000
0000
0000
0000
0000
0000
0000
0000
0000
0000
0000
0002
0000
0000
0000
0000
0000
0000
0000
0000
0000
0000
0000
0000
0000
0000
0000
,
0000
0013
0000
0000
0000
0000
0000
0000
0000
0000
0000
0000
0000
0000
0000
0000
0010
0000
0000
0000
0000
0000
0000
0000
0000
0000
0000
0000
0000
0000
0000
0000
0001
0000
0000
0000
0000
0000
0000
0000
0000
0000
0000
0000
0000
0000
0000
0000
2000
0000
0000
0000
0000
0000
0000
0000
0000
0000
0000
0000
0000
0000
0000
0000
,
0000
3100
0000
0000
0000
0000
0000
0000
0000
0000
0000
0000
0000
0000
0000
0000
0100
0000
0000
0000
0000
0000
0000
0000
0000
0000
0000
0000
0000
0000
0000
0000
1000
0000
0000
0000
0000
0000
0000
0000
0000
0000
0000
0000
0000
0000
0000
0000
0002
0000
0000
0000
0000
0000
0000
0000
0000
0000
0000
0000
0000
0000
0000
0000
,
0000
0013
0000
0000
0000
0000
0000
0000
0000
0000
0100
0000
0000
0000
0000
0000
0100
0000
0000
0000
0000
0000
0000
0000
0000
0000
0000
0000
0000
0000
0000
0000
1000
0000
0000
0000
0000
0000
0000
0000
0000
0000
0000
0000
0000
0000
0000
0000
0020
0000
0000
0000
0000
0000
0000
0000
0000
0000
0000
0000
0000
0000
0000
0000
,
0000
0130
0000
0000
0000
0000
0000
0000
0000
0000
0000
0000
0000
0000
0000
0000
0100
0000
0000
0000
0000
0000
0000
0000
0000
0000
0000
0000
0000
0000
0000
0000
0001
0000
0000
0000
0000
0000
0000
0000
0000
0000
0000
0000
0000
0000
0000
0000
0200
0000
0000
0000
0000
0000
0000
0000
0000
0000
0000
0000
0000
0000
0000
0000
,
0000
0310
0000
0000
0000
0000
0000
0000
0000
0000
0000
0000
0000
0000
0000
0000
0010
0000
0000
0000
0000
0000
0000
0000
0000
0000
0000
0000
0000
0000
0000
0000
1000
0000
0000
0000
0000
0000
0000
0000
0000
0000
0000
0000
0000
0000
0000
0000
0200
0000
0000
0000
0000
0000
0000
0000
0000
0000
0000
0000
0000
0000
0000
0000
,
0000
0310
0000
0000
0000
0000
0000
0000
0000
0000
0000
0000
0000
0000
0000
0000
0010
0000
0000
0000
0000
0000
0000
0000
0000
0000
0000
0000
0000
0000
0000
0000
0001
0000
0000
0000
0000
0000
0000
0000
0000
0000
0000
0000
0000
0000
0000
0000
0020
0000
0000
0000
0000
0000
0000
0000
0000
0000
0000
0000
0000
0000
0000
0000
,
0000
0130
0000
0000
0000
0000
0000
0000
0000
0000
0010
0000
0000
0000
0000
0000
0011
0000
0000
0000
0000
0000
0000
0000
0000
0000
0000
0000
0001
0000
0000
0000
1000
0000
0000
0000
0000
0000
0000
0000
0000
0000
0000
0000
0000
0000
0000
0000
0010
0000
0000
0000
0000
0000
0000
0000
0000
0000
0000
0000
0010
0000
0000
0000
,
0000
0000
0000
0000
1000
0000
0000
1000
0001
0000
0000
0000
1000
0000
0000
1000
,
0100
0000
0100
0000
1000
0000
0000
1000
0100
0000
0000
0000
0010
0000
0000
0010
,
0000
0000
0000
0000
0001
0000
0000
0001
1000
0000
0000
0000
0001
0000
0000
0001
,
0100
0100
0001
0010
0100
1000
0010
0100
,
0010
0100
0001
0010
0100
1000
0010
0100
,
0010
0000
0010
0000
2M00
0000
30M2
0000
0200
0000
0000
0000
M0M0
M0M0
M0M0
M0M0
,
M0M0
M0M0
M0M0
M0M0
M3M3
0000
0000
0000
0000
0000
0000
0000
1M10
0000
01M1
0000
,
2001
0000
0000
0001
0000
0000
0001
0000
3001
0100
0000
0100
0010
0000
0100
0001
,
0100
0001
0100
0000
0001
0000
0000
0000
0M11
0000
11M0
0000
1002
0000
0000
1000
,
0000
0000
1000
0000
1003
0100
0000
0100
0010
0000
0100
1000
0100
1000
0100
0000
,
1000
0000
0000
0000
00M2
0003
M200
0300
0210
0000
0000
0010
0000
0000
0010
0000
,
0310
1000
0000
1000
0001
0000
1000
0010
1000
0010
1000
0000
0001
0000
0000
0000
,
1001
0000
0001
0000
0021
0000
0000
0000
0001
0000
0000
0001
0000
0000
0001
0000
,
0031
0010
0100
1000
0010
0100
0001
0100
0010
1000
0000
0000
,
1001
0000
0000
0000
0101
0000
0000
1100
0000
0000
1010
0000
0010
0100
0000
0001
,
1000
0000
0001
0100
0010
0100
0001
0000
1000
0000
0000
0000
1100
0000
1000
0000
,
1001
0000
0000
0000
1010
0000
0000
0011
0000
0000
0101
0000
0100
0010
0000
1000
,
0001
0000
1000
0100
0010
0100
1000
0000
0001
0000
0000
0000
2M00
3000
00M2
0003
,
0101
0000
0000
0011
0000
0000
1010
0000
0010
1000
0000
0001
0010
0000
0100
1000
,
0100
1000
0001
0000
0100
0000
0000
0000
0011
0000
0001
0000
1001
0000
0000
0000
,
1010
0000
0000
0000
0000
0000
0000
0000
0000
0101
0000
0000
0000
0000
0000
0000
0000
0000
1100
0000
0000
0000
0000
0000
1001
0000
0000
0000
0000
0000
1010
0000
0000
0000
0000
0000
0110
0000
0000
0000
0110
0000
0000
0000
1010
0000
0000
0000
,
1010
0000
2002
0000
3003
M00M
0000
0000
;

//---------------dance-single - ----------------
#NOTES:
     dance-single:
     :
     Medium:
     8:
     0.364,0.410,0.263,0.216,0.180:
0000
0000
0000
0000
,
0000
0000
0000
0000
,
0001
1000
0001
1000
0001
1000
0001
1000
,
0010
1000
0010
1000
0010
0000
0000
0000
,
000M
1000
0000
0001
0000
0010
0000
0001
0000
1000
0000
0001
0000
1000
0000
0001
,
0000
0100
0000
0001
0000
1000
0000
0001
0000
0100
0000
0001
0000
0100
0000
0010
,
0000
0100
0000
0010
0000
1000
0000
0010
0000
0100
0000
0010
0000
0100
0000
0001
,
0000
1000
0000
0001
0000
0010
0000
0001
0000
1000
0000
0001
0000
1000
0000
0001
,
M000
0000
0001
0100
0001
0000
1000
0000
,
0001
1000
0020
0130
,
0002
0000
1003
0010
1000
0000
0001
0000
,
2000
3010
0200
0301
,
1000
0000
0010
1000
0010
0000
1000
0000
,
0001
0010
0100
0010
,
0100
0000
1000
0001
1000
0000
0001
0000
,
0100
0001
0200
0000
,
0310
0000
0000
0000
0000
0000
0000
0000
0000
0000
0000
0000
0000
0000
0000
0000
1000
0000
0000
0000
0000
0000
0000
0000
0000
0000
0000
0000
0000
0000
0000
0000
0010
0000
0000
0000
0000
0000
0000
0000
0000
0000
0000
0000
0000
0000
0000
0000
0000
1000
0000
0000
0000
0000
0000
0000
0000
0000
0000
0000
0000
0000
0000
0000
,
0100
0000
0000
0000
0000
0000
0000
0000
0000
0000
0000
0000
0000
0000
0000
0000
1000
0000
0000
0000
0000
0000
0000
0000
0000
0000
0000
0000
0000
0000
0000
0000
0100
0000
0000
0000
0000
0000
0000
0000
0000
0000
0000
0000
0000
0000
0000
0000
0000
1000
0000
0000
0000
0000
0000
0000
0000
0000
0000
0000
0000
0000
0000
0000
,
0010
0000
0000
0000
0000
0000
0000
0000
0000
0000
0000
0000
0000
0000
0000
0000
1000
0000
0000
0000
0000
0000
0000
0000
0000
0000
0000
0000
0000
0000
0000
0000
0010
0000
0000
0000
0000
0000
0000
0000
0000
0000
0000
0000
0000
0000
0000
0000
0000
1000
0000
0000
0000
0000
0000
0000
0000
0000
0000
0000
0000
0000
0000
0000
,
0100
0000
0000
0000
0000
0000
0000
0000
0000
0000
0000
0000
0000
0000
0000
0000
1000
0000
0000
0000
0000
0000
0000
0000
0000
0000
0000
0000
0000
0000
0000
0000
0100
0000
0000
0000
0000
0000
0000
0000
0000
0000
0000
0000
0000
0000
0000
0000
0000
1000
0000
0000
0000
0000
0000
0000
0000
0000
0000
0000
0000
0000
0000
0000
,
0001
0000
0000
0000
0000
0000
0000
0000
0000
0000
0000
0000
0000
0000
0000
0000
0010
0000
0000
0000
0000
0000
0000
0000
0000
0000
0000
0000
0000
0000
0000
0000
0001
0000
0000
0000
0000
0000
0000
0000
0000
0000
0000
0000
0000
0000
0000
0000
0000
0010
0000
0000
0000
0000
0000
0000
0000
0000
0000
0000
0000
0000
0000
0000
,
0001
0000
0000
0000
0000
0000
0000
0000
0000
0000
0000
0000
0000
0000
0000
0000
0100
0000
0000
0000
0000
0000
0000
0000
0000
0000
0000
0000
0000
0000
0000
0000
0001
0000
0000
0000
0000
0000
0000
0000
0000
0000
0000
0000
0000
0000
0000
0000
0000
0100
0000
0000
0000
0000
0000
0000
0000
0000
0000
0000
0000
0000
0000
0000
,
0001
0000
0000
0000
0000
0000
0000
0000
0000
0000
0000
0000
0000
0000
0000
0000
0010
0000
0000
0000
0000
0000
0000
0000
0000
0000
0000
0000
0000
0000
0000
0000
0001
0000
0000
0000
0000
0000
0000
0000
0000
0000
0000
0000
0000
0000
0000
0000
0000
0010
0000
0000
0000
0000
0000
0000
0000
0000
0000
0000
0000
0000
0000
0000
,
0001
0000
0000
0000
0000
0000
0000
0000
0000
0000
0000
0000
0000
0000
0000
0000
0100
0000
0000
0000
0000
0000
0000
0000
0000
0000
0000
0000
0000
0000
0000
0000
0001
0000
0000
0000
0000
0000
0000
0000
0000
0000
0000
0000
0000
0000
0000
0000
0000
0100
0000
0000
0000
0000
0000
0000
0000
0000
0000
0000
0000
0000
0000
0000
,
0110
0010
0100
0010
,
1000
0000
0001
0000
1000
0000
0001
1000
,
0001
1000
0001
1000
,
0001
0000
0100
0000
0010
0000
0100
0010
,
0200
0001
0001
0301
,
1002
0000
0010
0000
0010
0000
0013
0100
,
0020
0000
0000
0000
0002
0000
0000
0000
M000
M000
M000
M000
M000
M000
M000
M000
,
M033
0000
M00M
0000
0M11
0M11
1002
0000
,
1000
0000
1003
0000
1010
0000
0010
0100
,
0001
0000
0M11
0M11
1002
0000
1000
0000
,
1003
0000
0011
0000
0010
0100
1000
0000
,
2000
3002
0100
0103
,
1001
0000
1000
0010
1000
0000
0001
0100
,
0002
1000
1003
2000
,
3200
0320
0031
1001
,
1000
0000
0000
1000
0000
0000
1000
0000
1001
0000
0000
0000
0011
0000
0000
0000
,
0110
0000
1100
0000
0100
0010
0001
0000
,
0100
0000
0000
0100
0000
0000
0100
0000
0101
0000
0000
0000
0110
0000
0000
0000
,
1010
0000
0000
0000
1001
0000
0000
0000
0002
0000
0000
0000
0013
0000
0000
0010
,
0000
0010
0011
0000
1001
0000
1010
0000
,
1100
0000
0000
0000
0100
0000
1000
0000
0010
0000
0000
0000
1000
0000
0000
1000
,
0000
1000
0002
0000
0203
0000
0320
0000
,
1030
0000
0000
0000
2002
0000
0000
0000
3003
0000
0000
0000
M000
000M
M000
000M
,
M000
000M
M000
000M
M010
0000
0000
0000
0100
0000
0001
0000
0100
0000
M000
0000
,
0000
M000
0000
000M
0000
000M
0000
M000
,
0000
M000
0000
000M
1000
0000
0100
0010
,
0100
0000
0010
0M00
0000
0M00
0000
00M0
,
0000
00M0
0001
0000
0010
0100
0010
0000
,
0100
000M
0000
M000
0000
000M
0000
M000
,
0000
000M
1000
0000
0001
0100
0010
0000
,
0200
0000
0000
0301
,
0000
0000
1001
0000
1000
0100
1000
0000
,
0001
1000
0001
0020
,
0130
0000
2000
0000
3001
0010
0001
0000
,
1000
0002
0013
0200
,
1300
0000
0001
0000
0010
0001
0010
0000
,
0001
1000
0010
0100
,
0010
0000
0100
0000
0001
1000
0001
0000
,
1000
0100
1000
0200
,
0000
0310
0001
0010
,
0000
0001
0000
0000
0000
0000
0000
0000
0000
0000
0000
0000
0000
0000
0000
0000
0100
0000
0000
0000
0000
0000
0000
0000
0000
0000
0000
0000
0000
0000
0000
0000
0001
0000
0000
0000
0000
0000
0000
0000
0000
0000
0000
0000
0000
0000
0000
0000
0100
0000
0000
0000
0000
0000
0000
0000
0000
0000
0000
0000
0000
0000
0000
0000
,
0000
0001
0000
0000
0000
0000
0000
0000
0000
0000
0000
0000
0000
0000
0000
0000
0010
0000
0000
0000
0000
0000
0000
0000
0000
0000
0000
0000
0000
0000
0000
0000
0001
0000
0000
0000
0000
0000
0000
0000
0000
0000
0000
0000
0000
0000
0000
0000
0010
0000
0000
0000
0000
0000
0000
0000
0000
0000
0000
0000
0000
0000
0000
0000
,
0000
0001
0000
0000
0000
0000
0000
0000
0000
0000
0000
0000
0000
0000
0000
0000
0100
0000
0000
0000
0000
0000
0000
0000
0000
0000
0000
0000
0000
0000
0000
0000
0001
0000
0000
0000
0000
0000
0000
0000
0000
0000
0000
0000
0000
0000
0000
0000
0100
0000
0000
0000
0000
0000
0000
0000
0000
0000
0000
0000
0000
0000
0000
0000
,
0000
0001
0000
0000
0000
0000
0000
0000
0000
0000
0000
0000
0000
0000
0000
0000
1000
0000
0000
0000
0000
0000
0000
0000
0000
0000
0000
0000
0000
0000
0000
0000
0010
0000
0000
0000
0000
0000
0000
0000
0000
0000
0000
0000
0000
0000
0000
0000
1000
0000
0000
0000
0000
0000
0000
0000
0000
0000
0000
0000
0000
0000
0000
0000
,
0000
0010
0000
0000
0000
0000
0000
0000
0000
0000
0000
0000
0000
0000
0000
0000
1000
0000
0000
0000
0000
0000
0000
0000
0000
0000
0000
0000
0000
0000
0000
0000
0100
0000
0000
0000
0000
0000
0000
0000
0000
0000
0000
0000
0000
0000
0000
0000
1000
0000
0000
0000
0000
0000
0000
0000
0000
0000
0000
0000
0000
0000
0000
0000
,
0000
0100
0000
0000
0000
0000
0000
0000
0000
0000
0000
0000
0000
0000
0000
0000
1000
0000
0000
0000
0000
0000
0000
0000
0000
0000
0000
0000
0000
0000
0000
0000
0010
0000
0000
0000
0000
0000
0000
0000
0000
0000
0000
0000
0000
0000
0000
0000
1000
0000
0000
0000
0000
0000
0000
0000
0000
0000
0000
0000
0000
0000
0000
0000
,
0000
0010
0000
0000
0000
0000
0000
0000
0000
0000
0000
0000
0000
0000
0000
0000
1000
0000
0000
0000
0000
0000
0000
0000
0000
0000
0000
0000
0000
0000
0000
0000
0100
0000
0000
0000
0000
0000
0000
0000
0000
0000
0000
0000
0000
0000
0000
0000
1000
0000
0000
0000
0000
0000
0000
0000
0000
0000
0000
0000
0000
0000
0000
0000
,
0000
0100
0000
0000
0000
0000
0000
0000
0000
0000
0000
0000
0000
0000
0000
0000
011M
0000
0000
0000
0000
0000
0000
0000
0000
0000
0000
0000
0000
0000
0000
0000
0010
0000
0000
0000
0000
0000
0000
0000
0000
0000
0000
0000
0000
0000
0000
0000
0100
0000
0000
0000
0000
0000
0000
0000
0000
0000
0000
0000
0000
0000
0000
0000
,
0010
0001
1000
0001
,
1000
0001
1000
0000
0001
0000
1000
0000
,
0001
1000
0100
0010
,
0100
0010
0200
0000
1000
0000
1000
0000
,
1300
2001
0010
0010
,
3010
0000
0100
0000
0020
0000
0000
0000
2000
0000
0000
0000
000M
000M
000M
000M
,
000M
000M
000M
000M
303M
0000
0000
0000
M00M
0000
0000
0000
101M
0000
101M
0000
,
2001
0001
3001
0011
,
0010
0100
1000
0000
101M
101M
2001
0000
,
0001
0000
3001
0000
1010
0000
0010
0100
,
0001
0002
2003
0100
,
3100
0000
1001
0000
0001
0010
0001
0000
,
1000
0100
2000
0000
0001
0000
3001
0000
,
0002
0203
0320
1030
,
1001
0000
0000
0000
0001
0000
0000
0001
0000
0000
0001
0000
1001
0000
0000
0000
,
1010
0000
0110
0000
0101
0000
0100
0010
,
1000
0000
0000
0000
0100
0000
0000
0100
0000
0000
0100
0000
1100
0000
0000
0000
,
0110
0011
1001
2000
,
3010
0000
0000
0010
0000
0000
0010
0000
1010
0000
0000
0000
1001
0000
0000
0000
,
0011
0000
0101
0000
0100
0001
0010
0000
,
0001
0000
0000
0000
0000
0000
0000
0000
0000
0001
0000
0000
0000
0000
0000
0000
0000
0000
0001
0000
0000
0000
0000
0000
0100
0000
0000
0000
0000
0000
0010
0000
0000
0000
0000
0000
1000
0000
0000
0000
0001
0000
0000
0000
1000
0000
0000
0000
,
0001
0000
1001
0000
0000
M00M
0000
0000
;

//---------------dance-single - ----------------
#NOTES:
     dance-single:
     :
     Easy:
     5:
     0.314,0.385,0.263,0.335,0.000: // measure 1
0000
0000
0000
0000
,  // measure 2
0000
0000
0000
0000
,  // measure 3
0001
1000
0001
1000
,  // measure 4
0010
0100
0010
0000
,  // measure 5
200M
0001
0001
0001
,  // measure 6
3020
1000
1000
1000
,  // measure 7
0230
0010
0010
0010
,  // measure 8
0302
0100
0100
0100
,  // measure 9
M103
0001
1000
0001
,  // measure 10
1000
0001
2000
3001
,  // measure 11
0002
1003
0010
0100
,  // measure 12
0002
1003
2000
3001
,  // measure 13
0010
0001
0010
0100
,  // measure 14
1000
0001
1000
0001
,  // measure 15
0010
0100
0010
0100
,  // measure 16
0010
0100
0020
0030
,  // measure 17
0011
0001
2000
3000
,  // measure 18
1000
0010
0200
0300
,  // measure 19
0100
0001
0020
0030
,  // measure 20
0010
0100
2000
3000
,  // measure 21
0001
1000
0002
0003
,  // measure 22
0001
0010
0200
0300
,  // measure 23
0100
1000
0020
0030
,  // measure 24
0010
0100
0002
0003
,  // measure 25
1001
0001
1000
0001
,  // measure 26
1000
0100
0010
0200
,  // measure 27
0310
0100
0010
0100
,  // measure 28
1000
0001
1000
0002
,  // measure 29
1003
0001
0001
0001
,  // measure 30
0011
0010
0010
0020
,  // measure 31
0230
0000
M00M
M00M
,  // measure 32
M30M
0000
10M1
2001
,  // measure 33
0001
3001
0001
0100
,  // measure 34
1010
10M1
2001
0001
,  // measure 35
3001
1000
0100
0011
,  // measure 36
00M2
2003
0010
3010
,  // measure 37
1000
0001
0100
0010
,  // measure 38
2000
0001
3001
0002
,  // measure 39
2003
3002
1003
1001
,  // measure 40
0002
0003
1100
1100
,  // measure 41
0011
0011
0001
1001
,  // measure 42
2000
3000
1010
1010
,  // measure 43
0101
0101
2000
0010
,  // measure 44
3010
1100
0101
1100
,  // measure 45
0101
0100
0110
0020
,  // measure 46
0030
2000
3020
2030
,  // measure 47
3010
1001
0000
0000
,  // measure 48
0000
0001
1000
0001
,  // measure 49
0000
0000
0000
0000
,  // measure 50
0000
0000
0010
0100
,  // measure 51
0010
0000
0000
0000
,  // measure 52
0000
0000
1000
0001
,  // measure 53
1000
0000
0000
0000
,  // measure 54
0000
0100
0010
0100
,  // measure 55
0020
0000
0000
0030
,  // measure 56
0000
1001
0001
1000
,  // measure 57
0001
1000
0001
2000
,  // measure 58
3001
0002
1003
0100
,  // measure 59
0010
0002
1003
2000
,  // measure 60
3001
0100
0001
0100
,  // measure 61
0010
1000
0001
1000
,  // measure 62
0001
0100
0010
0100
,  // measure 63
0010
0100
0010
0200
,  // measure 64
0300
0101
0001
2000
,  // measure 65
3000
1000
0100
0020
,  // measure 66
0030
0010
0001
0200
,  // measure 67
0300
0100
0010
2000
,  // measure 68
3000
0001
1000
0002
,  // measure 69
0003
0001
0100
0020
,  // measure 70
0030
0010
1000
0200
,  // measure 71
0300
0100
0010
0002
,  // measure 72
0003
1001
0001
1000
,  // measure 73
0001
1000
0010
0100
,  // measure 74
0020
0130
0010
0100
,  // measure 75
0010
1000
0001
1000
,  // measure 76
0002
1003
0001
0001
,  // measure 77
0001
0101
0100
0100
,  // measure 78
0200
0320
0000
M00M
,  // measure 79
M00M
M03M
0000
1M01
,  // measure 80
2001
0001
3001
0001
,  // measure 81
0010
1100
1M01
2001
,  // measure 82
0001
3001
1000
0010
,  // measure 83
0101
0M02
2003
0100
,  // measure 84
3100
1000
0001
0010
,  // measure 85
0100
2000
0001
3001
,  // measure 86
0002
2003
3002
1003
,  // measure 87
1001
0002
0003
1010
,  // measure 88
1010
0101
0101
0001
,  // measure 89
1001
2000
3000
1100
,  // measure 90
1100
0011
0011
2000
,  // measure 91
0100
3100
1010
0011
,  // measure 92
1010
0011
0010
0110
,  // measure 93
0100
1000
0100
0001
,  // measure 94
0100
1001
M00M
0000
;
