#VERSION:0.83;
#TITLE:Synchronize;
#SUBTITLE:;
#ARTIST:Hellberg ft. Aaron Richards;
#TITLETRANSLIT:;
#SUBTITLETRANSLIT:;
#ARTISTTRANSLIT:;
#GENRE:House;
#ORIGIN:;
#CREDIT:;
#BANNER:synchronize-bn.png;
#BACKGROUND:synchronize-bg.png;
#PREVIEWVID:;
#JACKET:synchronize-jacket.png;
#CDIMAGE:;
#DISCIMAGE:;
#LYRICSPATH:;
#CDTITLE:cdtitle.png;
#MUSIC:synchronize.mp3;
#OFFSET:-0.100000;
#SAMPLESTART:67.481003;
#SAMPLELENGTH:30.000000;
#SELECTABLE:YES;
#BPMS:0.000=63.000,
56.000=126.000,
84.000=63.000,
86.000=126.000,
114.000=63.000,
116.000=126.000,
144.000=63.000,
186.000=126.000,
246.000=63.000,
248.000=126.000,
276.000=63.000,
278.000=126.000,
338.000=63.000,
340.000=126.000,
372.000=63.000;
#STOPS:;
#DELAYS:;
#WARPS:;
#TIMESIGNATURES:0.000=4=4;
#TICKCOUNTS:0.000=4;
#COMBOS:0.000=1;
#SPEEDS:0.000=1.000=0.000=0;
#SCROLLS:0.000=1.000;
#FAKES:;
#LABELS:0.000=Song Start;
#BGCHANGES:0.000=synchronize.mp4=1.000=1=0=1===CrossFade==,
99999=-nosongbg-=1.000=0=0=0 // don't automatically add -songbackground-
;
#KEYSOUNDS:;
#ATTACKS:
;

//---------------dance-single - ----------------
#NOTEDATA:;
#CHARTNAME:;
#STEPSTYPE:dance-single;
#DESCRIPTION:;
#CHARTSTYLE:;
#DIFFICULTY:Beginner;
#METER:1;
#RADARVALUES:0.154809,0.211770,0.170686,0.138931,0.001985,273.000000,230.000000,43.000000,35.000000,0.000000,0.000000,0.000000,0.000000,0.000000,0.154809,0.211770,0.170686,0.138931,0.001985,273.000000,230.000000,43.000000,35.000000,0.000000,0.000000,0.000000,0.000000,0.000000;
#CREDIT:;
#NOTES:
0000
0000
0000
0000
,
0000
0000
0000
0000
,
0110
0000
0000
0000
,
1010
0000
0000
0000
,
0101
0000
0000
0200
,
0310
0000
0010
0000
,
1010
0000
0000
0000
,
1100
0000
0000
0000
,
0011
0000
0000
0020
,
0130
0000
0100
0000
,
0101
0000
0001
0000
,
0010
0000
0100
0000
,
1000
0000
0010
0000
,
0100
0000
0001
0000
,
0012
0000
0000
0000
0000
0000
0000
0003
0020
0000
0000
0000
0030
0000
0000
0000
,
0200
0000
0000
0000
0000
0000
0000
0300
0002
0000
0000
0000
0003
0000
0000
0000
,
0200
0000
0000
0000
0300
0000
0000
0000
2000
0000
0000
0000
0000
0000
0000
3000
,
0020
0030
0010
0000
,
1010
0010
0010
1000
,
1000
0010
0010
0100
,
0100
0001
0001
1000
,
2000
0000
3000
0000
0000
0000
1001
0000
0000
0000
0000
0000
,
0001
0000
0100
0000
,
0010
0000
1000
0000
,
0100
0000
0001
0000
,
0010
0000
1000
0000
,
0010
0000
0100
0000
,
0001
0000
0010
0000
,
0100
0000
0000
0000
0000
0000
0000
0000
2200
0000
0000
0000
0000
0000
0000
3300
,
1100
0100
0100
0000
,
0010
0010
0010
0000
,
0001
0001
0001
0000
,
1000
1000
1000
0000
,
0010
0100
0010
0000
,
0001
1000
0001
0000
,
1000
0100
0010
0000
,
0002
0000
0000
0000
0000
0000
0000
0003
0102
0000
0000
0000
0000
0000
0000
0000
,
0000
0000
1000
0000
,
0000
0000
0000
0003
0101
0000
0100
0000
,
0000
0010
0000
0001
,
0000
0010
0110
0100
,
0000
0100
0000
0001
,
0000
0010
0110
1000
,
0100
0010
0010
0001
,
0010
1000
1010
0100
,
0000
0010
0000
0100
,
0000
0000
0101
0000
,
0001
0000
0100
0000
,
0100
0100
0110
0000
,
0010
0000
0001
0000
,
1000
1000
1001
0000
,
0001
0000
0100
0000
,
0010
0000
1010
0000
,
0010
0000
0001
0000
,
0010
0000
0000
0000
0021
0000
0000
0030
,
0002
0000
0003
0000
0020
0000
0000
0030
,
2000
3000
0200
0300
,
0020
0000
0000
0030
0200
0000
0300
0000
,
0001
0000
0011
0001
,
0010
0010
1000
1000
,
0100
0100
0001
0001
,
0010
0000
0010
0000
0022
0033
0000
0000
,
0011
0010
0010
0000
,
0001
0001
0001
0000
,
0100
0100
0100
0000
,
1000
1000
1000
0000
,
1000
0100
0010
0000
,
0001
0010
0100
0000
,
0100
0001
0010
0000
,
0011
0000
0000
0010
0000
0000
0010
0000
0012
0000
0000
0000
0000
0000
0003
0000
,
0020
0000
0030
0200
0000
0000
0300
0000
,
0110
0000
0000
0000
0020
0000
0000
0030
,
2000
0000
3000
0200
0300
0000
0000
0000
,
1100
0000
0000
0000
0200
0000
0000
0300
,
0002
0000
0003
0020
0000
0030
0000
0000
,
0011
0000
0010
0001
,
0010
1000
0020
0000
,
0030
0000
1010
0000
,
0010
0000
1000
0000
,
0010
0000
0011
0000
,
0001
0000
1000
0000
,
0001
0000
0101
0000
,
0100
0000
0010
0000
,
0100
0000
1100
0000
,
0010
0000
0000
0000
0000
0000
0000
0000
0220
0000
0000
0000
0000
0000
0000
0330
,
0110
0010
0010
0000
,
0100
0100
0100
0000
,
0001
0001
0001
0000
,
1000
1000
1000
0000
,
1010
1000
0010
0000
,
0101
0001
0100
0000
,
0100
1000
0010
0000
,
0010
0000
0000
0010
0000
0000
0010
0000
,
1010
0000
0100
0000
,
0101
0000
0010
0000
,
1001
0000
1000
0000
,
0101
0000
0010
0000
,
0110
0000
0000
0000
;

//---------------dance-single - ----------------
#NOTEDATA:;
#CHARTNAME:;
#STEPSTYPE:dance-single;
#DESCRIPTION:;
#CHARTSTYLE:;
#DIFFICULTY:Easy;
#METER:3;
#RADARVALUES:0.197905,0.269526,0.174656,0.127022,0.003969,349.000000,305.000000,44.000000,32.000000,0.000000,0.000000,0.000000,0.000000,0.000000,0.197905,0.269526,0.174656,0.127022,0.003969,349.000000,305.000000,44.000000,32.000000,0.000000,0.000000,0.000000,0.000000,0.000000;
#CREDIT:;
#NOTES:
0000
0000
0000
0000
,
0000
0000
0000
0000
,
0011
0000
0020
0030
,
0011
0000
0000
0000
0000
0000
0000
0000
0000
0000
0000
0000
0200
0000
0000
0300
,
0101
0000
0000
0000
0000
0000
0100
0010
,
0100
0000
0000
0100
0000
0000
0000
0000
0010
0000
0000
0000
0000
0000
0000
0000
,
0110
0000
0200
0300
,
0101
0000
0000
0000
0000
0000
0000
0000
0000
0000
0000
0000
0020
0000
0000
0030
,
0011
0000
0000
0000
0000
0000
0010
0100
,
0010
0100
0100
0000
,
0110
0000
0010
0000
0010
0000
0100
0100
,
1100
0000
1000
0000
1000
0000
0001
0001
,
0101
0100
0010
0100
,
0001
0002
0000
0000
0100
0000
0000
0003
,
0011
0000
0020
0030
,
0100
0000
2000
3000
,
0200
0300
0010
0000
,
0020
0000
0030
0000
0010
0010
0000
1000
,
1010
0100
0010
0100
,
1000
0100
0001
0100
,
0010
1000
0010
0100
,
0200
0300
0000
0000
0110
0000
0000
0000
,
0010
0000
0100
0000
,
0010
0000
1000
0010
,
0100
0000
0001
0000
,
0100
0000
1000
0010
,
0100
0000
0001
0000
,
0100
0000
0001
0100
,
0010
0000
0000
0000
0000
0000
0000
0000
0022
0000
0000
0000
0000
0000
0000
0033
,
0011
0010
0100
0000
,
0010
0100
0010
0000
,
0001
0100
1000
0000
,
1000
0001
1000
0000
,
0001
0100
0010
0000
,
0010
1000
0001
0000
,
0010
0100
1000
0000
,
0200
0000
0000
0000
0000
0000
0000
0300
0102
0000
0000
0000
0000
0000
0100
0000
,
0000
0000
0000
0100
1000
0000
0000
0010
,
0000
0000
0000
0013
0011
0000
0100
0000
,
0000
0000
0010
0001
0100
0000
0010
0000
,
0000
0000
0010
1000
1010
0000
0100
0000
,
0000
0000
0100
0010
0100
0000
0001
0000
,
0010
1000
0010
0000
1010
0000
1000
0000
,
0100
0010
0010
0100
,
1000
0000
1000
0100
0110
0000
0100
0010
,
0001
0010
0100
0100
,
0010
0000
0000
0000
0022
0000
0000
0033
0011
0000
0000
0000
0010
0000
0000
0000
,
0001
0000
0010
0000
0100
0000
1000
0010
,
0100
0100
0110
0010
,
0001
0000
0010
0001
0100
0000
0001
0010
,
1000
1000
1001
0100
,
0001
0100
0010
0100
,
0001
0100
0110
0001
,
0010
1000
0010
0100
,
0010
0001
0011
0010
,
0010
0001
0100
0100
,
0100
1000
0010
0010
,
0010
0001
0100
0100
,
0100
1000
1100
0100
,
0010
0100
1000
0010
,
0001
0100
1000
0100
,
0001
0000
0010
0000
0022
0033
0000
0000
,
0011
0001
0010
0000
,
0001
0010
0100
0000
,
0100
1000
0100
0000
,
1000
0100
0010
0000
,
0100
0010
0100
0000
,
0100
0010
0001
0000
,
0001
0100
1000
0000
,
1010
0000
0000
0100
0000
0000
0010
0000
0110
0000
0000
0000
0100
0000
0000
0000
,
0010
0000
0000
0200
0000
0000
0300
0000
,
1100
0000
1100
0100
,
0010
0000
0000
0200
0300
0000
0000
0000
,
0101
0000
0101
0010
,
0001
0000
0000
0020
0000
0030
0000
0000
,
0011
0000
0000
0000
0011
0001
0010
0001
,
0100
0001
1000
0001
0020
0000
0000
0000
,
0030
0000
1010
0000
,
0100
0000
1000
0000
,
0010
0000
0011
0010
,
0001
0000
0100
0000
,
0010
0000
0101
0010
,
0100
0000
1000
0000
,
0010
0000
0101
0001
,
0010
0000
0000
0000
0000
0000
0000
0000
0220
0000
0000
0000
0000
0000
0000
0330
,
0110
1000
0010
0000
,
1000
0010
1000
0000
,
0100
0001
0010
0000
,
0010
0100
0010
0000
,
0010
1000
0001
0000
,
0001
1000
0001
0000
,
1000
0100
0001
0000
,
0010
0000
0000
0100
0000
0000
1000
0000
,
2100
0000
0000
0000
0000
0000
0000
3000
0200
0000
0000
0000
0000
0000
0000
0300
,
0020
0000
0000
0000
0000
0000
0000
0030
0002
0000
0000
0000
0010
0000
0000
0003
,
0002
0000
0000
0000
0000
0000
0000
0003
0020
0000
0000
0000
0000
0000
0000
0030
,
0200
0000
0000
0000
0000
0000
0000
0300
2000
0000
0000
0000
0000
0000
0000
3000
,
1100
0000
0000
0000
;

//---------------dance-single - ----------------
#NOTEDATA:;
#CHARTNAME:;
#STEPSTYPE:dance-single;
#DESCRIPTION:;
#CHARTSTYLE:;
#DIFFICULTY:Medium;
#METER:5;
#RADARVALUES:0.280130,0.346533,0.158778,0.067481,0.047633,494.000000,454.000000,40.000000,17.000000,0.000000,0.000000,0.000000,0.000000,0.000000,0.280130,0.346533,0.158778,0.067481,0.047633,494.000000,454.000000,40.000000,17.000000,0.000000,0.000000,0.000000,0.000000,0.000000;
#CREDIT:;
#NOTES:
0000
0000
0000
0000
,
0000
0000
0000
0000
,
1010
0100
0020
0030
,
0110
0000
0000
0100
0000
0000
0010
0100
,
0101
0000
0000
0001
0000
0000
0100
0010
,
0100
0000
0000
0100
0000
0000
0000
0000
0100
0000
0000
0000
0000
0000
0000
0000
,
1010
0100
0020
0030
,
0011
0000
0000
0100
0000
0000
0001
0010
,
0110
0000
0000
0010
0000
0000
0010
0100
,
1000
0000
0100
0010
0100
0000
0000
0000
,
0101
0010
0001
0010
0100
0000
0100
0100
,
0101
0010
0001
0010
0100
0000
1000
1000
,
1100
0000
0100
0000
0010
0000
0100
0010
,
0001
0002
0000
0000
0100
0000
0000
0003
,
0101
0010
0001
0010
,
0100
0010
1000
0010
,
0100
0001
0100
0010
,
0100
0000
1000
0000
0010
0010
0000
1000
,
1100
0100
0010
0100
,
1000
0100
0001
0100
,
0010
0100
1000
0100
0010
0001
0010
0100
,
0020
0030
0000
0000
0110
0000
0010
0000
,
0100
1000
0100
0001
,
0100
0010
1000
0100
,
0001
0010
1000
0010
,
0100
0010
1000
0010
,
0100
0001
1000
0001
,
0100
0001
0010
0001
,
0100
0000
0000
0000
0001
0000
0000
0000
0200
0000
0000
0000
0010
0010
0000
0310
,
0110
0000
0010
0000
0100
1000
0100
0000
,
0010
0000
0100
0000
0010
0001
0010
0000
,
0001
0000
0100
0000
1000
0001
1000
0000
,
0001
0100
1000
0010
,
0001
0000
0100
0000
0010
1000
0010
0000
,
0100
0000
0010
0000
0001
0100
0001
0000
,
0010
0000
0100
0000
1000
0100
0100
0000
,
0100
0010
0010
0000
0000
0001
0001
0000
0001
0000
0010
0000
0000
0000
0000
0100
,
0000
0000
0100
0000
0000
0000
1000
0000
0010
0000
0001
0000
0000
0000
0000
0100
,
0000
0100
0000
0001
0101
0000
0101
0000
,
0000
0000
0000
0000
0100
0000
0001
0000
0010
0000
0000
0000
0010
0000
0000
0100
,
0000
0100
0000
0000
0010
0000
1000
0000
1010
0000
0000
0000
1000
0000
0000
0010
,
0000
0010
0000
0000
0100
0000
0010
0000
0100
0000
0000
0000
0001
0000
0000
0000
,
0010
0000
0000
0010
0010
0010
0000
0000
1010
0000
0000
0000
1000
0000
0000
0000
,
0001
0010
0001
1000
,
0100
0000
1000
0100
0110
0000
0100
0010
,
0001
0000
0010
0000
0100
0001
1000
0001
,
0010
0001
0100
0001
0101
0000
0010
0001
,
0010
0000
0100
1000
0100
0000
1000
0100
,
0010
0010
1010
0100
,
1000
0000
0100
0001
0010
0000
1000
0010
,
0001
0000
0001
0000
0101
0000
0100
0001
,
0100
0010
0100
1000
0100
0000
0100
0000
,
0001
0010
0011
0001
,
0010
1000
0010
0100
,
0010
1000
1010
0010
,
0100
1000
1000
0100
,
0001
0001
0010
0100
,
0100
0001
0010
0010
,
0100
0010
0110
0100
,
0010
0100
1000
0010
,
0001
0000
0010
0000
1000
0010
0100
0010
,
0001
0010
0100
0010
0220
0330
0000
0000
,
0110
0000
0100
0000
0010
0001
0010
0000
,
0001
0000
0010
0000
0100
1000
0100
0000
,
0010
0000
1000
0000
0100
0010
0100
0000
,
1000
0100
0010
1000
,
0110
0000
0010
0000
0001
0100
0001
0000
,
0010
0000
0100
0000
1000
0010
1000
0000
,
0100
0000
1000
0000
0001
0010
1000
0000
,
1010
0000
0000
0100
0000
0000
0010
0000
0110
0000
0000
0000
0100
0000
0000
0000
,
0010
0100
1000
0100
,
0010
0000
0001
0010
0011
0000
0001
0000
,
0010
0001
0010
0100
,
1000
0000
0100
0010
0110
0000
0010
0000
,
0100
0010
0001
0010
,
0100
0000
1000
0100
0101
0100
0010
0100
,
1000
0001
0100
0001
0010
1000
0100
1000
,
0010
0000
0000
0100
0000
0000
1000
0000
1010
0000
0000
0000
0100
0000
0000
0000
,
0001
0100
0010
0100
,
1000
0100
0110
0010
,
0001
0010
0100
0010
,
1000
0010
0011
0001
,
0100
0001
1000
0001
,
0010
0001
1001
1000
,
0010
0000
0000
0000
1000
0000
0000
0000
2200
0000
0000
0000
0000
0000
0000
3300
,
1100
0000
1000
0000
0010
1000
0010
0000
,
0100
0000
0010
0000
0001
0100
0001
0000
,
0010
0000
0001
0000
0100
0010
0100
0000
,
0010
0100
1000
0100
,
0010
0000
1000
0000
0001
0010
0001
0000
,
0001
0000
0100
0000
1000
0100
1000
0000
,
0100
0000
0010
0000
0001
0010
0100
0000
,
0010
0000
0000
0000
0000
0000
0100
0000
0100
0000
0000
0010
0000
0000
0100
0000
,
0120
0000
0000
0000
0000
0100
0100
0030
0200
0000
0000
0000
0000
0010
0010
0300
,
0020
0000
0000
0000
0000
0100
0100
0030
0200
0000
0000
0000
0010
0001
0000
0301
,
0002
0000
0000
0000
0000
0010
0010
0003
0020
0000
0000
0000
0000
0001
0001
0030
,
0002
0000
0000
0000
0000
0100
0100
0003
0200
0000
0000
0000
0000
0000
0000
0300
,
0101
0000
0000
0000
;

//---------------dance-single - ----------------
#NOTEDATA:;
#CHARTNAME:;
#STEPSTYPE:dance-single;
#DESCRIPTION:;
#CHARTSTYLE:;
#DIFFICULTY:Hard;
#METER:8;
#RADARVALUES:0.405451,0.539051,0.218320,0.035725,0.275877,715.000000,660.000000,55.000000,9.000000,0.000000,0.000000,0.000000,0.000000,0.000000,0.405451,0.539051,0.218320,0.035725,0.275877,715.000000,660.000000,55.000000,9.000000,0.000000,0.000000,0.000000,0.000000,0.000000;
#CREDIT:;
#NOTES:
// measure 0
0000
0000
0000
0000
,  // measure 1
0000
0000
0000
0000
,  // measure 2
1100
0000
0100
0100
0100
0000
0010
0010
0020
0000
0001
0001
0030
0000
0010
0010
,  // measure 3
0011
0000
0010
0100
0000
0000
0100
0010
0000
0000
0010
0100
0010
0000
0100
0010
,  // measure 4
0110
0000
0100
1000
0000
0000
0100
0010
0000
0000
0100
0001
0100
0000
0010
0010
,  // measure 5
0010
0000
0000
0100
0000
0000
0010
0100
0100
0000
0010
0001
0000
0000
0010
0100
,  // measure 6
0110
0000
0100
0100
0100
0000
1000
1000
2000
0000
0010
0010
3000
0000
0010
0001
,  // measure 7
0011
0000
0010
0100
0000
0000
0100
0010
0000
0000
0001
1000
0001
0010
1000
0000
,  // measure 8
2010
0000
0010
0010
3000
0000
0010
0100
0000
0000
0010
0001
0010
0000
0100
1000
,  // measure 9
0100
0000
0000
0010
0100
0010
1000
0000
0100
0000
0100
0100
0000
0010
0010
0010
,  // measure 10
0110
0000
0010
0010
0010
0000
0100
0100
0100
0000
0100
1000
0100
0000
0001
0000
,  // measure 11
0101
0100
0001
0100
0001
0000
0010
0100
1000
0000
1000
0100
1000
0000
0010
0000
,  // measure 12
1010
0010
0100
0010
0010
0001
0100
0010
,  // measure 13
0001
0000
0001
0010
0000
0100
1000
0100
0000
0010
0100
0010
0000
0010
0001
0010
,  // measure 14
0011
0010
0001
0010
,  // measure 15
0100
1000
0010
1000
,  // measure 16
0100
0001
0100
0010
,  // measure 17
0100
0000
1000
0000
0010
0010
0000
1000
,  // measure 18
1100
0100
0100
0100
0010
0010
0010
0010
,  // measure 19
0001
0010
0100
1000
0100
0010
0100
0010
,  // measure 20
0001
0010
1000
0100
0010
0001
0010
0100
,  // measure 21
0020
0000
0000
0000
0030
0000
0000
0000
0000
0100
0000
0000
0010
0000
0100
0000
0110
0000
0000
0000
0000
0000
0000
0000
0010
0000
0000
0000
0000
0000
0000
0000
,  // measure 22
0100
0000
1000
0010
0001
0000
0001
0100
,  // measure 23
1000
0000
0010
1000
0100
0000
0010
0000
,  // measure 24
0001
0000
0100
0001
0010
0000
0010
1000
,  // measure 25
0100
0000
0000
0010
0000
0000
0100
0000
0110
0000
0001
0000
0010
0000
0000
0000
,  // measure 26
0100
0000
0001
0100
1000
0000
0100
0010
,  // measure 27
0001
0000
0001
0100
1000
0000
0010
0000
,  // measure 28
0100
0000
0000
0000
0001
0000
0000
0000
0210
0000
0000
0000
0010
0010
0000
0310
,  // measure 29
0110
0010
0100
1000
0100
0001
0100
0000
,  // measure 30
0010
0000
0100
0000
0010
0001
0100
0000
,  // measure 31
0010
0000
0100
0000
1000
0010
0001
0000
,  // measure 32
0001
0000
0000
0000
0100
0000
0000
0000
1000
0000
0000
0100
0000
0000
0010
0000
,  // measure 33
0001
0010
0100
0010
1000
1000
0010
0000
,  // measure 34
0100
0000
0010
0000
0010
0001
0100
0000
,  // measure 35
0100
0000
0010
0000
1000
0100
0001
0000
,  // measure 36
0001
0010
0010
0000
0000
0001
0001
0000
0001
0010
0100
0010
0000
0010
1000
0010
,  // measure 37
0000
0010
0100
0010
0000
0010
1000
0010
0010
0100
0001
0100
0000
0100
0010
0100
,  // measure 38
0000
0100
0001
0100
0000
0100
0010
0100
0110
0000
0000
0000
0101
0000
0001
0001
,  // measure 39
0000
0000
0100
0100
0100
0010
0001
0010
0000
0010
0000
0000
0011
0010
0100
1000
,  // measure 40
0000
1000
0000
0000
0010
0000
1000
0100
0000
0010
0000
0000
1010
0000
0000
0010
,  // measure 41
0000
0001
0000
0000
0010
0000
0100
0010
0000
0000
0000
0000
0011
0000
0010
0100
,  // measure 42
0010
0000
0000
0010
0100
0010
0000
0000
0010
0000
0000
0000
0110
0000
0000
0000
,  // measure 43
0001
0000
0000
0000
0101
0000
0000
0010
0010
0000
0000
0000
1010
0000
0000
0000
,  // measure 44
0100
0000
0000
0000
0101
0100
0100
0100
0100
0000
0000
0000
0101
0001
0001
0001
,  // measure 45
0001
0000
0000
0000
0110
0000
0100
0010
0100
0010
0000
0000
1010
0100
0010
0001
,  // measure 46
0010
0001
0000
0000
0000
0001
0010
0100
0101
0000
0000
0000
0001
0000
0010
0000
,  // measure 47
0100
0000
0100
1000
0010
0000
0010
0001
,  // measure 48
0010
0000
0100
0000
1100
1000
0100
0010
,  // measure 49
0001
0000
0010
0001
0100
0000
1000
0010
,  // measure 50
0001
0000
0010
0000
0110
0000
0100
0001
,  // measure 51
0100
0000
0010
0000
0100
0000
1000
0000
0100
0000
0000
0000
0100
0000
0010
0001
,  // measure 52
0010
0000
0010
0000
0011
0000
0001
0010
,  // measure 53
0001
0100
0001
1000
0010
0100
0010
0001
,  // measure 54
0010
0100
0010
1000
1010
0000
0010
0000
,  // measure 55
0100
1000
0100
0001
,  // measure 56
0010
0001
0010
0100
,  // measure 57
1000
0010
0001
0010
,  // measure 58
0100
0100
0000
0010
0110
0010
0100
0010
,  // measure 59
0001
0010
0100
1000
0100
0001
0010
0001
,  // measure 60
0100
1000
0010
1000
0100
0010
0100
0010
,  // measure 61
0001
0000
0000
0000
0010
0000
0000
0000
0100
0000
0000
0000
0010
0000
0000
0000
0220
0000
0000
0000
0330
0000
0000
0000
0000
0010
0000
0000
1000
0000
0100
0000
,  // measure 62
0110
0010
0100
0010
1000
0010
0001
0000
,  // measure 63
0001
0000
0010
0000
0100
1000
0010
0000
,  // measure 64
0010
0000
0001
0000
0010
1000
0100
0000
,  // measure 65
1000
0000
0000
0000
0100
0000
0000
0000
0010
0000
0000
0100
0000
0000
0001
0000
,  // measure 66
0101
0010
0100
0010
0001
0010
1000
0000
,  // measure 67
0010
0000
0100
0000
1000
0010
0001
0000
,  // measure 68
0001
0000
0100
0000
0001
0010
1000
0000
,  // measure 69
0110
0010
0000
0100
0000
0010
0100
0010
0110
0000
0000
0000
0010
0000
0000
0000
,  // measure 70
0001
0100
1000
0100
,  // measure 71
0001
0000
0010
0010
0110
0000
0100
0000
,  // measure 72
0010
1000
0010
0001
,  // measure 73
0010
0000
0100
0100
0110
0000
0010
0000
,  // measure 74
0100
0010
0001
0010
,  // measure 75
0100
0000
1000
0100
0101
0100
0010
0100
,  // measure 76
1000
0010
0001
0100
0001
0100
0100
0010
,  // measure 77
0010
0000
0000
0100
0000
0000
1000
0000
1010
0000
0000
0000
0100
0000
0000
0000
,  // measure 78
0010
0000
0100
0001
0010
0000
0100
1000
,  // measure 79
0010
0000
0100
0010
0110
0000
0010
0000
,  // measure 80
0001
0000
0010
0001
0100
0000
0010
0100
,  // measure 81
1000
0000
1000
0100
1010
0000
0010
0000
,  // measure 82
0100
0000
0010
0001
0100
0000
0001
0100
,  // measure 83
1000
0000
0100
0010
0110
0000
1000
0000
,  // measure 84
0010
0000
0000
0000
0100
0000
0000
0000
2010
0000
0000
0000
0010
0010
0000
3010
,  // measure 85
1010
0100
1000
0100
0010
0100
0001
0000
,  // measure 86
0100
0000
0010
0000
0001
0100
1000
0000
,  // measure 87
0010
0000
0001
0000
0100
0001
0010
0000
,  // measure 88
0010
0000
0000
0000
0100
0000
0000
0000
0100
0000
0000
0010
0000
0000
0001
0000
,  // measure 89
0011
0001
0100
0001
0010
0001
1000
0000
,  // measure 90
0010
0000
0100
0000
1000
0100
0001
0000
,  // measure 91
0100
0000
0010
0000
0001
0010
0100
0000
,  // measure 92
0010
0000
0000
0010
0000
0000
0100
0000
1000
0000
0000
0010
0000
0000
0100
0000
,  // measure 93
0110
0010
0000
0100
0000
0010
0001
0100
0101
0001
0000
0010
0000
0010
0100
0010
,  // measure 94
0010
0010
0000
0010
0000
0100
0001
0000
0200
0000
0000
0000
0010
0001
0000
0301
,  // measure 95
0101
0001
0000
0010
0000
0010
0100
0010
0110
0100
0000
1000
0000
0010
1000
0010
,  // measure 96
1010
1000
0000
0100
0000
0100
0010
0000
0110
0100
1000
0000
0000
0100
0010
0000
,  // measure 97
0110
0000
0000
0000
;

//---------------dance-single - ----------------
#NOTEDATA:;
#CHARTNAME:;
#STEPSTYPE:dance-single;
#DESCRIPTION:;
#CHARTSTYLE:;
#DIFFICULTY:Challenge;
#METER:10;
#RADARVALUES:0.487675,0.635311,0.285800,0.031756,0.385037,860.000000,788.000000,72.000000,8.000000,51.000000,0.000000,0.000000,0.000000,0.000000,0.487675,0.635311,0.285800,0.031756,0.385037,860.000000,788.000000,72.000000,8.000000,51.000000,0.000000,0.000000,0.000000,0.000000;
#CREDIT:;
#NOTES:
0000
0000
0000
0000
,
0000
0000
0000
0000
,
1100
0100
1000
0100
0000
0100
0010
0100
0001
0010
0001
0100
0000
0010
1000
0100
,
11MM
0100
0010
0100
0000
1000
0100
0001
0100
0001
0010
1000
0000
0010
0100
0010
,
M11M
0100
1000
0100
0000
0001
0100
0001
0000
0010
1000
0100
0100
0000
0100
0010
,
M1M1
0000
0000
0100
0000
0000
0001
0100
M1M1
0100
0001
0100
0000
0001
0010
0100
,
M11M
0010
0100
0010
0000
0010
1000
0100
0010
0100
0010
0001
0000
0001
0010
0100
,
M11M
0010
1000
0100
0000
0100
0100
0010
0000
1000
0010
0001
0001
0010
1000
0000
,
1M1M
1000
0010
0010
0000
0100
0001
0010
0010
0001
0010
1000
0010
0010
0100
1000
,
11MM
0000
0000
0010
0100
0010
1000
0000
M1M1
0010
0001
0100
0000
0010
0100
1000
,
1100
0000
0100
0010
0100
0000
0100
1000
0100
0000
0100
0001
0010
0000
1000
0000
,
1010
0010
0001
0100
0001
0000
0010
0100
1000
0000
1000
0100
0010
0000
0001
0000
,
0011
0001
0010
0100
0100
0010
0010
0001
0001
0010
0001
0010
0100
0010
1000
0010
,
0100
0000
0001
0010
0000
0100
1000
0100
0010
1000
0010
0100
0010
0001
0010
0100
,
0110
0000
0010
0000
0001
0000
0010
1000
,
0100
0000
1000
0100
0001
0000
0010
0100
,
0001
0000
0001
0000
0100
0000
0010
0001
,
0100
0000
0001
0100
0010
0010
0100
1000
,
1100
0100
0010
0100
0010
0001
0010
0001
,
1000
0001
1000
0100
1000
0100
0010
0100
,
0010
0100
1000
0100
0001
0010
1000
0100
,
0202
0000
0000
0000
0303
0000
0000
0000
0000
0M00
00M0
0M00
00M0
0M00
00M0
0M00
0101
0000
0000
0000
0001
0000
0000
0000
0010
0000
0000
0000
0001
0000
0000
0000
,
0100
0001
1000
0010
0001
0000
0001
0100
,
1000
0000
0010
0001
0100
1000
0010
1000
,
0001
1000
0100
0001
0010
0000
0010
1000
,
0100
0000
0000
0010
0000
0000
0100
0000
0101
0000
0001
0000
0010
0000
0001
0000
,
0100
0001
0010
0100
1000
0000
0100
0001
,
0010
0000
0001
0100
1000
0010
1000
0001
,
1000
0000
0010
0000
0001
0000
0100
0000
0220
0000
0000
0030
0010
0010
0000
0310
,
M11M
0100
1000
0100
0001
0100
0010
0001
,
0010
1000
0010
0100
0010
0001
0100
1000
,
0010
1000
0100
1000
0010
0100
0001
0000
,
0011
0000
0000
0000
0110
0000
0000
0000
1100
0000
0000
0100
0000
0000
0010
0000
,
0001
0010
0100
0010
1000
0100
0010
0001
,
0100
0001
0010
0001
1000
0010
0001
0100
,
0010
0100
0001
0100
1000
0100
0001
0000
,
0001
0010
0100
0000
0000
0100
0010
0000
0110
0010
0100
0010
0000
0010
1000
0010
,
0000
0001
0100
0001
0000
0001
1000
0001
0010
0100
0001
0100
0000
0100
0010
0100
,
0000
1000
0100
1000
0000
1000
0010
1000
M11M
0000
0000
0000
M1M1
0000
0001
0001
,
0000
0010
0100
0001
0100
0010
0001
0010
0000
1000
0000
0000
1010
0010
0100
0001
,
0000
0100
0000
0000
0110
0000
1000
0100
0000
0010
0000
0000
1010
0000
0000
0010
,
0000
0001
0000
0000
0011
0000
0100
0010
0000
0010
0001
0010
0011
0000
0010
0100
,
0010
0000
1000
0010
0100
0010
0000
0000
0010
0000
0100
0000
0110
0000
0010
0000
,
0001
0000
0010
0000
0110
0000
0100
0010
0010
0000
0100
0000
1010
0000
0100
0000
,
0100
0000
0010
0000
0101
0100
0001
0010
1000
0000
0100
0000
0101
0010
1000
0100
,
0001
0000
0010
0000
0011
0000
0001
0010
0100
1000
0000
0000
1100
1000
0100
0010
,
0001
0010
0000
0000
0000
0010
1000
0100
0110
0000
0000
0000
0001
0000
0010
0000
,
0100
0000
0100
1000
0010
0000
0010
0001
,
0010
0000
0100
0000
1100
1000
0100
0010
,
0001
0000
0010
0001
0100
0000
1000
0010
,
0001
0000
0010
0000
0110
0000
0100
0001
,
0100
0000
0010
0000
0100
0000
1000
0000
0100
0000
0000
0000
0100
0000
0010
1000
,
0100
0000
0010
0000
0011
0100
0001
1000
,
0010
0100
0010
1000
0100
0001
0100
0010
,
1000
0100
1000
0010
1010
0000
0010
0000
,
0100
0000
1000
0010
0001
0000
0001
0100
,
1000
0000
1000
0010
0001
0000
0010
0000
,
1000
0000
0010
0001
0100
0000
0010
1000
,
0100
0010
0001
0010
0110
0010
0100
0010
,
0001
0010
0100
1000
0100
0001
0010
0001
,
0100
1000
0010
0100
1000
0010
0100
0010
,
0001
0000
0000
0000
0010
0000
0000
0000
0100
0000
0000
0000
0010
0000
0000
0000
0220
0000
0000
0000
0330
0000
0000
0000
0000
00M0
0M00
00M0
0M00
00M0
0M00
00M0
,
0110
0010
0100
0010
1000
0100
0001
0010
,
0001
0100
0010
0100
0001
0010
0100
1000
,
0001
1000
0010
1000
0100
0010
0001
0000
,
1100
0000
0000
0000
0110
0000
0000
0000
0011
0000
0000
0010
0000
0000
0001
0000
,
0101
0010
0100
0010
0001
0010
1000
0100
,
0010
0100
0001
0100
1000
0010
0001
1000
,
0001
1000
0100
1000
0001
0010
1000
0000
,
0110
0010
0000
0100
0000
1000
0100
0001
0101
0000
0000
0000
0010
0000
0000
0000
,
0001
0000
0100
0010
1000
0000
0100
0000
,
0001
0000
0010
1000
1010
0000
0100
0000
,
0010
0000
0001
0100
0010
0000
1000
0000
,
0010
0000
0100
1000
1100
0000
1000
0000
,
0010
0000
0001
0010
0100
0000
0010
0000
,
0100
0000
1000
0010
1010
0100
0010
0100
,
1000
0010
0100
0010
1000
0001
0100
0001
,
0010
0000
0000
0000
0000
0000
0100
0000
00M0
0M00
00M0
0M00
10M0
0M00
00M0
0000
1010
0000
0000
0000
0100
0000
0000
0000
0010
0000
0000
0000
1000
0000
0000
0000
,
0010
0001
0010
1000
0100
0000
0100
0001
,
0010
0000
0100
0010
0110
0001
0010
0001
,
1000
0001
0010
1000
0100
0000
0100
1000
,
0010
0000
0100
0001
1010
1000
0010
0100
,
0010
0001
0010
1000
0100
0000
1000
0010
,
0001
0000
0100
0010
0110
1000
0001
1000
,
0010
0000
1000
0000
0100
0000
1000
0000
2002
0000
0000
0003
0001
0001
0000
3001
,
1001
1000
0001
0010
0001
0100
0001
0010
,
0100
0001
0100
0010
0100
1000
0010
0100
,
1000
0001
1000
0010
1000
0001
0010
0000
,
0011
0000
0000
0000
0110
0000
0000
0000
1100
0000
0000
0100
0000
0000
0010
0000
,
0110
0010
1000
0010
0001
0010
1000
0100
,
0010
0100
0001
0100
1000
0100
0001
0010
,
0100
0010
1000
0010
0001
0010
0100
0000
,
0010
0000
0000
0010
0000
0000
0100
0000
1000
0000
0000
0010
0000
0000
0100
0000
,
1MM1
0001
0000
1000
0000
0010
0001
0100
0101
0001
0100
0001
0000
0010
0100
0010
,
1000
0010
0000
0001
0000
0100
0001
0010
0001
0100
0001
1000
0010
0001
0000
0001
,
M1M1
0001
0000
0010
0000
0010
0100
0010
0110
0100
0001
0010
0000
0010
1000
0010
,
1010
1000
0000
0100
0000
0100
0010
0001
0011
0010
1000
0100
0000
0100
0001
0010
,
MM11
0000
0000
0000
;
