#TITLE:Sun of Pearl;
#SUBTITLE:;
#ARTIST:An Endless Sporadic;
#TITLETRANSLIT:;
#SUBTITLETRANSLIT:;
#ARTISTTRANSLIT:;
#GENRE:;
#CREDIT:;
#BANNER:;
#BACKGROUND:;
#LYRICSPATH:;
#CDTITLE:;
#MUSIC:[Long Week] - Sun of Pearl.ogg;
#OFFSET:-0.018000;
#SAMPLESTART:43.702007;
#SAMPLELENGTH:13.000000;
#LASTBEATHINT:681.782654;
#SELECTABLE:YES;
#DISPLAYBPM:55.000000:220.000000;
#BPMS:0.000000=110.000000
,28.000000=220.000000
,92.000000=110.000000
,124.000000=220.000000
,351.000000=110.000000
,383.000000=55.000000
,398.000000=110.000000
,464.000000=220.000000
,532.000000=110.000000
,592.000000=220.000000
,656.000000=110.000000
,657.000000=440.000000
,667.000000=220.000000
,668.000000=110.000000
,700.000000=220.000000
;
#STOPS:28.000000=2.210000,
214.500000=0.546000,
528.000000=0.136000,
529.000000=0.136000,
530.000000=0.272000,
531.000000=0.546000
;
#BGCHANGES:;
#KEYSOUNDS:;
#ATTACKS:;

//---------------dance-single - ----------------
#NOTES:
     dance-single:
     :
     Easy:
     4:
     0.269270,0.376978,0.193874,0.050264,0.007181,525.000000,471.000000,54.000000,14.000000,18.000000,0.000000,0.269270,0.376978,0.193874,0.050264,0.007181,525.000000,471.000000,54.000000,14.000000,18.000000,0.000000:
0000
0000
0000
0000
,
0000
0000
0000
0000
,
0000
0000
0000
0000
,
0000
0000
0000
0000
,
0100
0002
0000
0000
0000
0000
0003
0000
,
0100
2000
0000
0000
0000
0000
3000
0000
,
0100
0020
0000
0000
0000
0000
0030
0000
,
1M01
0000
1000
0000
,
0010
0000
0100
0000
,
0001
0000
0001
0000
,
0100
0000
0010
0000
,
1000
0000
0001
0000
,
0010
0000
0100
0000
,
1000
0000
1000
0000
,
0100
0000
0010
0000
,
0001
0000
0011
0000
,
1001
0000
1100
0000
,
1000
0000
1001
0000
,
0100
0000
0010
0000
,
1000
0000
1010
0000
,
0110
0000
0101
0000
,
0011
0000
0000
1100
,
0000
0000
1001
0000
,
100M
0000
0000
0100
0000
0000
1000
0000
,
0010
0000
0000
0100
0000
0000
0001
0000
,
0001
0000
0000
0100
0000
0000
0001
0000
,
1000
0010
0100
0001
,
0001
0000
0000
0100
0000
0000
0001
0000
,
0010
0000
0000
0100
0000
0000
1000
0000
,
1000
0000
0000
0100
0000
0000
1000
0000
,
0001
0010
0100
1000
,
00M1
0000
0001
0000
,
0100
0010
0100
0010
,
1000
0000
1000
0000
,
0010
0100
0010
0100
,
0001
0000
0001
0000
,
1000
0100
1000
0100
,
0010
0000
0001
0000
,
0100
0000
1000
0000
,
0100
0100
0100
0100
,
0010
0010
0010
0010
,
1000
1000
1000
1000
,
0001
0001
0001
0001
,
0010
0010
0010
0010
,
0100
0100
0100
0100
,
1000
0000
0010
0000
,
0100
0000
0001
0000
,
1001
0000
0001
0000
0001
0000
0000
1000
,
0000
1000
0000
1000
0000
0000
0100
0000
,
0100
0000
0100
0000
0000
0010
0000
0000
,
0100
0000
0000
0010
0001
0000
0001
0000
,
0001
0000
0000
1000
0000
1000
0000
1000
,
0000
0010
0010
0010
,
0000
0000
0110
0000
0000
20M1
3100
0000
,
0000
1000
0000
0010
,
0000
0100
0000
0001
,
0000
0001
0000
0010
,
0000
0100
0000
0001
,
0000
0100
0000
0010
,
0000
0001
0000
1000
,
0000
1000
0000
0001
,
0000
0001
1002
0103
,
0000
0001
0000
0010
,
0000
0100
0000
1000
,
0000
1000
0000
0010
,
0000
0100
0000
1000
,
0000
0100
0000
0010
,
0000
1000
0000
0010
,
0000
1000
0000
0001
,
0000
0100
0000
0001
,
0000
0001
0000
0010
,
0000
0100
0000
1000
,
0000
1000
0000
0010
,
0000
0100
0000
0010
,
0000
0010
0000
1000
,
0000
0001
0000
0100
,
0000
0100
0000
0001
,
0000
1000
0000
0100
,
0000
0110
0000
0011
,
0000
0110
0000
0100
,
0000
1100
0000
1001
,
0000
0101
0000
0100
,
0000
0110
0000
1010
,
0000
0110
0000
0110
,
0000
0000
1001
0000
,
0000
0101
0000
1010
,
0000
0000
1100
0000
,
0000
0011
0000
0M01
,
0000
1000
0000
0000
0001
0000
0010
0000
,
0000
0100
0000
0000
1000
0000
1000
0000
,
0000
0001
0000
0000
1000
0000
0010
0000
,
0000
0001
0000
0000
1000
0000
0100
0000
,
0000
0001
0000
0000
1000
0000
0010
0000
,
0000
1000
0000
0000
0001
0000
0010
0000
,
0000
0100
0000
0000
1000
0000
0001
0000
,
0100
0010
1000
1M02
,
0000
0000
0000
0000
0203
0000
0000
0000
0000
0000
0010
0000
0320
0000
0000
1000
,
0000
0000
0000
0000
2030
0000
0000
0001
0000
0000
3000
0000
2001
0000
0000
0000
,
0000
0000
0100
0000
3200
0000
0000
0000
0000
0000
0010
0000
0320
0000
0000
0001
,
0000
0000
0000
0000
0032
0000
0000
0100
M003
0000
0000
0000
0110
0000
0000
0000
,
0010
1000
1000
0100
,
0010
0001
0001
0010
,
0100
1000
1000
0010
,
0001
0010
1000
1002
,
0013
0001
0001
0100
,
0010
1000
1000
0010
,
0100
0001
0001
1000
,
0010
0001
0010
0110
,
0100
0100
0100
1001
,
0010
0010
0010
1001
,
0001
0001
0001
0110
,
1000
1000
1000
0110
,
0001
0000
0000
0100
0000
0000
1000
0000
,
0001
0000
0000
0010
0000
0000
1000
0000
,
0001
0010
1000
0010
,
0001
1000
0010
0100
,
M001
0000
0001
0000
,
0001
0000
0101
0000
,
1000
0000
1000
0000
,
1000
0000
1100
0000
,
0010
0000
0010
0000
,
0010
0000
0110
0000
,
0100
0000
1000
0000
,
0010
0000
0001
0000
,
0001
0000
0010
0000
,
1000
0000
0001
0000
,
0010
0000
1000
0000
,
0001
0000
0100
0000
,
0010
0000
0001
0000
,
1000
0000
0010
0000
,
0100
0000
0001
0000
,
1000
0000
0100
0000
,
M010
001M
M010
001M
,
M100
1000
0001
0010
,
0100
1000
0001
0100
,
0100
0001
1000
0010
,
0001
1000
0100
0001
,
0100
0001
1000
0010
,
0100
0001
1000
0100
,
0100
1000
0001
0010
,
0010
0001
1000
0010
,
0100
0100
0100
0101
,
0001
0001
0001
1001
,
1000
1000
1000
1100
,
0100
0100
0100
0110
,
0010
0010
0010
0011
,
0001
0001
0001
1001
,
1000
1000
1000
1010
,
0M10
0000
0010
0000
,
0100
0000
0100
0000
,
0001
0000
0001
0000
,
1000
0000
1000
0000
,
0100
0000
0100
0000
,
0010
0000
0010
0000
,
0001
0001
0000
1000
,
1000
0000
0110
0000
,
0001
0000
0100
0000
,
1000
0000
0100
0000
,
0001
0000
0010
0000
,
1000
0000
0010
0000
,
0001
0000
0100
0000
,
0010
0000
1000
0000
,
1000
0000
0010
0000
,
0100
0000
0001
0000
,
00M0
1M01
0000
0000
,
0000
0000
0000
0000
,
0000
0000
0000
0000
,
10M0
0000
1000
0100
0000
0100
0010
0000
,
0001
0010
0100
1000
,
0001
0000
0001
0100
0000
0100
0010
0000
,
1000
0010
0100
0001
,
1000
0000
0100
0010
0000
0001
0010
0000
,
0001
1000
0010
0100
,
0100
0000
0000
0010
0000
0000
0100
0000
,
1001
0110
0010
0100
,
10M1
0000
0000
0000
;

//---------------dance-single - ----------------
#NOTES:
     dance-single:
     :
     Hard:
     11:
     0.761136,1.036689,0.506227,0.258499,0.674970,1484.000000,1343.000000,141.000000,72.000000,18.000000,0.000000,0.761136,1.036689,0.506227,0.258499,0.674970,1484.000000,1343.000000,141.000000,72.000000,18.000000,0.000000:
0000
0000
0000
0000
,
0000
0000
0000
0000
,
0000
0000
0000
0000
,
0000
0000
0000
0000
,
1000
0000
0100
0000
0020
0000
0000
0000
0000
0000
0031
0000
0020
0000
0000
0000
0000
0000
1030
0000
0020
0000
0000
0000
0031
0100
0001
0100
0001
0000
1000
0000
,
0001
0000
0100
0000
0020
0000
0000
0000
0000
0000
1030
0000
0020
0000
0000
0000
0000
0000
0031
0000
0010
0000
0000
0000
1000
0010
1000
0010
1000
0000
0001
0000
,
0010
0000
0001
0000
0200
0000
0000
0000
0000
0000
1300
0000
0200
0000
0000
0000
0000
0000
0301
0000
0200
0000
0000
0000
0310
0100
0010
0100
0010
0000
0000
0000
,
1M01
0010
1000
0001
,
0010
0100
1000
0100
,
1000
0001
0010
0000
1000
0000
0001
0000
,
0100
0000
1000
0000
0001
0100
0001
0000
,
0001
1000
0010
0000
1000
0000
0001
0000
,
0010
0100
1000
0001
,
1000
0010
0100
0000
0001
0000
1000
0000
,
0010
0000
1000
0000
0001
0010
0100
0000
,
1000
0100
0110
0000
1100
0000
1001
0000
,
0011
1001
1010
0101
,
0001
0100
0110
0000
1010
0000
0110
0000
,
0101
0000
0001
0000
1000
0100
0010
0000
,
0100
1000
1001
0000
1100
0000
1001
0000
,
0011
0000
0000
0000
0101
0000
0000
0000
1020
0000
0000
0000
0130
0000
0010
0100
,
0010
0000
1000
0000
0001
0000
0010
0000
0001
0000
1000
0100
1000
0000
0001
0000
,
0100
0000
0000
0001
0000
0000
1000
0000
0000
0100
0000
0000
0010
0000
0001
0000
1000
0000
0010
0000
0100
0000
0001
0000
,
1M00
0000
0000
0001
0000
0100
0020
0000
0000
0000
0030
1000
0010
0100
0001
1000
,
0100
0000
0000
0100
0010
0000
0001
0000
0000
0001
0010
0000
1000
0010
0001
0000
,
1001
0000
0000
1000
0000
0010
0200
0000
0000
0000
0300
0001
0010
0100
1000
0001
,
1000
0000
0000
1000
0010
0100
0001
0000
0000
0001
0010
0100
0010
0001
1000
0010
,
0110
0000
0000
0010
0000
1000
0002
0000
0000
0000
0003
0100
0001
1000
0010
0100
,
1000
0000
0000
1000
0100
0000
0010
0000
0000
0010
1000
0000
0100
1000
0010
0000
,
0110
0000
0000
0100
0000
0001
2000
0000
0000
0000
3000
0001
0010
0100
0010
0000
,
0010
0000
0100
0000
1000
0000
0001
0000
0100
0000
0001
0000
1000
0000
0100
0000
1000
0000
0010
0000
0100
0000
0001
0000
1000
0000
0100
0000
1000
0000
0001
0000
0100
0000
0001
0000
0010
0000
0000
0001
0000
0000
1000
0000
0000
0100
0000
0000
,
10M0
1000
0001
0010
0000
0001
0010
0100
,
0000
1000
0010
0000
0001
0010
1000
0000
,
0001
0001
0100
0010
0000
1000
0010
0100
,
0000
0001
0010
0000
1000
0010
0001
0000
,
0100
0100
0001
0010
0000
0100
0010
0001
,
0000
1000
0100
0000
0001
0100
1000
0000
,
0010
0000
0010
0100
0000
0100
0001
0000
,
0001
0000
1000
0100
1000
0000
0001
0000
0010
0000
0001
0000
1000
0000
0100
0000
,
0110
1001
0110
1001
,
1100
0011
1100
0011
,
1010
0101
1010
0101
,
1001
0110
1001
0110
,
1010
1100
0011
0101
,
1010
0011
0101
1100
,
0001
0010
0100
1000
0000
1000
0010
0100
,
0001
1000
0000
1000
0001
0000
1001
0000
,
0010
1000
0010
0100
0001
0100
0001
0010
,
0001
0010
0100
1000
0100
1000
0001
0100
,
1000
0100
0001
1000
0010
1000
0001
0010
,
0100
1000
0001
0100
0010
0001
0010
0100
,
1000
0100
0001
0010
1000
0010
0100
0001
,
0100
1000
0010
0001
0010
1000
0001
0010
,
1000
0010
0001
1000
0010
M110
0001
1000
,
0001
0010
0000
0100
0000
0110
0000
0010
,
0001
0100
0010
1000
0001
0000
0011
0000
,
0100
1100
0000
1000
0000
1010
0000
0100
,
0101
0000
0001
1000
0010
0000
1000
0100
,
1000
0000
0001
0000
0000
0000
0010
0000
0000
0000
0001
0100
0010
0000
0000
0000
,
1000
0010
0100
0001
1000
0000
1010
0000
,
0001
0011
0000
0001
1000
0010
0101
0000
,
1000
0000
1100
0000
0000
0000
0100
1000
0010
0000
0000
0000
0100
0000
0001
0000
,
1000
0010
0000
0001
0000
0011
0000
0010
,
0100
0001
1000
0100
0010
0000
0110
0000
,
0010
0011
0000
0001
0000
1001
0000
1000
,
1100
0000
1000
0010
0100
0000
0100
1000
,
0001
0000
0010
0000
0000
0000
1000
0000
0000
0000
1000
0001
0010
0000
0000
0000
,
0010
0000
0000
0100
0000
0000
1000
0000
0000
0000
0000
0000
0100
0000
1000
0000
0001
0000
0010
0000
0000
0001
0000
0000
,
1000
0010
0000
0100
0001
1000
0000
0010
,
1000
0100
0000
0010
0010
0000
0001
0100
,
0110
0101
1001
1010
,
1001
0000
0011
0000
0110
0000
1000
0100
,
0110
0011
0110
1100
,
1001
0000
0001
1000
0100
0000
1000
0001
,
0100
0101
0110
1010
,
1001
0000
0011
0000
0110
0000
0010
0001
,
0100
1010
1100
1001
,
0110
0000
0010
1000
0100
0000
1000
0001
,
0010
0110
1001
0011
,
0110
0000
1010
0000
0110
0000
0100
0010
,
0001
0110
1001
0011
,
0110
0000
1000
0010
0100
0000
0001
1000
,
0010
0110
0101
0011
,
1001
0000
0000
0000
1100
0000
0000
0000
0100
0000
0010
0100
0010
0000
0001
0000
,
0010
0000
0100
0000
1000
0000
0100
0010
0001
0000
0010
0000
0001
0000
1000
0000
,
0100
0000
0001
0000
0100
1000
0100
1000
0100
0000
0000
0000
0010
0000
0100
0000
,
0001
0000
0100
0000
1000
0000
0001
1000
0010
0000
0100
0000
0010
0000
1000
0000
,
0100
0000
1000
0000
0010
0100
0010
0100
0010
0000
0000
0000
100M
0000
0000
1000
,
0000
0010
0200
0000
0000
0000
0300
0001
0100
0010
1000
0001
0010
0000
0000
0010
,
0100
0000
0000
0000
1000
0000
0000
0000
0000
0000
1000
0000
0100
0000
1000
0001
0010
0000
0000
0000
0100
0000
0000
0000
1001
0000
0000
0000
0000
0000
0001
0000
,
0000
0100
0020
0000
0000
0000
0030
1000
0100
0010
0001
1000
0001
0000
0000
0001
,
0100
0010
1000
0000
0000
1000
0100
0010
0100
1000
0001
0100
0110
0000
0000
0100
,
0000
0001
2000
0000
0000
0000
3000
0010
1000
0001
0101
0000
1010
0000
0000
0001
,
0010
0000
0000
0000
0100
0000
0000
0000
0000
0000
0100
0000
1000
0000
0001
1000
0010
0000
0000
0000
0100
0000
0000
0000
0110
0000
0000
0000
0000
0000
0010
0000
,
0000
0000
0000
0000
0000
0000
0000
0000
0000
0000
0000
0000
1000
0000
0000
0000
0000
0000
0001
0000
0000
0000
0000
0000
1000
0000
0000
0000
0000
0000
0000
0000
0000
0000
0000
0000
0000
0000
0000
0000
0000
0000
0000
0000
0000
0000
0000
0000
0000
0000
0000
0000
0000
0000
0000
0000
0000
0000
0000
0000
0000
0000
0000
0000
0000
0000
0000
0000
0000
0000
0000
0000
0000
0000
0000
0000
0000
0000
0000
0000
0000
0000
0000
0000
0001
0000
0000
0000
0000
0000
1000
0000
0000
0000
0000
0000
0001
0000
0000
0000
0000
0000
0000
0000
0000
0000
0000
0000
0000
0000
0000
0000
0000
0000
0000
0000
0000
0000
0000
0000
0000
0000
0000
0000
0000
0000
0000
0000
0000
0000
0000
0000
0000
0000
0000
0000
0000
0000
0000
0000
0000
0000
0000
0000
0010
0000
0000
0000
0000
0000
0000
0000
0100
0000
0000
0000
0000
0000
0000
0000
1000
0000
0000
0000
0000
0000
0000
0000
0001
0000
0000
0000
0000
0000
0000
0000
0100
0000
0000
0000
0000
0000
0000
0000
0001
0000
0000
0000
0000
0000
0000
0000
,
1000
0000
0100
0000
1000
0000
0010
0000
0100
0000
0001
0000
1000
0000
0100
0000
1000
0000
0001
0000
0100
0000
0001
0000
0010
0000
0000
0001
0000
0000
1000
0000
0000
0100
0000
0000
20M2
0000
0000
0000
0000
0000
0000
0000
0000
0000
0000
0000
,
0000
0000
0000
0000
0000
0000
3000
0000
0020
0000
0000
0000
0003
0000
0000
0000
0030
0000
0100
1000
0001
0010
0100
0000
1100
0000
0000
0000
0000
0000
0101
0000
,
0000
0000
0000
0000
0000
0000
0000
0000
0000
0000
0000
0000
0000
0000
0000
0000
0000
0000
0000
0000
0000
0000
0000
0000
1001
0000
0000
0000
0000
0000
0000
0000
0000
0000
0000
0000
0100
0000
0000
0000
0001
0000
0000
0000
1000
0000
0000
0000
0010
0000
0000
0000
0000
0000
0000
0000
0000
0000
0000
0000
0000
0000
0000
0000
0000
0000
0000
0000
0000
0000
0000
0000
0000
0000
0000
0000
0000
0000
0000
0000
0000
0000
0000
0000
0011
0000
0000
0000
0000
0000
0000
0000
0000
0000
0000
0000
0000
0000
0000
0000
0000
0000
0000
0000
0000
0000
0000
0000
0000
0000
0000
0000
0000
0000
0000
0000
0000
0000
0000
0000
1000
0000
0000
0000
0000
0000
0000
0000
0000
0000
0000
0000
0010
0000
0000
0000
0000
0000
2000
0000
0000
0000
0000
0000
0002
0000
0000
0000
0000
0000
0000
0000
0000
0000
0000
0000
0000
0000
0000
0000
0000
0000
0000
0000
0000
0000
0000
0000
0000
0000
0000
0000
0000
0000
0000
0000
0000
0000
0000
0000
0000
0000
0000
0000
0000
0000
0000
0000
0000
0000
0000
0000
,
0000
0000
0000
3003
1000
0010
0100
0000
0220
0000
0000
0000
0000
0000
0000
0000
0330
0000
0100
0001
1000
0010
0100
0000
0101
0000
0000
0000
0000
0000
1100
0000
,
0000
0000
0000
0000
0000
0000
1001
0000
0000
0001
1000
0100
0010
0000
0000
0000
0000
0000
0000
0000
0000
0100
0000
0000
000M
0000
0000
0000
0000
0000
0000
0000
0000
0000
0000
0000
1001
0000
0000
0000
0000
0000
0000
0000
0000
0000
0000
0000
,
1000
0100
0000
0100
0000
0000
0001
0100
0000
0100
0000
0100
1000
0010
0000
0000
,
0001
0010
0000
0010
0000
0000
1000
0010
0000
0010
0100
0001
0010
0000
0000
0000
,
0001
0000
0000
0100
0000
0000
0000
0000
0000
0100
0000
0000
0000
0000
0000
0000
0000
0000
1000
0000
0000
0100
0000
0000
0000
0000
0000
0100
0000
0000
0000
0000
0000
0100
0000
0000
0001
0000
0000
0010
0000
0000
0100
0000
1000
0000
0001
0000
,
0010
0100
0000
0010
0000
0001
1000
0000
0001
0000
0010
0100
1000
0001
1000
0010
,
1000
0010
0000
0010
0000
0000
0001
0010
0000
0010
0000
0010
1000
0001
0000
0000
,
1000
0100
0000
0100
0000
0000
0001
0100
0000
0100
1000
0001
0010
0000
0000
0000
,
0001
0000
0000
0010
0000
0000
0000
0000
0000
1000
0000
0000
0000
0000
0000
0000
0000
0000
1000
0000
0000
0010
0000
0000
0000
0000
0000
0001
0000
0000
0000
0000
0000
1000
0000
0000
0001
0000
0000
0100
0000
0000
0001
0000
1000
0000
0100
0000
,
0010
0100
0000
1000
0000
0001
0100
0000
0010
0100
0001
1000
0100
0000
0000
0000
,
2001
0000
0000
3010
2000
0000
0100
3000
2000
0000
0000
3000
1002
0000
0000
0003
,
0002
0000
0000
0000
0000
0000
0000
0000
0000
0013
0000
0000
0002
0000
0000
0000
0000
0000
0103
0000
0000
0000
0000
0000
0002
0000
0000
0000
0000
0000
0000
0000
0003
2000
0000
0000
0000
0000
0000
0000
0000
0000
3020
0000
0000
0000
0000
0000
,
0230
0000
0000
0000
0000
0000
0000
0000
0000
0301
0000
0000
0200
0000
0000
0000
0000
0000
1000
0000
0000
0300
0000
0000
0200
0000
0000
0000
0000
0000
0000
0000
0000
0300
0000
0000
0001
0000
0000
0000
0010
0000
0000
0000
1000
0000
0000
0000
,
0020
0000
0000
0031
0020
0000
1030
0000
0020
0000
0000
0000
0130
0000
0000
0000
,
2000
0000
0000
3100
0010
0000
0002
0000
0013
0000
0100
0000
2000
0000
0000
0000
,
3020
0000
0000
0031
0010
0000
0200
0000
1000
0300
0100
0001
2000
0000
0000
0000
,
3001
0000
0000
0100
0000
0000
0001
0000
0000
2000
0000
0000
0000
0000
0000
0000
0000
0000
3010
0000
0000
0000
0000
0000
1000
0000
0100
0000
1000
0000
0001
0000
0100
0000
0001
0000
0020
0000
0000
0000
0000
0000
0030
0000
0000
0000
0000
0000
,
0010
0000
0000
0000
0000
0000
0000
0000
0000
0000
0000
0000
0000
0000
0000
0000
0000
0000
0001
0000
0000
0000
0000
0000
0000
0000
0000
0000
0000
0000
0000
0000
0000
0000
0000
0000
0100
0000
0000
0000
0000
0000
0000
0000
0000
0000
0000
0000
0000
0000
0000
0000
0000
0000
0000
0000
0000
0000
0000
0000
0000
0000
0000
0000
0000
0000
0000
0000
0000
0000
0000
0000
0010
0000
0000
0000
0000
0000
0000
0000
1000
0000
0000
0000
0000
0000
0000
0000
0100
0000
0000
0000
0000
0000
0000
0000
1000
0000
0000
0000
0000
0000
0000
0000
0000
0000
0000
0000
0001
0000
0000
0000
0000
0000
0000
0000
0000
0000
0000
0000
0010
0000
0000
0000
0000
0000
0000
0000
0000
0000
0000
0000
1000
0000
0000
0000
0000
0000
0000
0000
0000
0000
0000
0000
0001
0000
0000
0000
0000
0000
0000
0000
0000
0000
0000
0000
0100
0000
0000
0000
0000
0000
0000
0000
0000
0000
0000
0000
1000
0000
0000
0000
0000
0000
0000
0000
0000
0000
0000
0000
0000
0000
0000
0000
0000
0000
0000
0000
0000
0000
0000
0000
,
00M2
0000
0103
0020
0000
0130
2000
0000
,
3100
0020
0000
0130
0002
0000
1003
0000
,
2000
0000
3100
0002
0000
0103
0020
0000
,
0130
0002
0000
0103
2000
0000
3001
0000
,
2000
0000
3010
0200
0000
0310
0002
0000
,
0013
0200
0000
0310
2000
0000
3001
0000
,
1000
0100
0001
0100
1000
0010
0100
0001
,
0010
0000
1000
0000
0010
0000
0001
0000
1000
0000
0001
0100
0010
0000
0000
0000
,
1000
0001
0010
0001
1000
0010
1000
0001
,
0100
0001
1000
0100
0010
0100
0010
0000
,
0001
1000
0100
1000
0001
0100
0001
1000
,
0010
0000
1000
0000
0001
0000
0010
0000
0100
0000
1000
0000
0010
0000
1000
0001
,
0010
0000
0010
0001
0000
0001
0100
0000
,
0100
0000
0000
0010
0000
0000
1000
0000
0001
0000
1000
0000
0020
0000
0000
0000
0000
0000
0000
0000
0000
1030
0000
0000
,
0001
0000
0010
0000
0100
0000
1000
0000
0010
0000
0100
0000
0001
0000
0000
1000
0000
0000
0100
0000
0000
0010
0000
0000
,
0001
0000
0010
0000
0100
0000
1000
0000
0000
0000
0001
1000
0001
0000
0000
0000
,
101M
0M11
11M0
M101
,
10M0
0000
0100
0000
0010
0000
0001
0000
0000
0000
0010
0000
0000
0000
0001
0000
0100
0000
0010
0000
1000
0000
0000
0000
0010
0100
0010
0100
0010
0000
0000
0000
,
0100
0000
0001
0000
0010
0000
0100
0000
0000
0000
0010
0000
0000
0000
0001
0000
1000
0000
0010
0000
0100
0000
0000
0000
0001
0100
0001
0100
0001
0000
0000
0000
,
0001
0000
0100
0000
0010
0000
1000
0000
0000
0000
0010
0000
0000
0000
1000
0000
0100
0000
0010
0000
0001
0000
0000
0000
0010
0100
0010
0100
0010
0000
0000
0000
,
0001
0000
0100
0000
0001
0000
0010
0000
0000
0100
0000
0000
1000
0000
0000
0010
0000
0000
0001
0000
0000
0010
0000
0000
0000
0000
0000
1000
0000
0000
0010
0000
0000
0001
0000
0000
0000
0000
0000
1000
0000
0000
0000
0000
0000
0100
0000
0000
,
0001
0000
1000
0000
0010
0000
0100
0000
0000
0000
0010
0000
0000
0000
1000
0000
0001
0000
0010
0000
0100
0000
0000
0000
1000
0001
1000
0001
1000
0000
0000
0000
,
1000
0000
0001
0000
0100
0000
0010
0000
0000
0000
0100
0000
0000
0000
0001
0000
1000
0000
0010
0000
0100
0000
0000
0000
0010
1000
0010
1000
0010
0000
0000
0000
,
1000
0000
0100
0000
0010
0000
0001
0000
0000
0000
0010
0000
0000
0000
0001
0000
1000
0000
0010
0000
0100
0000
0000
0000
0001
1000
0001
1000
0001
0000
0000
0000
,
0010
0001
0100
1000
0100
0001
0010
1000
0010
0001
1000
0010
0100
0001
1000
0100
,
1100
0000
0110
0000
0011
0000
0001
0010
0000
0010
0100
0000
1001
0000
0000
0000
,
0101
0000
0110
0000
1010
0000
1000
0100
0000
0100
0010
0000
1001
0000
0000
0000
,
0101
0000
1010
0000
0110
0000
0100
0010
0000
1000
0001
0000
1001
0000
0001
0000
,
0011
0000
0000
0000
0110
0000
0000
0000
1100
0000
0000
0000
1000
0000
0001
0000
0000
0000
0001
0000
0100
0000
0010
0100
0020
0000
0000
0000
0000
0000
0000
0000
,
1030
0000
0100
1000
0001
0000
0100
0001
1000
0001
0100
0000
0010
0100
0001
0000
,
0001
0000
0010
0001
1000
0000
0010
1000
0001
1000
0100
0000
0001
0100
1000
0000
,
1000
0000
0001
0100
0010
0000
1000
0010
0100
0001
0010
0000
1000
0010
0001
0000
,
10M0
0100
1000
0100
0010
0001
0100
0001
,
0100
0010
1000
0001
0010
0100
1000
0000
,
0001
0100
0001
0100
0010
1000
0100
1000
,
0100
0000
0010
0000
0001
0000
0100
0000
0010
1000
0010
1000
0010
0000
0000
0000
,
1000
0001
1000
0010
0100
0001
1000
0001
,
0010
0100
1000
0001
0100
0010
1000
0000
,
0001
0000
1000
0000
0100
0000
0010
0000
0000
0000
0000
0000
0001
0010
0001
0010
,
0001
0000
1000
0000
0000
0000
0000
0000
1000
0010
1000
0010
1000
0000
0000
0000
,
0001
0100
0001
1000
0010
1000
0001
0100
,
0010
0001
0010
1000
0001
0010
0100
0000
,
1000
0100
1000
0001
0010
0001
1000
0100
,
0010
1000
0010
0001
0100
0010
1000
0000
,
0001
0010
0001
1000
0010
1000
0001
0100
,
0001
0010
0100
1000
0001
0100
1000
0000
,
1000
0100
0001
0010
1000
0010
0001
0100
,
0010
1000
0001
1000
0001
1000
0001
1000
,
0M01
20M2
0000
0000
,
0000
0000
0000
0000
,
0000
0000
0000
0003
,
31M0
0000
1000
0000
0001
0000
0010
0000
0000
0000
0001
1000
0002
0000
0000
0000
0000
0000
0000
0000
0003
0000
0100
0000
0010
0000
0010
0000
1000
0000
0001
1000
,
0020
0000
0000
0000
0000
0000
0230
0000
0000
0000
0000
0000
0301
0000
0000
0000
0000
0000
1000
0000
0001
0000
1000
0100
0010
0000
0000
0000
0110
0000
0000
0000
,
1001
0000
0001
0000
1000
0000
0010
0000
0000
0000
1000
0001
2000
0000
0000
0000
0000
0000
0000
0000
3100
0000
1000
0001
0010
0000
0001
0000
1000
0000
0010
0000
,
0100
0000
0000
0000
0000
0000
0000
0000
0000
0000
0000
0000
0000
0000
0000
0000
0000
0000
0000
0000
0000
0000
0000
0000
0001
0000
0000
0000
0000
0000
0000
0000
0010
0000
0000
0000
0000
0000
0000
0000
0100
0000
0000
0000
0000
0000
0000
0000
1000
0000
0000
0000
0000
0000
0000
0000
0000
0000
0000
0000
0001
0000
0000
0000
0000
0000
0000
0000
0000
0000
0000
0000
0100
0000
0000
0000
0000
0000
0000
0000
0000
0000
0000
0000
0000
0000
0000
0000
0000
0000
0000
0000
0000
0000
0000
0000
0100
0000
0000
0000
0000
0000
0000
0000
0000
0000
0000
0000
0000
0000
0000
0000
0000
0000
0000
0000
0000
0000
0000
0000
0001
0000
0000
0000
0000
0000
0000
0000
0000
0000
0000
0000
1000
0000
0000
0000
0000
0000
0100
0000
0000
0000
0000
0000
0010
0000
0000
0000
0000
0000
0000
0000
0000
0000
0000
0000
0000
0000
0000
0000
0000
0000
0000
0000
0000
0000
0000
0000
0110
0000
0000
0000
0000
0000
0000
0000
0000
0000
0000
0000
0000
0000
0000
0000
0000
0000
0000
0000
0000
0000
0000
0000
,
1001
1000
0001
0010
0000
0001
0100
0000
0000
0100
0010
0000
1000
0001
0010
0000
,
0002
0000
0000
0000
0003
0000
0100
0001
1000
0000
0000
0000
2000
0000
0000
0000
0000
0000
3100
0000
1000
0000
0001
1000
0010
0000
0000
0000
0110
0000
0000
0000
,
0001
0000
0000
0000
0000
0000
0000
0000
0000
0000
0000
0000
0000
0000
0000
0000
0000
0000
0100
0000
0000
0000
0000
0000
0000
0000
0000
0000
0000
0000
0000
0000
0000
0000
0000
0000
0010
0000
0000
0000
0000
0000
0000
0000
0000
0000
0000
0000
0000
0000
0000
0000
0000
0000
1000
0000
0000
0000
0000
0000
0000
0000
0000
0000
0000
0000
0000
0000
0000
0000
0000
0000
0010
0000
0000
0000
0000
0000
0000
0000
0000
0000
0000
0000
0100
0000
0000
0000
0000
0000
0000
0000
0000
0000
0000
0000
0002
0000
0000
0000
0000
0000
0000
0000
0000
0000
0000
0000
0000
0000
0000
0000
0000
0000
0000
0000
0000
0000
0000
0000
0000
0000
0000
0000
0000
0000
0000
0000
0000
0000
0000
0000
0013
0000
0000
0000
0000
0000
0000
0000
0000
0000
0000
0000
0001
0000
0000
0000
0000
0000
0000
0000
0100
0000
0000
0000
0000
0000
0000
0000
0010
0000
0000
0000
0000
0000
0000
0000
1000
0000
0000
0000
0000
0000
0000
0000
0100
0000
0000
0000
0000
0000
0000
0000
0010
0000
0000
0000
0000
0000
0000
0000
,
0001
0000
0000
0001
1000
0000
1000
0000
0010
1000
0001
0010
0100
1000
0001
0100
,
M110
0000
0000
0000
;

//---------------dance-single - ----------------
#NOTES:
     dance-single:
     :
     Medium:
     7:
     0.527769,0.753956,0.251319,0.262089,0.323124,1029.000000,959.000000,70.000000,73.000000,18.000000,0.000000,0.527769,0.753956,0.251319,0.262089,0.323124,1029.000000,959.000000,70.000000,73.000000,18.000000,0.000000:
// measure 0
0000
0000
0000
0000
,  // measure 1
0000
0000
0000
0000
,  // measure 2
0000
0000
0000
0000
,  // measure 3
0000
0000
0000
0000
,  // measure 4
0001
0020
0000
0100
0000
0001
0000
0130
,  // measure 5
1000
0020
0000
0100
0000
1000
0000
0130
,  // measure 6
0001
0200
0000
1000
0000
0010
0000
0301
,  // measure 7
10M1
1000
0100
0001
,  // measure 8
1000
0010
0001
1000
,  // measure 9
0000
0001
0010
1000
,  // measure 10
0001
0100
1000
0001
,  // measure 11
0000
0001
0100
1000
,  // measure 12
0001
0010
1000
0001
,  // measure 13
0000
1000
0010
0001
,  // measure 14
1000
0100
0001
1000
,  // measure 15
0000
0010
1010
1000
,  // measure 16
1001
0001
0011
0100
,  // measure 17
0000
0100
1100
1000
,  // measure 18
1001
0001
0101
0100
,  // measure 19
0000
0010
0110
0100
,  // measure 20
1001
0001
1001
1000
,  // measure 21
0100
0000
0100
1000
0000
1000
0001
0000
,  // measure 22
0001
0100
0000
0100
0010
1000
0001
0100
,  // measure 23
00M1
0000
0000
0001
0000
0000
0200
0000
0000
0000
0300
0100
0010
1000
0001
0000
,  // measure 24
1000
0000
0000
0100
0010
0000
0001
0000
0000
0001
1000
0000
0110
0000
1001
0000
,  // measure 25
1000
0000
0000
1000
0000
0000
0200
0000
0000
0000
0300
0100
0010
0001
1000
0000
,  // measure 26
0001
0000
0000
0010
0100
0000
1000
0000
0000
0001
0000
1000
0010
0100
0001
0000
,  // measure 27
0010
0000
0000
0010
0000
0000
0002
0000
0000
0000
0003
0001
1000
0100
0010
0000
,  // measure 28
0100
0000
0000
1000
0001
0000
0010
0000
0000
0010
0100
0000
1001
0000
1020
0000
,  // measure 29
0130
0000
0000
0100
0000
0000
0002
0000
0000
0000
0003
0001
1000
0010
0100
0000
,  // measure 30
0010
0000
0010
1000
0000
1000
0001
0000
0001
0010
0000
0010
0001
0010
0100
1000
,  // measure 31
00M1
0000
0001
0010
0000
0010
0100
0000
,  // measure 32
0000
1000
0001
0000
1000
0010
1000
0000
,  // measure 33
0010
0000
0010
1000
0000
1000
0100
0000
,  // measure 34
0000
1000
0001
0000
0001
0010
0001
0000
,  // measure 35
1000
0000
1000
0100
0000
0100
0010
0000
,  // measure 36
0000
0001
1000
0000
0001
0100
0001
0000
,  // measure 37
0020
0000
0000
0230
0000
0000
2300
0000
,  // measure 38
0000
3002
0000
0000
0103
0010
0100
0000
,  // measure 39
0001
0001
1000
1000
,  // measure 40
0100
0100
0010
0010
,  // measure 41
0100
0100
1000
1000
,  // measure 42
0001
0001
0010
0100
,  // measure 43
1000
1000
0010
0010
,  // measure 44
0100
0100
0001
0001
,  // measure 45
0101
0000
0000
0110
0000
0000
1010
0000
,  // measure 46
0000
1001
0000
0000
1100
0000
0011
0000
,  // measure 47
0001
0000
0100
0000
0001
0000
1000
0010
,  // measure 48
0000
1000
0000
0100
0000
1000
0001
0000
,  // measure 49
0010
0000
0001
0000
1000
0010
0000
0100
,  // measure 50
0001
0000
1000
0100
0010
0000
0100
0000
,  // measure 51
1000
0000
0001
0010
0000
0001
0000
0100
,  // measure 52
0000
0100
0010
0000
1000
0000
0001
0000
,  // measure 53
0100
0001
0010
0100
1000
00M1
1000
0100
,  // measure 54
1000
0010
0000
0100
0000
0020
0000
0000
,  // measure 55
1000
0000
0130
0010
,  // measure 56
1000
0001
0000
0010
0000
0100
0000
0010
,  // measure 57
0002
0000
0000
0000
1003
0000
0001
0010
,  // measure 58
0001
1000
0000
0010
0000
0000
0200
0000
,  // measure 59
0001
0000
0310
1010
,  // measure 60
0000
0011
0000
0000
0001
1000
0001
0000
,  // measure 61
0000
0101
0000
0000
1100
0000
1000
0010
,  // measure 62
1000
0001
0000
0010
0000
0200
0000
0000
,  // measure 63
1000
0000
0310
0100
,  // measure 64
1000
0001
0000
0100
0000
0010
0000
0000
,  // measure 65
0200
0000
0000
0000
0301
0000
0001
0100
,  // measure 66
0001
1000
0000
0100
0000
0000
0020
0000
,  // measure 67
0001
0000
0000
0000
0130
0000
0010
0001
,  // measure 68
1000
0010
0000
0100
0001
1000
0000
0100
,  // measure 69
1000
0010
0000
0100
0001
0000
1001
0000
,  // measure 70
1000
0100
1000
0010
,  // measure 71
0001
1000
0100
0000
,  // measure 72
0001
0100
0001
1000
,  // measure 73
0100
0010
0100
0000
,  // measure 74
1000
0010
1000
0001
,  // measure 75
0010
1000
0010
0000
,  // measure 76
0001
0100
0001
0010
,  // measure 77
0100
1000
0001
1001
,  // measure 78
1000
1010
0010
0110
,  // measure 79
0100
0101
0001
0000
,  // measure 80
0001
0011
0010
0110
,  // measure 81
0100
1100
1000
0000
,  // measure 82
0100
0110
0010
1001
,  // measure 83
1000
1010
0101
0002
,  // measure 84
0000
0023
0000
0000
0230
0000
0000
2300
,  // measure 85
0000
0000
3001
1000
0001
1000
0002
0000
,  // measure 86
0000
0203
0000
0000
0320
0000
0000
2030
,  // measure 87
0000
0000
0000
0000
3010
0000
0100
0000
0001
0000
1000
0000
010M
0000
0000
0100
,  // measure 88
0000
0000
2000
0000
0000
0000
3000
1000
0001
0010
0100
0000
0010
0000
0000
1000
,  // measure 89
0001
0000
0100
0000
0000
0100
0010
0000
0110
0000
1002
0000
0103
0000
0000
0010
,  // measure 90
0000
0000
2000
0000
0000
0000
3000
1000
0001
0100
0010
0000
0100
0000
0000
0001
,  // measure 91
1000
0000
0010
0000
0000
0100
0000
0010
0001
1000
0100
0000
0001
0000
0000
0001
,  // measure 92
0000
0000
0200
0000
0000
0000
0300
0100
0010
1000
0001
0000
1000
0000
0000
0100
,  // measure 93
0010
0000
0001
0000
0000
0001
1000
0000
0110
0000
1002
0000
0013
0000
0000
0001
,  // measure 94
0000
0000
0200
0000
0000
0000
0300
0100
0010
0000
0000
0000
1000
0010
1000
0010
,  // measure 95
1000
0010
0100
0001
0100
0001
0100
0001
0010
0001
1000
0100
20M0
0000
0000
0000
,  // measure 96
0000
0000
0000
0000
3020
0000
0000
0000
0000
0130
0001
0010
0002
0000
0000
0203
,  // measure 97
0000
0000
0301
0000
0020
0000
0000
0230
0000
0300
1001
0000
0002
0000
0000
0000
,  // measure 98
0000
0000
0100
0000
0203
0000
0000
0000
0000
0310
1000
0001
0020
0000
0000
2030
,  // measure 99
0000
0000
3010
0000
0200
0000
0000
1300
00M0
0000
0000
0000
1001
0000
0000
0000
,  // measure 100
0001
0000
0000
0100
0000
0000
0001
0100
0000
0100
0000
0000
0010
0000
0000
0000
,  // measure 101
1000
0000
0000
0100
0000
0000
1000
0100
0000
0000
1000
0100
0010
0000
0000
0000
,  // measure 102
0001
0000
0000
0010
0000
0000
0001
0010
0000
0010
0000
0000
0100
0000
2000
0000
,  // measure 103
3010
0000
0000
1000
0000
0000
0010
0100
0000
0010
1000
0001
0010
0000
0200
0000
,  // measure 104
1300
0000
0000
0010
0000
0000
1000
0010
0000
0010
0000
0000
0100
0000
0000
0000
,  // measure 105
0001
0000
0000
0010
0000
0000
0001
0010
0000
0000
0001
0010
0100
0000
0000
0000
,  // measure 106
1000
0000
0000
0100
0000
0000
1000
0100
0000
0100
0000
0000
0010
0000
0002
0000
,  // measure 107
0103
0000
0000
0001
0000
0000
0100
0010
0000
0100
0001
1000
0100
0000
0020
0000
,  // measure 108
0031
0000
0000
0100
0010
0000
0100
0000
0001
0000
0000
0000
1001
0000
0000
0000
,  // measure 109
1000
0000
0000
0100
0010
0000
0100
0000
1000
0000
0000
0001
0000
0000
0010
0000
,  // measure 110
0100
0000
0000
0000
0000
0000
0000
0000
0000
1000
0000
0000
0100
0000
0000
0000
0000
0000
0010
0000
0000
0000
0000
0000
0100
0000
0000
0000
0000
0000
0000
0000
0000
0000
0000
0000
0100
0000
0000
0000
1000
0000
0000
0000
0001
0000
0000
0000
,  // measure 111
0100
0000
0000
0001
0100
0000
0010
0000
0100
0000
0000
0000
1001
0000
0000
0000
,  // measure 112
0001
0000
0000
0100
1000
0000
0100
0000
0001
0000
0000
0000
1001
0000
0000
0000
,  // measure 113
0001
0000
0000
0010
1000
0000
0010
0000
0001
0000
0010
0100
1000
0000
0000
0000
,  // measure 114
0001
1000
0100
0020
0000
0000
0031
0000
1000
0001
0100
0001
2000
0000
0000
0000
,  // measure 115
3010
0000
0000
0100
0000
0000
0001
0000
1000
0100
0010
0001
0100
0010
1000
0000
,  // measure 116
0M01
0000
0001
0100
0000
0100
0010
0000
,  // measure 117
0010
1000
0000
1000
0100
0000
0210
0000
,  // measure 118
1300
0000
1000
0001
0000
0001
0010
0000
,  // measure 119
0010
0100
0000
0100
1000
0000
1001
0000
,  // measure 120
0001
0000
0001
1000
0000
1000
0010
0000
,  // measure 121
0010
0100
0000
0100
0001
0000
2001
0000
,  // measure 122
3100
1000
0001
0000
1000
0010
0100
0000
,  // measure 123
0010
1000
0001
0010
0100
0000
0110
0000
,  // measure 124
0100
1000
0010
0000
0001
0010
0000
1000
,  // measure 125
0010
0000
0001
0010
0000
1000
0010
0000
,  // measure 126
0100
0001
0010
0000
1000
0010
0000
0001
,  // measure 127
0010
0000
1000
0010
0000
0001
1000
0000
,  // measure 128
0020
0000
0000
2030
0000
0000
3200
0000
,  // measure 129
0000
0320
0000
0000
0032
0000
0000
0000
,  // measure 130
1003
0010
0100
0000
0001
0010
0100
0000
,  // measure 131
1000
0100
0010
0001
0000
1000
0001
0000
,  // measure 132
M011
110M
1M10
01M1
,  // measure 133
1M00
0000
0000
0100
0000
0010
0000
0100
1000
0000
0001
0000
0011
0000
0000
0000
,  // measure 134
0001
0000
0000
0100
0000
0010
0000
0100
0001
0000
0010
0000
0100
0000
1000
0000
,  // measure 135
1000
0000
0000
0010
0000
0100
0000
0010
1000
0000
0001
0000
0101
0000
0000
0000
,  // measure 136
0010
0000
1000
0100
0000
0010
0000
0001
0000
0100
0000
0010
0000
1000
0000
0001
,  // measure 137
1000
0000
0000
0001
0000
0010
0000
0100
1000
0000
0001
0000
0010
0000
0010
0000
,  // measure 138
0001
0000
0000
1000
0000
0010
0000
0100
0001
0000
0010
0000
0100
0000
1000
0000
,  // measure 139
0001
0000
0000
0010
0000
0100
0000
0010
0001
0000
0100
0000
1010
0000
0000
0000
,  // measure 140
0010
0000
0010
1000
0000
1000
0000
0001
0000
0001
0000
0010
0000
0100
0000
1000
,  // measure 141
0001
0000
0001
0000
0001
0000
0100
0010
0000
0100
1000
0100
0001
0000
0000
0000
,  // measure 142
1000
0000
1000
0000
1000
0000
0010
0100
0000
0010
0001
0010
1000
0000
0000
0000
,  // measure 143
0100
0000
0100
0000
0100
0000
1000
0010
0000
0001
0010
1000
0001
0000
0000
0000
,  // measure 144
0010
0000
0010
0000
0010
0000
1000
0010
0000
0001
1000
0000
2002
0000
0003
0000
,  // measure 145
3001
0000
0000
0100
0001
0000
1000
0100
1000
0000
0010
0000
0110
0000
0010
0000
,  // measure 146
1000
0000
0000
0100
1000
0000
0001
0010
0001
0000
1000
0000
1001
0000
0000
0000
,  // measure 147
0001
0000
0000
0010
0001
0000
1000
0010
1000
0000
0100
0000
0110
0000
0000
0000
,  // measure 148
M010
0001
0100
1000
0000
0000
0100
0001
,  // measure 149
0100
0010
0000
0000
1000
0100
0001
0000
,  // measure 150
0100
1000
0010
0001
0000
0000
0001
0010
,  // measure 151
0100
0001
1000
0100
0010
0000
0110
0000
,  // measure 152
0100
1000
0010
0001
0000
0000
0010
0100
,  // measure 153
0010
1000
0000
0000
0100
0010
0001
0000
,  // measure 154
1000
0010
0100
0001
0000
0000
1000
0001
,  // measure 155
1000
0001
0000
0000
0011
0000
1100
0000
,  // measure 156
1000
0100
1000
0000
0001
0000
0001
0100
,  // measure 157
0001
0000
1000
0000
1000
0001
1000
0000
,  // measure 158
0001
0010
0001
0000
1000
0000
1000
0010
,  // measure 159
1000
0000
0001
0000
0010
0100
0010
0000
,  // measure 160
0001
0010
0001
0000
1000
0000
0100
1000
,  // measure 161
0100
0000
1000
0000
0010
1000
0001
0000
,  // measure 162
0100
0001
1000
0000
0100
1000
0001
0000
,  // measure 163
0010
0001
1000
0010
0100
0001
1000
0100
,  // measure 164
001M
2M02
0000
0000
,  // measure 165
0000
0000
0000
0000
,  // measure 166
0000
0000
0000
3000
,  // measure 167
M103
0001
1000
0020
0000
0000
2030
0000
0000
0000
3100
0000
0010
0100
0010
0000
,  // measure 168
0002
0000
0000
0023
0000
0000
0130
0000
0000
1000
0001
0000
0110
0000
2001
0000
,  // measure 169
3100
1000
0001
0010
0000
0001
2000
0000
0000
0000
3200
0000
0000
0000
1300
0010
,  // measure 170
0100
0000
0001
0010
0100
1000
0002
0000
0000
0000
1003
0010
0100
0000
0110
0000
,  // measure 171
0100
0001
0010
0100
0000
1000
0002
0000
0000
0000
1003
0000
0010
0100
0010
0000
,  // measure 172
2000
0000
0000
3200
0000
0000
0320
0000
0000
0000
0032
0000
1003
0000
0110
0000
,  // measure 173
1001
0000
0000
1000
0000
0000
1100
0000
0100
0000
0000
0010
0100
0010
0001
1000
,  // measure 174
0010
0000
0000
1000
0001
0000
0010
0000
0001
0010
0100
1000
0001
0100
0010
1000
,  // measure 175
0M01
0000
0000
0000
;
