#TITLE:Stayin' Alive;
#SUBTITLE:(Night Fever Mix);
#ARTIST:N-Trance feat. Ex-It;
#TITLETRANSLIT:;
#SUBTITLETRANSLIT:;
#ARTISTTRANSLIT:;
#CREDIT:;
#BANNER:;
#BACKGROUND:;
#LYRICSPATH:;
#CDTITLE:;
#MUSIC:Stayin' Alive (Night Fever Mix).ogg;
#OFFSET:-0.265;
#SAMPLESTART:53.846;
#SAMPLELENGTH:12.000;
#SELECTABLE:YES;
#BPMS:0.000=111.980;
#STOPS:;
#BGCHANGES:;

//---------------dance-single - ----------------
#NOTES:
     dance-single:
     :
     Hard:
     8:
     0.504,0.531,0.448,0.000,0.299:
0000
0000
0000
0000
,
0000
0000
0000
0000
,
0000
0000
0000
0000
,
0000
0000
0000
0000
,
1000
0000
0100
0000
0010
0000
0001
0000
0100
0000
0010
0000
1000
0001
1000
0000
,
1001
0000
1001
0000
1100
0000
1100
1000
,
0001
0000
0100
0000
0010
0000
1000
0000
0100
0000
0010
0000
0001
1000
0001
0000
,
1001
1001
1010
0000
1001
1001
0011
0001
,
1000
0010
0100
0001
0010
0000
0010
0001
,
1000
0000
0010
0000
0100
0000
0001
0000
1000
0000
0001
0000
0010
0000
0000
0010
,
0000
0000
0010
0000
0001
1000
0000
0001
0000
0000
0100
0000
0001
1000
0000
0001
,
0000
0100
0010
1000
0100
0010
0001
1000
,
0001
0100
1000
0100
0001
0000
1000
0000
,
1000
0100
0010
0000
0001
0100
0010
0000
,
1000
0000
0000
0000
0001
0000
1000
0000
0001
0000
1000
0001
0000
0000
0000
0000
,
1001
0000
1000
0100
0010
0001
1000
0001
,
1000
0000
1000
0100
0010
0100
0000
1000
,
0010
0000
0100
0000
0000
0000
0000
0010
0000
0000
1000
0000
0001
1000
0000
0001
,
0000
0000
1000
0100
0010
0100
1000
0000
,
0001
0000
0100
0000
0010
0000
0000
0000
0010
0000
0100
0000
0001
0000
0000
1000
,
0000
0001
0100
0010
1000
0000
1000
0001
,
1000
0000
0001
1000
0000
0000
0000
0000
1000
0000
0100
0010
0000
0100
0010
0000
,
0001
0000
0000
0000
0100
0000
0010
0000
1000
0000
0000
1000
0000
0000
0000
0000
,
1000
0000
0010
0000
0100
0000
0001
0000
1000
0000
0100
0010
0000
0001
0010
0000
,
0011
1001
1010
1001
,
1000
0100
0010
0100
0000
0000
0000
0000
1000
0100
0010
0100
0000
0000
0000
0000
,
1010
1001
0011
1001
,
0001
0100
0010
0100
0000
0000
0000
0000
0001
0100
0010
0100
0000
0000
0101
0000
,
0101
1001
1100
1001
,
1000
0100
0010
0001
0000
0000
0000
0000
0001
0010
0100
1000
0000
0000
0000
0000
,
1100
1001
0101
1001
,
1000
0010
0100
0001
0000
0000
0000
0000
0000
0000
0000
0000
1001
0000
0000
0000
,
1000
0000
0000
0000
1001
0000
0000
0000
0000
0000
0000
0000
1001
0000
0001
1000
,
0001
1001
0000
1001
,
1000
0100
0001
0100
1000
0010
0001
0010
,
1000
0000
0001
0000
0100
0000
0001
1000
0000
0000
0000
0000
1001
0000
0000
0000
,
1000
0000
0100
0000
0010
0001
0000
1000
0000
0000
0000
0000
1001
0000
0000
0000
,
1000
0000
0010
0000
0100
0000
0001
1000
0000
0000
0000
0000
1001
0000
0000
0000
,
1000
0000
0100
0000
0010
0001
0000
1000
0000
0000
0000
0000
1001
0000
0000
0000
,
0001
0000
0100
0000
0010
0000
0100
0001
0000
0000
1000
0000
1001
0000
0000
0000
,
0001
0000
1000
0000
0100
1000
0000
0001
0000
0000
0100
0000
0000
0000
0001
0000
,
1000
0000
0100
0000
0010
0000
0100
1000
0000
0000
0001
0000
1001
0000
0000
0000
,
1000
0000
0010
0000
0100
0000
0001
1000
0001
0000
0001
0000
1000
0000
1000
0000
,
1001
0000
1000
0001
0101
0000
0001
1000
,
0100
0000
0010
0000
0000
0010
0000
0000
0010
0001
0000
0000
1000
0000
0001
0010
,
0000
0001
0000
0000
1000
0001
0000
0000
1000
0000
0100
0000
0010
0000
0001
0000
,
0000
0001
0010
0100
1000
0100
0010
0001
,
0011
0000
0001
1000
1100
0000
1000
0001
,
0100
0000
0010
0000
0000
0010
0000
0000
1000
0001
0000
0000
1000
0000
0001
1000
,
0000
0010
0000
0000
0100
0010
0100
0010
0100
0000
0100
0000
0001
1000
0001
0000
,
0100
0010
1000
0001
1000
1001
0001
1001
,
1000
0000
0100
0000
1000
0000
0001
1000
0000
0000
0001
0000
0100
0010
1000
0000
,
0001
0000
1000
0000
0010
0000
0100
0010
0000
1000
0000
0001
0000
1000
0000
0000
,
0000
0000
0100
0000
0010
0000
0001
1000
0000
0000
0001
0000
0010
0100
1000
0000
,
0001
0000
0100
0000
0010
0000
1000
0001
,
0001
0000
1000
0000
0100
0000
1000
0001
0000
0000
1000
0000
0010
0100
0001
0000
,
1000
0000
0001
0000
0010
0000
0100
0010
0000
0001
0000
1000
0000
0001
0000
0000
,
0000
0000
0100
0000
0010
0000
1000
0001
0000
0000
1001
0000
1001
0000
1000
0100
,
0010
0100
1000
0001
1000
0000
0001
1000
0000
1000
0001
0000
1000
0000
0001
0000
,
1000
0100
0001
0100
1000
0010
1000
0100
,
1000
1000
0001
0001
,
0001
0100
1000
0100
0001
0010
0001
1000
,
0001
0001
0001
0001
1001
1000
1001
1000
,
0001
0000
0100
0000
0010
0000
0100
0000
0001
0000
0010
0100
1000
0001
1000
0000
,
1001
0101
1001
1100
,
1000
0000
0001
0000
0100
0000
0010
0000
1000
0000
0100
0010
0001
1000
0001
0000
,
1001
1001
1001
0000
0110
0110
0110
0000
,
0001
0100
0010
1000
0000
1000
0010
0100
,
0001
0000
1000
0000
0100
0000
0010
0000
0100
0000
0000
0100
0000
0000
0100
0000
,
0000
0000
1000
0000
0001
1000
0001
1000
0000
0000
0001
0000
0100
0000
0010
0000
,
1000
0000
0001
1000
0000
0000
0000
0001
0100
0001
0000
0001
0010
0000
0010
0100
,
0000
1000
0100
1000
0001
0000
0000
0100
,
0010
1000
0010
0100
0001
1000
0001
0001
,
0000
0000
1000
0001
1000
0100
0010
0001
,
1000
0001
1000
0001
1000
0000
0001
0000
0100
0000
0010
1000
0000
0100
0010
0000
,
0011
1001
1010
1001
,
1000
0010
0001
0010
0000
0000
0000
0000
1000
0010
0001
0010
0000
0000
0000
0000
,
1010
1001
0011
1001
,
0001
0010
1000
0010
0000
0000
0000
0000
0001
0010
1000
0010
0000
0000
0011
0000
,
0011
0101
1100
1001
,
1000
0100
0001
0100
0000
0000
0000
0000
1000
0100
0001
0100
0000
0000
0000
0000
,
1100
0101
0011
1001
,
0001
0100
0010
1000
0000
0000
0000
0000
0001
0000
0000
0000
1001
0000
0000
0000
,
1000
1001
1000
1001
,
0001
0101
0100
0101
,
1000
1100
1000
1100
0100
1100
1001
0101
,
1001
0000
1000
0100
0011
0000
0001
0100
,
0010
0000
1000
0000
0000
1000
0000
0000
0001
1000
0000
0000
0001
0000
0100
0001
,
0000
0010
0000
0000
0100
0010
0000
0000
0100
0000
1000
0000
0100
0000
0010
0000
,
0000
0010
0001
1000
0010
0100
0001
1000
,
1001
0000
0001
0100
1010
0000
1000
0001
,
0100
0000
0001
0000
0000
0001
0000
0000
1000
0001
0000
0000
1000
0000
0100
1000
,
0000
0010
0000
0000
0100
0010
0000
0000
0100
0000
0000
0000
0000
0000
0001
1000
,
0001
0000
0010
0100
0010
0000
0001
1000
0001
0000
1001
0000
1001
0000
1001
0000
,
1010
0000
1000
0010
0101
0000
0001
1000
,
0100
0000
0010
0000
0000
0010
0000
0000
0001
1000
0000
0000
0001
0000
0100
0001
,
0000
1000
0000
0000
0001
1000
0000
0000
0100
0000
1000
0000
0100
0000
0010
0000
,
0000
0001
0100
1000
0100
0001
1000
0001
,
0011
0000
0001
0010
1100
0000
1000
0001
,
1000
0000
0100
0000
0000
0100
0000
0000
1000
0001
0000
0000
1000
0000
0100
1000
,
0000
0001
0000
0000
0100
0001
1000
0100
1000
0000
0001
0000
1000
0001
1000
0000
,
1001
0000
0000
0000
;

//---------------dance-single - ----------------
#NOTES:
     dance-single:
     :
     Medium:
     6:
     0.319,0.346,0.201,0.000,0.037:
0000
0000
0000
0000
,
0000
0000
0000
0000
,
0000
0000
0000
0000
,
0000
0000
0000
0000
,
1000
0000
0100
0000
0001
0000
0100
0010
,
0001
0001
1000
1000
,
0001
0100
1000
0100
,
0001
0001
0001
0000
1000
1000
1000
0000
,
1000
0000
0100
1000
0100
0000
0010
0000
,
0001
0000
1000
0001
1000
0000
0001
0000
,
0100
0000
0010
1000
0001
0000
0100
0001
,
1000
0000
0100
0000
0010
0001
1000
0000
,
0100
0000
0010
0100
1000
0000
0100
0000
,
0010
0001
0001
0000
0100
1000
1000
0000
,
0100
0000
0001
0000
0010
1000
0100
0000
,
0001
0010
0100
1000
,
1001
0000
0001
0000
0100
0010
0000
0100
,
0010
0100
0000
0000
0001
1000
0100
0010
,
0001
0000
1000
0000
0001
1000
0001
0000
,
0001
0100
1000
0000
0001
0010
1000
0000
,
0001
0000
1000
0100
1000
0000
0000
0000
,
0001
0100
0010
1000
,
1001
0000
1000
0100
0010
0000
1000
0000
,
0100
0000
0010
0000
0100
0000
0001
0000
1000
0000
0000
0001
0000
0000
1000
0000
,
1010
0011
1001
1100
,
1000
0000
0000
1000
0000
0000
0000
0000
0001
0000
0000
0001
0000
0000
0000
0000
,
0011
1010
1001
1100
,
1000
0000
0000
1000
0000
0000
0000
0000
0001
0000
0000
0001
0000
0000
0100
0000
,
0010
0110
1001
0110
,
1000
0000
0000
1000
0000
0000
0000
0000
0001
0000
0000
0001
0000
0000
0000
0000
,
0110
1001
0110
1001
,
1000
0000
0000
0010
0000
0000
0000
0000
0000
0000
0000
0000
0000
0000
0000
0000
,
1000
0000
0000
0000
,
0001
0000
0000
0000
,
0100
0000
0000
0000
0100
0100
0100
0100
,
0100
0000
0001
1000
0001
0000
1001
0000
,
1000
0000
0001
1000
0100
0000
0110
0000
,
0001
0000
1000
0001
1000
0000
1001
0000
,
0001
0000
1000
0001
0100
0000
0110
0000
,
1001
0000
1000
0100
0010
0000
1001
0000
,
0001
0000
0010
0100
1000
0000
1001
0000
,
1000
0000
0001
0100
0010
0000
1001
0000
,
1000
0000
0010
0100
0001
0001
0001
0001
,
0001
0000
1000
0001
1000
0000
0001
1000
,
0000
0000
0000
0000
1000
0000
0100
0010
,
0100
0000
0000
0000
0100
0000
1000
0001
,
0000
1000
0100
0010
,
0001
0000
1000
0001
1000
0000
0010
0100
,
0000
0000
0001
1000
,
0001
1000
0001
1000
0001
0001
1000
0001
,
1000
0000
0000
0000
,
1000
0000
0100
0001
0100
0000
0000
0000
,
0000
0000
1000
0000
0001
1000
0001
0000
,
0100
0000
1000
0100
1000
0000
0000
0000
,
0100
0001
1000
0000
,
1000
0000
0010
0001
0010
0000
0000
0000
,
1000
0000
0001
0000
0010
0100
1000
0000
,
0001
0000
0010
1000
0010
0000
0000
0000
,
0001
0000
0100
0010
1000
0000
0000
0000
,
0001
0001
0001
0001
,
0001
0000
0001
0000
,
1000
1000
1000
1000
,
1000
1000
1000
0000
1000
0000
1000
0000
,
0001
0000
1000
0000
0010
0100
0001
1000
,
0001
0001
1000
1000
,
0100
0000
0010
0000
0001
1000
0100
0010
,
0100
0100
0100
0000
0010
0010
0010
0000
,
0001
0000
1000
0001
0000
0000
1000
0001
,
1000
0000
0010
0000
0100
0010
0100
0000
,
0001
0000
1000
0001
1001
0000
0001
1000
,
1001
1000
0100
0110
,
1001
0000
1000
0010
0100
0000
0000
0001
,
1000
0001
0000
0000
1000
0000
0100
0100
,
0000
0000
0010
0000
0001
1000
0001
0000
,
0100
0000
0000
0000
0010
0000
0000
0000
1000
0000
0000
0100
0000
0000
0010
0000
,
0001
1001
1100
1001
,
1000
0000
0000
0001
0000
0000
0000
0000
0001
0000
0000
1000
0000
0000
0000
0000
,
1001
1100
1001
0101
,
0001
0000
0000
1000
0000
0000
0000
0000
1000
0000
0000
0001
0000
0000
0100
0000
,
0010
0110
1001
0110
,
0010
0000
0000
0100
0000
0000
0000
0000
0100
0000
0000
0010
0000
0000
0000
0000
,
0110
1001
0110
1001
,
1000
0000
0000
0010
0000
0000
0000
0000
0000
0000
0000
0000
0000
0000
0000
0000
,
1000
0000
0000
0000
,
0001
0000
0000
0000
,
0100
0001
0100
1000
0100
0001
0001
0001
,
1000
0000
0100
0010
0100
0000
0010
0100
,
0000
0000
1000
0000
0001
1000
0001
0010
,
0100
0000
1000
0000
0001
0100
0001
0010
,
0000
0000
0100
0000
1000
0001
1000
0001
,
0010
0000
0001
1000
0001
0000
1000
0001
,
0000
0000
0000
0000
0010
0000
0100
1000
,
0001
0000
1000
0000
0001
0000
0000
1000
,
1000
0001
0001
0100
0100
0010
0010
0010
,
1000
0000
0001
0010
0001
0000
1000
0100
,
0000
0000
0100
0000
1000
0001
1000
0000
,
0001
0100
0010
1000
0000
0000
1000
0000
,
0010
0000
0100
0001
1000
0000
0100
1000
,
0100
0000
0010
0001
0010
0000
0001
1000
,
0000
0000
0000
0000
1000
0000
0001
1000
,
0010
0000
0100
0010
0100
0000
0001
1000
,
0110
0000
0000
0000
;

//---------------dance-single - ----------------
#NOTES:
     dance-single:
     :
     Easy:
     4:
     0.240,0.323,0.228,0.000,0.000:
0000
0000
0000
0000
,
0000
0000
0000
0000
,
0000
0000
0000
0000
,
0000
0000
0000
0000
,
1000
0100
0010
0001
,
1000
1000
0001
0001
,
1000
0100
0010
0001
,
0100
0100
0010
0010
,
0000
1000
0000
0001
,
0000
0010
0000
0100
,
0000
1000
0000
0001
,
0000
0100
0000
0010
,
0000
1000
0010
1000
,
0000
0100
0000
1000
,
0000
0010
0100
0001
,
0000
1000
0000
0001
,
1000
0010
0000
0100
,
0000
0001
0000
0010
,
0000
0100
0000
1000
,
0000
0001
0000
1000
,
0000
0010
0000
0100
,
0000
0001
0000
1000
,
0001
0010
0000
0100
,
0000
1000
0001
1000
,
1001
1001
1100
1100
,
1000
0001
0001
1000
,
1001
1001
0101
0101
,
0001
1000
1000
0001
,
0011
0011
1001
1001
,
1000
0001
0001
1000
,
1010
1010
1001
1001
,
0001
1000
0000
0000
,
0100
0000
0000
0000
,
0010
0000
0000
0000
,
0001
0000
0000
0000
,
1000
0001
1000
0000
,
0001
1000
0100
0000
,
1000
0001
1000
0000
,
0001
1000
0100
0000
,
0110
0100
0010
0000
,
0110
0010
0100
0000
,
0101
0010
0100
0000
,
1100
0010
0100
0001
,
1001
0010
1001
0100
,
0001
0100
0010
1000
,
0001
0000
1000
0100
,
0010
0001
0100
1000
,
0110
0001
0110
1000
,
0001
1000
0100
0010
,
0001
0000
1000
0000
,
1001
0000
0000
0000
,
0001
0100
1000
0000
,
1000
0100
0001
1000
,
0001
0010
1000
0000
,
1000
0010
0100
0000
,
1000
0100
0001
0000
,
0001
0100
1000
0001
,
1000
0010
0001
0000
,
0001
0010
1000
0001
,
1000
0000
0100
0000
,
0010
0010
0001
0001
,
1000
0000
0010
0000
,
0100
0100
0001
0001
,
1000
0100
0001
0100
,
1000
1000
0001
0001
,
1000
0010
0001
0010
,
1000
1000
0001
0001
,
0000
1000
0100
1000
,
0000
0001
0100
0001
,
0000
1000
0010
1000
,
0000
0001
0010
0001
,
0000
1000
0010
0100
,
0000
0001
0010
0100
,
0000
1000
0100
0010
,
0000
0001
0100
0010
,
1010
1100
0011
0101
,
0001
1000
0100
0010
,
0011
0101
1100
1010
,
1000
0001
0100
0010
,
1010
1001
0101
1001
,
1000
0001
0010
0100
,
1100
1001
0011
1001
,
1000
0010
0000
0010
,
0100
0001
0000
0001
,
1000
0100
0000
0100
,
0010
0001
0000
0001
0000
0000
0001
0000
,
1001
0100
1001
0010
,
1000
0100
0001
0010
,
1000
0001
1000
0100
,
0010
0100
1000
0010
,
0110
0001
0110
1000
,
0001
1000
0100
0010
,
0001
1000
0010
0100
,
0001
0010
1000
0100
,
0101
1000
1100
0001
,
0100
0010
1000
0001
,
1000
0001
1000
0100
,
0010
0100
1000
0010
,
1010
0001
0011
1000
,
0010
0100
0001
0010
,
0100
1000
0001
1000
,
1001
0000
0000
0000
;

//---------------dance-double - ----------------
#NOTES:
     dance-double:
     :
     Easy:
     3:
     0.186,0.208,0.009,0.000,0.000: // measure 1
00000000
00000000
00000000
00000000
,  // measure 2
00000000
00000000
00000000
00000000
,  // measure 3
00000000
00000000
00000000
00000000
,  // measure 4
00000000
00000000
00000000
00000000
,  // measure 5
10000000
01000000
00010000
01000000
,  // measure 6
10000000
00000000
00010000
00000000
,  // measure 7
10000000
00100000
00010000
00100000
,  // measure 8
10000000
10000000
00010000
00010000
,  // measure 9
00000000
01000000
00000000
00001000
,  // measure 10
00000000
00010000
00000000
00000100
,  // measure 11
00000000
00001000
00000000
00000001
,  // measure 12
00000000
00000100
00000000
00001000
,  // measure 13
00000000
00010000
00000000
01000000
,  // measure 14
00000000
10000000
00000000
00010000
,  // measure 15
00000000
10000000
00000000
01000000
,  // measure 16
00000000
00010000
00001000
00010000
,  // measure 17
00000000
00001000
00000000
00000100
,  // measure 18
00000000
00000010
00000000
00001000
,  // measure 19
00000000
00000100
00000000
00000010
,  // measure 20
00000000
00000001
00000000
00000100
,  // measure 21
00000000
00000010
00000000
00010000
,  // measure 22
00000000
00001000
00000000
01000000
,  // measure 23
00010000
10000000
00000000
01000000
,  // measure 24
00000000
00100000
00001000
00010000
,  // measure 25
00001000
00000100
00000001
00000100
,  // measure 26
00001000
00010000
00001000
00010000
,  // measure 27
00001000
00000100
00000001
00000100
,  // measure 28
00001000
00010000
00001000
00001000
,  // measure 29
00010000
01000000
10000000
01000000
,  // measure 30
00010000
00001000
00010000
00001000
,  // measure 31
00010000
01000000
10000000
01000000
,  // measure 32
00010000
00001000
00000000
00001000
,  // measure 33
00000100
00000001
00000000
00000001
,  // measure 34
00000100
00001000
00000000
00010000
,  // measure 35
01000000
10000000
00000000
10000000
,  // measure 36
01000000
00000000
00010000
00000000
,  // measure 37
00001000
00000000
00000100
00000000
,  // measure 38
00000100
00000000
00001000
00000000
,  // measure 39
00010000
00000000
01000000
00000000
,  // measure 40
01000000
00010000
00001000
00000000
,  // measure 41
00000100
00001000
00010000
00000000
,  // measure 42
00100000
00010000
00001000
00000000
,  // measure 43
00000010
00001000
00010000
00010000
,  // measure 44
00001000
01000000
00010000
10000000
,  // measure 45
00000000
00000000
10000000
01000000
,  // measure 46
00100000
00000000
00100000
00001000
,  // measure 47
00010000
00000100
00001000
00000001
,  // measure 48
00000100
00000010
00000100
00000001
,  // measure 49
00000000
00000000
00001000
00000001
,  // measure 50
00000100
00000010
00010000
00001000
,  // measure 51
00011000
00000000
00000000
00000000
,  // measure 52
00010000
00001000
01000000
00000000
,  // measure 53
00010000
10000000
00010000
00000000
,  // measure 54
00010000
01000000
00001000
00000000
,  // measure 55
00010000
00000000
00000000
00000000
,  // measure 56
00001000
00010000
00000100
00000000
,  // measure 57
00001000
00000100
00010000
00000000
,  // measure 58
00001000
00010000
00001000
00000000
,  // measure 59
00100000
00010000
10000000
00000000
,  // measure 60
10000000
00000000
01000000
00000000
,  // measure 61
00010000
00000000
00010000
00000000
,  // measure 62
00001000
00000000
00000100
00000000
,  // measure 63
00000001
00000001
00001000
00001000
,  // measure 64
00000001
00000100
00000001
00000100
,  // measure 65
00000010
00000010
00010000
00010000
,  // measure 66
01000000
10000000
01000000
10000000
,  // measure 67
00100000
00100000
01000000
01000000
,  // measure 68
00000000
00010000
00000000
10000000
,  // measure 69
00000000
01000000
00000000
00010000
,  // measure 70
00000000
00001000
00000000
00000100
,  // measure 71
00000000
00000001
00000100
00000100
,  // measure 72
00000000
00000010
00000000
00000100
,  // measure 73
00000000
00001000
00010000
01000000
,  // measure 74
00010000
00001000
00000000
00010000
,  // measure 75
00000000
01000000
00000000
10000000
,  // measure 76
00100000
00010000
00001000
00000100
,  // measure 77
00000001
00000000
00001000
00000000
,  // measure 78
00000001
00000010
00001000
00010000
,  // measure 79
01000000
00000000
10000000
00000000
,  // measure 80
00010000
00100000
01000000
00010000
,  // measure 81
00001000
00000000
00010000
00000000
,  // measure 82
00000010
00000100
00001000
01000000
,  // measure 83
00010000
10000000
00000000
10000000
,  // measure 84
01000000
00100000
00000000
00100000
,  // measure 85
00001000
00010000
00000000
00010000
,  // measure 86
00000000
00001000
00000000
00010000
00000000
00000000
00001000
00000000
,  // measure 87
00010000
00000100
00001000
00000100
,  // measure 88
00000000
00000000
00000010
00000001
,  // measure 89
00001000
00000000
00001000
00000010
,  // measure 90
00010000
00001000
00100000
00010000
,  // measure 91
10000000
01000000
00100000
01000000
,  // measure 92
00000000
00000000
10000000
01000000
,  // measure 93
00010000
00000000
00000000
00000000
,  // measure 94
00001000
00010000
00000100
00001000
,  // measure 95
00000001
00000100
00001000
00000100
,  // measure 96
00000000
00000000
00000001
00001000
,  // measure 97
00000100
00000000
00010000
00001000
,  // measure 98
00100000
00010000
10000000
00100000
,  // measure 99
01000000
00010000
01000000
10000000
,  // measure 100
00000000
00000000
01000000
00001000
,  // measure 101
00010000
00000100
00010000
00001000
,  // measure 102
00011000
00000000
00000000
00000000
;

//---------------dance-double - ----------------
#NOTES:
     dance-double:
     :
     Medium:
     6:
     0.300,0.300,0.114,0.000,0.034: // measure 1
00000000
00000000
00000000
00000000
,  // measure 2
00000000
00000000
00000000
00000000
,  // measure 3
00000000
00000000
00000000
00000000
,  // measure 4
00000000
00000000
00000000
00000000
,  // measure 5
10000000
00000000
01000000
00000000
00010000
00000000
00001000
00000100
,  // measure 6
00000001
00000001
00001000
00001000
,  // measure 7
00000001
00000000
00000100
00000000
00001000
00000000
00010000
01000000
,  // measure 8
10000000
10000000
10000000
00000000
00010000
00010000
00010000
00000000
,  // measure 9
10000000
00000000
01000000
00100000
00001000
00000000
00000000
00000000
,  // measure 10
00010000
00001000
00010000
00000000
00001000
00010000
00001000
00000000
,  // measure 11
00010000
00000000
00000100
00001000
00000010
00000000
00000100
00000001
,  // measure 12
00000010
00001000
00010000
01000000
,  // measure 13
10000000
00000000
01000000
00010000
00001000
00000000
00000000
00010000
,  // measure 14
00001000
00000100
00001000
00000000
00010000
01000000
00010000
00000000
,  // measure 15
00001000
00000000
00010000
00000100
00001000
00000000
00000001
00000000
,  // measure 16
00001000
00000000
00000010
00000100
00000001
00000000
00001000
00000000
,  // measure 17
00000001
00000000
00000100
00000010
00010000
00001000
00000000
00100000
,  // measure 18
00010000
10000000
00000000
00000000
00010000
00000000
10000000
01000000
,  // measure 19
10000000
00000000
00100000
01000000
00001000
00010000
00001000
00000000
,  // measure 20
00010000
00011000
00001000
00011000
,  // measure 21
00010000
00000000
00000100
00001000
00000001
00000000
00000000
00000000
,  // measure 22
00000100
00001000
00010000
01000000
,  // measure 23
10000000
00000000
01000000
00100000
00001000
00000000
00000000
00000000
,  // measure 24
00010000
00000000
00000000
00000000
00000100
00000000
00000000
00000000
00000001
00000000
00000000
00000100
00000000
00000000
00010000
00000000
,  // measure 25
00001000
00011000
00010000
00011000
,  // measure 26
00001000
00000000
00000000
00001000
00000000
00000000
00000000
00000000
00010000
00000000
00000000
00010000
00000000
00000000
00000000
00000000
,  // measure 27
00011000
00001000
00011000
00010000
,  // measure 28
00001000
00000000
00000000
00001000
00000000
00000000
00000000
00000000
00010000
00000000
00000000
00010000
00000000
00000000
00001000
00000000
,  // measure 29
00001000
00011000
00010000
00011000
,  // measure 30
00010000
00000000
00000000
00001000
00000000
00000000
00000000
00000000
00001000
00000000
00000000
00010000
00000000
00000000
00000000
00000000
,  // measure 31
00001000
00011000
00010000
00011000
,  // measure 32
00010000
00000000
00000000
00000010
00000000
00000000
00000000
00000000
00000000
00000000
00000000
00000000
00000000
00000000
00000000
00000000
,  // measure 33
00001000
00000000
00000000
00000000
,  // measure 34
00000001
00000000
00000000
00000000
,  // measure 35
00000100
00000000
00000000
00000000
00001000
00001000
00001000
00001000
,  // measure 36
00001000
00000000
00000000
00010000
,  // measure 37
01000000
00000000
00000000
10000000
,  // measure 38
01000000
00000000
00000000
00010000
,  // measure 39
00001000
00000000
00000000
00000100
,  // measure 40
00000001
00000000
00000100
00001000
00010000
00000000
01000000
00000000
,  // measure 41
10000000
00000000
01000000
00010000
00001000
00000000
00000100
00000000
,  // measure 42
00000001
00000000
00000100
00001000
00010000
00000000
01000000
00000000
,  // measure 43
10000000
00000000
01000000
00010000
00001000
00010000
00001000
00010000
,  // measure 44
00000010
00001001
00000001
00000100
,  // measure 45
00001000
00000000
00010000
00000000
01000000
10000000
00010000
00000000
,  // measure 46
10000000
00000000
01000000
00000000
10000000
01000000
10000000
00010000
,  // measure 47
00000000
10000000
01000000
00010000
,  // measure 48
00001000
00011000
00000100
00001000
,  // measure 49
00000000
00000000
00000000
00000000
00000001
00000000
00000100
00000010
,  // measure 50
00000100
00000000
00000001
00000000
00001000
00000100
00010000
00000000
,  // measure 51
00011000
00000000
00000000
00000000
,  // measure 52
00010000
00000000
00001000
01000000
10000000
00000000
01000000
00000000
,  // measure 53
00001000
00000000
00010000
00000010
00000100
00000010
00001000
00000000
,  // measure 54
00000001
00000000
00000100
00001000
00010000
00001000
00010000
00000000
,  // measure 55
00001000
01000000
00100000
00000000
,  // measure 56
01000000
00000000
00010000
00001000
00000100
00000000
00000000
00000000
,  // measure 57
00000010
00000000
00000001
00000000
00000100
00000010
00010000
00000000
,  // measure 58
00001000
00000000
00100000
01000000
10000000
00000000
00000000
00000000
,  // measure 59
10000000
01000000
00010000
00000000
01000000
00000000
00000000
00000000
,  // measure 60
10000000
00000000
01000000
00000000
00100000
00000000
00001000
00010000
,  // measure 61
00001000
00001000
00010000
00010000
,  // measure 62
00000100
00001000
00000010
00000100
,  // measure 63
00000001
00000001
00000001
00000000
00001001
00000000
00001001
00000000
,  // measure 64
00000001
00000000
00000100
00000000
00001000
00000000
00010000
00001000
,  // measure 65
00010000
00010000
00001000
00001000
,  // measure 66
01000000
00000000
00010000
00000000
10000000
00000000
00010000
10000000
,  // measure 67
00010000
00010000
00010000
00000000
10000000
10000000
10000000
00000000
,  // measure 68
10000000
00000000
01000000
00100000
00000000
00001000
00010000
00000100
,  // measure 69
00001000
00000001
00000100
00000010
,  // measure 70
00000000
00000000
00010000
00001000
00010000
00000000
00001000
00010000
,  // measure 71
00001000
01000000
00010000
10000000
,  // measure 72
10010000
10000000
01000000
00000000
,  // measure 73
00100000
00001000
00010000
00000000
00000100
00010000
00001000
00010000
,  // measure 74
00000100
00000010
00000100
00001000
,  // measure 75
00000001
00000000
00001000
00000001
00001000
00000000
00001000
00000000
,  // measure 76
00001010
00010000
00011000
00100000
,  // measure 77
00010000
00000000
00000000
10000000
00000000
00000000
00000000
00000000
10000000
00000000
00000000
00010000
00000000
00000000
00000000
00000000
,  // measure 78
00110000
00001000
00011000
00000010
,  // measure 79
00001000
00000000
00000000
00000001
00000000
00000000
00000000
00000000
00000001
00000000
00000000
00001000
00000000
00000000
00000010
00000000
,  // measure 80
00001010
00010000
00011000
01000000
,  // measure 81
00010000
00000000
00000000
10000000
00000000
00000000
00000000
00000000
10000000
00000000
00000000
00010000
00000000
00000000
00000000
00000000
,  // measure 82
01010000
00001000
00011000
00000010
,  // measure 83
00001000
00000000
00000000
00000010
00000000
00000000
00000000
00000000
00000000
00000000
00000000
00000000
00000010
00000000
00000000
00000000
,  // measure 84
00000100
00000001
00000000
00000001
,  // measure 85
00001000
00000100
00000000
00000100
,  // measure 86
00010000
00001000
00010000
00001000
00010000
00001000
00001000
00001000
,  // measure 87
00100000
00000000
00010000
10000000
00010000
00000000
10000000
00010000
,  // measure 88
00000000
00000000
00000000
00000000
10000000
00000000
01000000
00100000
,  // measure 89
00001000
00000000
00010000
00000000
00000100
00000000
00001000
00000010
,  // measure 90
00000000
00000000
00000100
00000000
00000001
00000000
00001000
00000001
,  // measure 91
00000010
00000000
00000001
00001000
00000001
00000000
00001000
00000001
,  // measure 92
00000000
00000000
00000000
00000000
00000100
00000000
00001000
00010000
,  // measure 93
00001000
00000000
00100000
00000000
00010000
00000000
00000000
10000000
,  // measure 94
00010000
01000000
00001000
00010000
00000100
00001000
00001000
00001000
,  // measure 95
00000001
00000000
00001000
00000100
00001000
00000000
00000100
00010000
,  // measure 96
00000000
00000000
00001000
00000000
00100000
00000000
00010000
10000000
,  // measure 97
00100000
00000000
00000000
00000000
10000000
00000000
01000000
00100000
,  // measure 98
00000000
00000000
00001000
00010000
00000100
00000000
00000100
00001000
,  // measure 99
00000001
00000000
00000100
00000001
00000100
00000000
00001000
00010000
,  // measure 100
00000000
00000000
01000000
00000000
10000000
00000000
01000000
00010000
,  // measure 101
00001000
00010000
00001000
00001000
00010000
00001000
00010000
00001000
,  // measure 102
00011000
00000000
00000000
00000000
;

//---------------dance-double - ----------------
#NOTES:
     dance-double:
     :
     Hard:
     7:
     0.467,0.485,0.407,0.000,0.178:
00000000
00000000
00000000
00000000
,
00000000
00000000
00000000
00000000
,
00000000
00000000
00000000
00000000
,
00000000
00000000
00000000
00000000
,
10000000
01000000
00010000
01000000
10000000
01000000
00010000
00001000
,
00011000
00000000
00011000
00000000
00001100
00000000
00001100
00001000
,
00000001
00000100
00001000
00000100
00000001
00000100
00001000
00000100
,
00000001
00000001
00000001
00000000
00001000
00001000
00001000
00000100
,
00001000
00000010
00000100
00000001
00001000
00000000
00000100
00010000
,
00001000
00000000
01000000
00000000
00100000
00000000
10000000
00000000
00010000
00000000
10000000
00000000
01000000
00000000
00000000
00010000
,
00000000
00001000
00010000
00000010
00001000
00000001
00000010
00000100
,
00010000
00000000
00001000
00000000
01000000
00000000
00100000
00000000
10000000
00000000
00000000
00010000
00000000
00000000
10000000
00000000
,
00010000
00001000
00000100
00000010
00000001
00001000
00000001
00000100
,
00000010
00001000
00010000
00000000
01000000
00010000
00001000
00000010
,
00000100
00000001
00000010
00001000
00010000
01000000
10000000
00100000
,
01000000
00001000
00010000
00000100
00001000
00000100
00010000
00001000
,
01000000
00100000
10000000
01000000
00010000
00001000
00010000
01000000
,
10000000
00100000
00010000
00001000
00010000
00100000
10000000
00010000
,
10010000
00000000
10000000
01000000
00100000
00001000
00010000
00001000
,
00000100
00000010
00000100
00001000
00010000
00001000
00000100
00000001
,
00001000
00000001
00000100
00000100
00000010
00000000
00010000
00001000
,
00100000
00000000
00010000
00000000
00100000
00000000
01000000
00000000
10000000
00000000
00000000
00010000
00000000
00000000
10000000
00000000
,
00100000
01000000
00001000
00010000
00000100
00000010
00000000
00000000
,
00000001
00000000
00000100
00000000
00000010
00000000
00010000
00000000
00001000
00000000
00010000
00001000
00000000
00010000
00001000
00000000
,
00011000
00110000
10100000
11000000
,
10000000
01000000
10000000
01000000
00000000
00000000
00000000
00000000
00010000
01000000
00010000
01000000
00000000
00000000
00000000
00000000
,
11000000
00110000
00011000
00001010
,
00001000
00000100
00001000
00000100
00000000
00000000
00000000
00000000
00000001
00000100
00000001
00000100
00000000
00000000
00001100
00000000
,
00001100
00011000
00110000
10100000
,
10000000
00100000
01000000
00100000
00000000
00000000
00000000
00000000
01000000
00100000
01000000
00010000
00000000
00000000
00000000
00000000
,
00110000
00011000
00001010
00001100
,
00001000
00000100
00000010
00000100
00000000
00000000
00000000
00000000
00000000
00000000
00000000
00000000
00011000
00000000
00000000
00000000
,
01000000
01010000
00000000
11000000
,
10000000
01010000
00000000
01010000
,
01000000
00010000
00001000
00010000
01000000
01000000
00010000
00010000
,
00001000
00000000
00000100
00000000
00000010
00000000
00000001
00001000
00000000
00000000
00000000
00000000
00001001
00000000
00000000
00000000
,
00001000
00000000
00000010
00000000
00000100
00000001
00000000
00001000
00000000
00000000
00000000
00000000
00001001
00000000
00000000
00000000
,
00001000
00000000
00000100
00000000
00000010
00000000
00000001
00001000
00000000
00000000
00000000
00000000
00001001
00000000
00000000
00000000
,
00000001
00000000
00000100
00000000
00000010
00001000
00000000
00000001
00000000
00000000
00010000
00000000
00011000
00000000
00000000
00000000
,
10000000
00000000
01000000
00000000
00100000
00000000
00010000
10000000
00000000
00000000
00000000
00000000
10010000
00000000
00000000
00000000
,
00010000
00000000
01000000
00000000
00100000
10000000
00000000
00010000
00000000
00000000
00000000
00000000
10010000
00000000
00000000
00000000
,
10000000
00000000
01000000
00000000
00100000
00000000
00010000
10000000
00000000
00000000
00000000
00000000
10010000
00000000
00000000
00000000
,
10000000
00000000
01000000
00000000
00100000
00001000
00000000
00010000
00001000
00000000
00001000
00000000
00010000
00000000
00010000
00000000
,
00011000
00000000
00010000
00000100
00001100
00000000
00001000
00000001
,
00000100
00000000
00000010
00000000
00000000
00000010
00000000
00000000
00000010
00001000
00000000
00000000
00000001
00000000
00001000
00000010
,
00000000
00000001
00000000
00000000
00000000
00000000
00000000
00000000
00000001
00000000
00000010
00000000
00010000
00000000
00001000
00000000
,
00000000
00010000
01000000
10000000
01000000
00010000
00001000
00000100
,
00000101
00000000
00000100
00000010
00011000
00000000
00100000
00010000
,
10000000
00000000
00100000
00000000
00000000
00100000
00000000
00000000
00100000
10000000
00000000
00000000
00010000
00000000
10000000
00100000
,
00000000
00010000
00000000
00000000
00001000
00010000
00001000
00010000
00001000
00000000
00001000
00000000
00011000
00000000
00011000
00000000
,
00000100
00000000
00000000
00000000
,
00001000
00000001
00000100
00000010
00001000
00000000
00000001
00000000
,
00001000
00000001
00000100
00001000
00010000
01000000
10000000
00000000
,
10000000
01000000
00100000
00010000
10000000
00000000
00000000
00000000
,
10000000
01000000
00010000
00001000
00000001
00000100
00001000
00000001
,
00001000
00000001
00000100
00000010
00001000
00000000
00000001
00000000
,
00001000
00000000
00000001
00000100
00001000
00010000
00100000
10000000
,
00010000
10000000
00100000
01000000
00010000
00010000
00010000
10000000
,
01000000
00100000
00001000
00010000
00000100
00001000
00000100
00000000
,
00000010
00000001
00000100
00001000
,
00000010
00000010
00001000
00001000
,
00010000
01000000
10000000
00100000
,
01000000
01000000
01000000
00000000
01100000
00000000
10010000
00010000
,
10000000
01000000
00010000
01000000
10000000
00100000
00010000
00001000
,
00001100
00000000
00001100
00000000
00000101
00000000
00000101
00000100
,
00000001
00000100
00001000
00000100
00000001
00000010
00001000
00010000
,
00011000
00011000
00011000
00000000
10010000
10010000
10010000
00000000
,
10000000
01000000
00100000
00001000
00000000
00010000
00001000
00010000
,
00000100
00000000
00001000
00000000
00000010
00000000
00000100
00000000
00000001
00000000
00000000
00001000
00000000
00000000
00000001
00000000
,
00000000
00000100
00000010
00010000
00011000
00001000
01000000
00100000
,
10000000
00000000
00000000
10000000
00000000
00000000
00000000
00000000
01000000
00000000
00000000
00000000
10000000
00000000
00000000
00010000
,
00000000
10000000
01000000
00100000
00001000
00000000
00000000
00010000
,
00001000
00000100
00001000
00010000
01000000
00010000
00001000
00010000
,
00000000
00000000
00010000
00000100
00001000
00000010
00000100
00000001
,
00000100
00000001
00000100
00000000
00000010
00000000
00010000
00000000
00001000
00000000
00000000
01000000
00000000
00000000
00010000
00000000
,
10010000
00011000
00001001
00011000
,
00010000
00001000
00010000
00001000
00000000
00000000
00000000
00000000
00010000
00001000
00010000
00001000
00000000
00000000
00000000
00000000
,
00011000
10010000
00011000
00001001
,
00001000
00000001
00001000
00000001
00000000
00000000
00000000
00000000
00001000
00000001
00001000
00000001
00000000
00000000
00001001
00000000
,
00001001
00011000
10010000
00011000
,
00001000
00100000
00010000
00100000
00000000
00000000
00000000
00000000
00100000
00001000
00010000
00001000
00000000
00000000
00000000
00000000
,
00011000
00001001
00011000
10010000
,
10000000
00010000
10000000
00010000
00000000
00000000
00000000
00000000
01000000
00000000
00000000
00000000
01001000
00000000
00000000
00000000
,
00001000
00011000
00010000
00010100
,
00000100
00001100
00001000
00001001
,
00000001
00001001
00001000
00001100
00010000
00011000
00011000
00011000
,
00101000
00000000
00100000
00010000
10010000
00000000
10000000
00100000
,
01000000
00000000
00001000
00000000
00000000
00001000
00000000
00000000
00010000
00001000
00000000
00000000
00010000
00000000
00001000
00010000
,
00000000
00000100
00000000
00000000
00000100
00000000
00000000
00000000
00000100
00000000
00001000
00000000
00000100
00000000
00000010
00000000
,
00000000
00000010
00000001
00000100
00001000
00010000
00100000
10000000
,
10010000
00000000
10000000
00010000
01010000
00000000
01000000
00001000
,
00010000
00000000
00000010
00000000
00000000
00000010
00000000
00000000
00001000
00000010
00000000
00000000
00001000
00000000
00000010
00000100
,
00000000
00000001
00000000
00000000
00001000
00000000
00000000
00000000
00001000
00000000
00000000
00000000
00000000
00000000
00000000
00000000
,
00000001
00000100
00001000
00010000
01000000
10000000
10000000
10000000
,
10100000
00000000
10000000
00010000
01010000
00000000
01000000
00001000
,
00000000
00000000
00010000
00000000
00000000
00010000
00000000
00000000
00001000
00010000
00000000
00000000
00000100
00000000
00001000
00000001
,
00000000
00000010
00000000
00000000
00000000
00000000
00000000
00000000
00000001
00000000
00000100
00000000
00000010
00000000
00001000
00000000
,
00000000
00001000
00000001
00001000
00000100
00000001
00000100
00010000
,
00011000
00000000
00001000
01000000
01010000
00000000
00010000
10000000
,
01000000
00000000
00100000
00000000
00000000
00100000
00000000
00000000
00010000
10000000
00000000
00000000
00100000
00000000
01000000
00001000
,
00000000
00000000
00010000
00000000
00001000
00010000
00001000
00010000
00001000
00000000
00010000
00000000
00010000
00001000
00010000
00000000
,
00011000
00000000
00000000
00000000
;
