#TITLE:Smooth Criminal;
#SUBTITLE:;
#ARTIST:Haywyre;
#TITLETRANSLIT:;
#SUBTITLETRANSLIT:;
#ARTISTTRANSLIT:;
#GENRE:EDM;
#CREDIT:;
#BANNER:Haywyre_Smooth_Criminal.png;
#BACKGROUND:Smooth_Criminal_Background.png;
#LYRICSPATH:;
#CDTITLE:;
#MUSIC:Smooth_Criminal.ogg;
#OFFSET:0.162000;
#SAMPLESTART:164.146561;
#SAMPLELENGTH:12.000000;
#SELECTABLE:YES;
#DISPLAYBPM:130.000000;
#BPMS:0.000000=130.000000
,358.000000=190.000000
,358.750000=65.000000
,359.000000=130.000000
,415.000000=260.000000
,418.000000=130.000000
;
#STOPS:415.000000=0.115000,
415.500000=1.038000,
416.000000=0.115000,
416.500000=1.038000,
417.000000=0.115000,
417.500000=0.115000
;
#BGCHANGES:;
#KEYSOUNDS:;
#ATTACKS:;

//---------------dance-single - ----------------
#NOTES:
     dance-single:
     :
     Challenge:
     11:
     0.684757,0.931544,0.289897,0.259908,0.749734,959.000000,899.000000,58.000000,52.000000,40.000000,1.000000,0.684757,0.931544,0.289897,0.259908,0.749734,959.000000,899.000000,58.000000,52.000000,40.000000,1.000000:
// measure 0
0000
0000
0000
0000
0000
M000
000M
0000
,  // measure 1
0M00
00M0
0M00
0000
000M
0000
0000
0000
0000
0000
0000
0000
0000
0000
0000
0000
,  // measure 2
0000
0000
0000
0000
,  // measure 3
0000
0000
0001
0010
0001
0010
0001
0100
0010
0100
0010
1000
0010
1000
0001
0010
,  // measure 4
0100
1000
0010
1000
0001
0100
0001
0100
0001
0010
0100
1000
0001
0100
0001
1000
,  // measure 5
0100
0000
0000
0010
0000
0000
0002
0000
0000
0000
0000
0000
0000
0000
0000
0000
0000
0000
0000
0000
0000
0000
0000
0000
1003
0000
0000
0000
0000
0000
0010
0000
0000
0100
0000
0000
0001
0000
0100
0000
0001
0000
1000
0000
0000
0000
0000
0000
,  // measure 6
0001
0000
0010
0000
0200
0000
0000
0000
1300
0000
0100
0010
0100
1000
0100
0010
,  // measure 7
0001
1000
0020
0000
0000
0000
0130
0000
0010
0000
0002
0000
0000
0000
0013
0000
,  // measure 8
0100
0000
0002
0000
0000
0000
1003
0000
0100
0000
0002
0000
0000
0000
0103
0010
,  // measure 9
0001
1000
0002
0000
0000
0000
0103
0010
1000
0001
0010
0000
0020
0000
0000
0000
,  // measure 10
0031
0000
1000
0000
0001
1000
0010
1000
0001
0100
0001
0000
0020
0000
0000
0000
,  // measure 11
0030
0000
1100
0000
0000
0000
0001
1000
0010
0000
1020
0000
0000
0030
1000
0100
,  // measure 12
0010
0000
0012
0000
0000
0000
1003
0010
1000
0001
0010
0001
2000
0000
0000
0000
,  // measure 13
3001
0000
0100
0010
2000
0000
0000
0000
0000
0000
0000
0000
0000
0000
3001
0010
,  // measure 14
0M10
1000
0010
0M10
0001
1000
0001
0000
0200
0000
0000
0000
0301
0010
0100
0010
,  // measure 15
0001
0100
0001
1000
0010
0100
0001
0100
0010
1000
0001
1000
0100
0010
0100
1000
,  // measure 16
0001
0100
0002
0000
0000
0000
0000
0000
0000
0000
0000
0000
0000
0000
0000
0000
,  // measure 17
0003
1001
0000
0000
0001
0010
0001
0100
,  // measure 18
0000
0000
0000
0110
0000
0000
0000
0000
0000
0000
0000
0000
1000
0000
0000
0001
0000
0000
0010
0100
0010
0100
0000
0000
,  // measure 19
0000
0011
0000
0000
0001
0100
0010
1000
,  // measure 20
0000
1100
0001
0100
0001
0010
0100
0000
,  // measure 21
0010
0001
2000
0000
0000
0000
0000
0000
3010
0000
1000
0000
0001
0000
0010
0000
,  // measure 22
0000
0101
0000
0000
1000
0100
0010
0100
,  // measure 23
0000
0000
1000
0000
0001
1000
0001
1000
0100
0010
0001
1000
0010
1000
0001
0100
,  // measure 24
0001
0000
0000
0010
0000
0000
0100
0000
1000
0000
0010
0000
1000
0000
0000
0000
0000
0000
0000
0000
0000
0000
0000
0000
0000
0000
0000
0000
0000
0000
1000
0000
0100
0000
0010
0000
0001
0000
0000
0000
0000
0000
0100
0000
0000
0001
0000
0000
,  // measure 25
0000
0100
0001
0010
0002
0000
0000
0000
0013
0000
0100
0000
1100
0000
0000
0000
,  // measure 26
0101
0100
0010
0100
0001
0000
1010
0002
,  // measure 27
0023
0032
0103
0010
1000
0001
0011
0010
,  // measure 28
0102
0000
0000
0000
0000
0000
1003
0000
0100
0000
0000
0100
1000
0000
0001
0000
,  // measure 29
0100
0010
2000
0000
0000
0100
0001
3000
,  // measure 30
0001
1000
0001
1000
0010
0100
0110
0100
,  // measure 31
0001
1000
0200
0000
1300
0001
1002
0003
,  // measure 32
0120
0000
0130
0100
0001
0000
1100
0000
,  // measure 33
0001
1000
0001
1000
0010
0100
0010
1000
0100
1000
0001
0100
0001
0010
0100
0010
,  // measure 34
0001
0000
0000
0001
1000
0000
1001
0041
,  // measure 35
0000
0000
0030
0000
M001
M010
M001
M100
M010
M100
M001
M010
M100
M010
M001
M100
,  // measure 36
M020
0000
0000
1000
2030
0000
3100
1000
,  // measure 37
0010
0000
0100
0000
0001
1000
010M
100M
001M
010M
001M
100M
010M
001M
010M
100M
,  // measure 38
004M
0000
0000
0000
0000
0030
1000
0000
0001
0000
0000
0000
0010
0000
0100
0000
,  // measure 39
0001
0100
1000
0000
0000
0000
1100
0110
,  // measure 40
0011
0000
1001
0000
,  // measure 41
0000
0000
0000
0000
0001
0100
0010
1000
0100
0010
0100
0000
1000
0000
0000
0000
,  // measure 42
0001
0000
0000
0000
0000
0000
0000
0000
0000
0000
0000
0000
0000
0000
0000
0000
0000
0000
0000
0000
0000
0000
0000
0000
0000
0000
0000
0000
0000
0000
1000
0100
0000
0000
0000
0000
0010
0000
0000
0000
0000
0000
0001
0000
0000
0000
0000
0000
,  // measure 43
0100
0010
2000
0000
3100
0000
0010
0000
,  // measure 44
0100
0000
0000
0000
0000
0000
0000
0000
0000
0000
0000
0000
1000
0000
0000
0010
0000
0000
1000
0000
0000
0001
0000
0000
0010
0000
0000
0001
0000
0000
0100
0000
0000
0001
0000
0000
1000
0000
0100
0000
1000
0000
0001
0000
0100
0000
0001
0000
,  // measure 45
1000
0000
0000
0100
0000
0000
1000
0100
0010
0001
1000
0001
1000
0001
0010
0001
1000
0100
1000
0000
0000
0001
0000
0000
,  // measure 46
0100
0000
0000
0010
0000
0000
0100
0000
0000
0010
0000
0000
0100
0000
0000
0001
0000
0000
1000
0000
0000
0100
0000
0000
1000
0000
0000
0010
0000
0000
0100
0000
0000
0001
0000
0000
0010
0000
0001
0000
0010
0000
0001
0000
0000
0000
0000
0000
,  // measure 47
0000
0000
1000
0010
1000
0000
0100
0000
0010
0010
0001
0100
0010
0000
1000
0000
,  // measure 48
0001
0000
0002
0000
0000
0000
0000
0000
0000
0000
1000
0000
0000
0000
1003
0001
,  // measure 49
0100
0010
0100
0001
0020
0000
0000
0000
0000
0000
0000
0000
0031
0000
0000
0000
,  // measure 50
1100
0000
0000
0000
0000
0000
0000
0000
0000
0000
0000
0000
1000
0100
0010
0001
1000
0100
1000
0001
0010
0001
0010
0100
,  // measure 51
1000
0000
0100
0000
1000
0000
0001
0000
0100
0000
0001
0000
1000
0000
0000
0000
0000
0000
0000
0000
0000
0000
0000
0000
0001
0000
0000
0000
0000
0000
0000
0000
0000
0000
0000
0000
0001
0000
0000
0010
0000
0000
0001
0000
0000
0100
0000
0000
,  // measure 52
0001
0000
0000
1000
0000
0000
0001
0000
0000
0010
0000
0000
0100
0000
0000
1000
0000
0000
0001
0000
0000
0100
0000
0000
0001
0000
0000
0010
0000
0000
0100
0000
0000
1000
0000
0000
0001
0000
0000
0000
0000
0000
0100
0000
0001
0000
0100
0000
,  // measure 53
0001
0010
0100
1000
0200
0000
0000
0000
0320
0000
0000
0000
0130
0000
1000
0000
,  // measure 54
0100
0000
1000
0000
0010
0000
0100
0001
1000
0010
0100
0001
0010
0100
0010
0001
,  // measure 55
0100
0010
1000
0001
0020
0000
0000
0000
0000
0000
0001
0031
1000
0000
0000
0000
,  // measure 56
0000
0010
0000
0000
0000
1000
0001
0010
,  // measure 57
0002
0000
0103
0000
0000
0000
0110
0110
,  // measure 58
0000
0000
1000
0001
1000
0000
1001
0000
0000
0000
1010
0000
0000
0000
0110
0000
,  // measure 59
0000
0010
1010
1010
0000
1000
0000
0101
,  // measure 60
0000
0000
1000
0000
0000
0000
1010
0000
0010
0100
0001
0000
0101
0000
0000
0000
,  // measure 61
0101
0000
0001
0010
0100
0000
0000
0000
1000
0000
0100
0000
0000
0000
1000
0000
,  // measure 62
0000
0000
1000
0000
0000
0000
0001
0010
0100
0010
0001
1000
0010
0000
0100
0001
,  // measure 63
0000
0001
0100
0000
0001
0010
0001
1000
0010
1000
0001
0100
0001
1000
0100
1000
,  // measure 64
0001
0010
0M10
1000
0100
01M0
0001
0100
01M0
1000
0001
1000
0001
0000
0001
0000
,  // measure 65
1000
0001
0000
0000
1001
0000
0000
0000
0000
0000
1010
0000
0000
0000
0110
0000
,  // measure 66
0000
0000
1001
0000
0000
0000
1000
0010
0100
0010
1000
0100
0010
0000
0100
0000
,  // measure 67
1100
0000
0000
0000
1000
0010
1000
0001
0100
0010
0100
0001
0010
0100
1000
0100
,  // measure 68
1000
0000
0100
0010
0001
1000
0010
0100
0000
0001
0100
0000
1000
0000
0100
0010
,  // measure 69
0000
0000
0101
0000
0001
0000
0100
0000
0001
1000
0000
0000
1000
0000
0001
0010
,  // measure 70
0000
0001
0010
0000
0001
0000
0100
0001
1000
0001
1000
0100
0010
0000
0100
0000
,  // measure 71
1000
0000
0000
0000
0001
0010
0100
0010
0001
1000
0010
1000
0010
0100
0001
1000
,  // measure 72
0001
0000
0000
0100
0000
0000
0001
0000
0000
0010
0000
0000
0100
0000
0000
1000
0000
0000
0001
0000
0000
0010
0000
0000
0001
0000
1000
0000
0001
0000
1000
0000
0000
0000
0100
0000
0000
0000
0010
0000
0000
0000
0001
0000
0000
0000
0000
0000
,  // measure 73
0101
0000
0100
0000
1001
0000
0000
0000
0010
0000
1001
0000
0000
1000
0001
0000
,  // measure 74
1000
0000
1000
0001
0100
0000
0010
0100
0010
0000
1000
0000
0000
0100
1000
0000
,  // measure 75
0011
0101
1001
0000
0100
0011
0000
0001
,  // measure 76
1000
0000
1000
0001
0100
0000
0000
0000
0010
0000
2000
0000
0000
0000
3100
0010
,  // measure 77
0000
0011
0000
0000
1000
0100
1000
0001
0100
0001
1000
0010
1000
0001
0010
0001
,  // measure 78
1000
0100
0010
0100
1000
0001
0010
0001
1000
0100
0010
0001
0100
0010
0100
0001
,  // measure 79
0000
0000
0000
0000
0000
0000
0000
0000
0000
0000
0000
0000
1001
0000
0000
0000
0000
0000
0000
0000
0000
0000
0000
0000
0000
0000
0000
0000
0000
0000
0000
0000
0000
0000
0000
0000
1010
0000
0000
0000
0000
0000
0000
0000
0000
0000
0000
0000
0000
0000
0000
0000
0000
0000
0000
0000
0000
0000
0000
0000
0010
0000
0000
0000
0000
0000
0000
0000
0000
0000
0000
0000
0110
0000
0000
0000
0000
0000
0000
0000
0000
0000
0000
0000
0000
0000
0000
0000
0000
0000
0000
0000
0000
0000
0000
0000
1000
0000
0000
0000
0000
0000
0000
0000
0000
0000
0000
0000
0001
0000
0000
0000
0000
0000
0010
0000
0000
0000
0000
0000
0001
0000
0000
0000
0000
0000
0000
0000
0000
0000
0000
0000
0000
0000
0000
0000
0010
0000
0000
0000
0000
0000
0000
0000
0000
0000
0000
0000
0000
0000
0000
0000
0000
0000
0000
0000
0100
0000
0000
0000
0000
0000
0000
0000
0000
0000
0000
0000
1000
0000
0000
0000
0000
0000
0000
0000
0000
0000
0000
0000
0100
0000
0000
0000
0000
0000
0000
0000
0000
0000
0000
0000
,  // measure 80
1000
0000
0000
0000
0010
0000
0000
0000
0100
0000
0000
0000
0000
0001
0000
0000
1000
0000
0000
0000
0010
0000
0000
0000
1000
0000
0000
0000
0001
0000
0000
0000
0100
0000
0000
0000
0000
0001
0000
0000
0010
0000
0000
0000
0100
0000
0000
0000
1000
0000
0000
0000
0000
0001
0000
0000
0100
0000
0000
0000
0000
0000
0000
0000
,  // measure 81
1111
0000
0000
0000
1000
0000
0000
1000
,  // measure 82
0001
0000
0100
0000
0000
0000
0100
0000
0010
0000
1000
0100
1000
0000
0010
0000
,  // measure 83
0000
0100
0100
0000
0010
0000
0000
0010
,  // measure 84
0100
0000
0001
0000
0000
0000
0010
0000
0001
0000
1000
0010
0100
0000
0010
0000
,  // measure 85
1000
0000
0000
0100
0000
0000
1000
0100
1000
0001
0010
0001
0010
0100
1000
0100
1000
0001
0100
0000
0000
0000
0000
0000
,  // measure 86
0010
0000
0000
1000
0000
0000
0000
0000
0000
0001
0010
0100
1000
0100
0010
0001
1000
0001
1000
0000
0000
0001
0000
0000
,  // measure 87
1001
0000
0000
0000
0002
0000
1003
0100
0010
0001
0100
0010
0100
0001
0010
0100
,  // measure 88
1000
0000
0001
0000
1000
0000
0001
0100
0001
0000
1000
0100
10MM
0000
0010
0100
,  // measure 89
0010
1000
0100
0010
0002
0000
0000
0000
M000
0000
0000
0000
0103
0000
0000
0000
,  // measure 90
0020
0000
0000
1030
0001
0000
0011
0020
,  // measure 91
0230
0000
2300
0000
3200
0000
0000
0000
0000
0000
0310
0001
0100
0000
0010
0000
,  // measure 92
4000
0000
3000
0001
0010
0100
0110
0001
,  // measure 93
1000
0000
0001
0000
0010
0100
0010
0100
1000
0000
0001
0000
0100
0000
0000
0000
,  // measure 94
0010
1000
0010
0100
0001
0010
0100
0000
1000
0000
0000
0000
0100
0000
0001
0000
,  // measure 95
0100
0000
0010
0000
0004
0000
0000
0000
0103
0000
0010
0100
0001
0000
0000
0000
,  // measure 96
0020
0000
0031
1001
,  // measure 97
0001
1000
0001
1000
0010
0100
0001
0010
0100
1000
0010
0100
0001
0100
0001
1000
,  // measure 98
0200
0000
0300
0010
1002
0000
0103
0002
,  // measure 99
0000
0000
0000
0003
0000
0000
1000
0100
0010
0001
1000
0100
1000
0001
0010
0100
0010
0001
1000
0100
1000
0001
0100
0010
,  // measure 100
1000
0000
0000
0100
2000
0000
3010
0100
,  // measure 101
0001
1000
0200
0000
0300
1000
1000
0000
,  // measure 102
0001
0000
0200
0320
,  // measure 103
2030
0000
3001
0000
0000
0000
1000
00M1
,  // measure 104
0010
0M01
0100
0010
2000
0000
0000
0000
,  // measure 105
0000
0000
0000
0000
,  // measure 106
0000
0000
3000
0000
;

//---------------dance-single - ----------------
#NOTES:
     dance-single:
     :
     Beginner:
     2:
     0.134952,0.186309,0.019993,0.039986,0.000000,189.000000,185.000000,4.000000,8.000000,2.000000,0.000000,0.134952,0.186309,0.019993,0.039986,0.000000,189.000000,185.000000,4.000000,8.000000,2.000000,0.000000:
0000
0000
0000
0000
,
0000
0000
0000
0000
,
0000
0000
0000
0000
,
0000
0000
0000
0000
,
0000
0000
0000
0000
,
0000
0000
0001
0000
,
1000
0000
0100
0000
,
0010
0000
0100
0000
,
1000
0000
0001
0000
,
0100
0000
0010
0000
,
1000
0000
0001
0000
,
0010
0000
0001
0000
,
0100
0000
0010
0000
,
0100
0000
0001
0000
,
1000
0000
0100
0000
,
0010
0000
0001
0000
,
1000
0000
0010
0000
,
1000
0000
0001
0000
,
0010
0000
0100
0000
,
1000
0000
0001
0000
,
1000
0000
0010
0000
,
0100
0000
0001
0000
,
0100
0000
0010
0000
,
1000
0000
0001
0000
,
0001
1001
0000
2000
,
0000
3100
0000
0010
,
0001
0000
0100
0010
,
0000
1000
0000
0001
,
0100
0000
0010
1000
,
0000
0001
0000
1000
,
0100
0000
1000
0010
,
0000
1000
0000
0001
,
0020
0000
0000
0031
,
0000
1000
0000
0010
,
0100
0000
0001
1000
,
0000
0010
0000
1000
,
0001
0000
0100
0010
,
0000
1000
0000
0100
,
0010
0000
0100
1000
,
0000
0001
0000
0000
,
1000
0000
0000
0000
,
0000
0100
0000
0000
,
0010
0000
0000
0001
,
0000
1000
0000
0000
,
0010
0000
0000
0100
,
0000
0001
0000
0000
,
1000
0000
0000
0001
,
0000
0010
0000
0001
,
0000
0100
0000
0000
0000
0010
0000
0000
,
0000
1000
0000
0000
,
1001
0000
0001
0001
,
0000
1000
0000
0000
,
0100
0000
0000
0010
,
0000
0100
0000
0000
,
1000
0000
0000
0001
,
0000
0100
0000
0001
,
0000
0100
0000
0000
0000
0010
0000
0000
,
0000
1000
0000
0000
,
0000
0001
0000
0000
,
0000
0100
0000
0000
,
0000
0010
0000
0000
,
0000
1000
0000
0000
,
0000
0100
0000
0000
,
0000
0010
0000
0000
,
0000
0001
0000
1000
,
0000
0001
0000
0000
,
0000
0100
0000
0000
,
0000
0010
0000
0000
,
0000
0100
0000
0000
,
0000
0001
0000
0000
,
0000
1000
0000
0000
,
0000
0010
0000
0010
,
0000
0010
0000
0000
,
0110
0100
0000
0001
,
0000
0010
0000
0100
,
0000
0010
0000
0001
,
0000
1000
0000
0010
,
0000
0100
0000
0001
,
0000
0010
0000
0001
,
0000
0100
0000
0001
,
0000
0010
0000
0100
,
0000
1000
0001
0000
,
0001
0000
0010
0000
,
0010
0100
0001
0000
,
1000
0000
0001
0000
,
1000
0020
0000
0000
,
0030
0200
0000
0000
,
0300
0002
0000
0000
,
0003
1000
0000
1000
,
0000
1001
0MM0
0001
,
1000
0000
0000
0001
,
0000
1000
0000
0100
,
1000
0000
0000
0001
,
0000
0100
0000
0001
,
0010
0000
0000
0100
,
0000
0010
0000
0001
,
2000
0000
0000
3001
,
0000
0100
0000
0010
,
0100
0000
0001
1000
,
0000
0100
0000
1000
,
0100
0000
0010
0001
,
0000
1000
0000
0000
,
0010
0000
0000
0100
,
0000
0001
0000
2000
,
0000
0000
3002
0000
,
0000
0000
0000
0000
,
0000
0000
0003
0000
;

//---------------dance-single - ----------------
#NOTES:
     dance-single:
     :
     Easy:
     4:
     0.222778,0.292771,0.039986,0.064977,0.000000,312.000000,304.000000,8.000000,13.000000,2.000000,0.000000,0.222778,0.292771,0.039986,0.064977,0.000000,312.000000,304.000000,8.000000,13.000000,2.000000,0.000000:
0000
0000
0000
0000
,
0000
0000
0000
0000
,
0000
0000
0000
0000
,
0000
0000
0000
0000
,
0000
0000
0000
0000
,
0000
1000
0000
0000
0001
0000
0000
0000
,
0100
0000
0010
0000
,
0100
0000
0001
0000
,
0010
0000
0001
0000
,
1000
0010
0000
0000
0100
0000
0000
0000
,
0010
0000
1000
0000
,
0100
0010
0000
0000
0001
0000
0000
0000
,
0010
0000
0001
0000
,
0100
0010
0000
0000
1000
0000
0000
0000
,
0100
0000
1000
0000
,
0001
0000
0100
0000
,
0010
0000
1000
0000
,
0100
1000
0000
0000
0001
0000
0000
0000
,
0010
0001
0000
0000
0100
0000
0000
0000
,
0010
1000
0000
0000
0001
0000
0000
0000
,
1000
0100
0000
0000
0010
0000
0000
0000
,
0100
1000
0000
0000
0001
0000
0000
0000
,
0100
0001
0000
0000
0010
0000
0000
0000
,
0100
0010
0001
0000
0001
0000
1000
0000
,
1000
1001
0000
0002
,
0000
0000
0013
0000
0000
0100
1000
0000
,
0020
0000
0130
0010
,
0000
0000
1000
0000
0000
0001
0010
0000
,
0200
0000
0310
0001
,
0000
0000
1000
0000
0000
0010
1000
0000
,
0100
0000
1000
0001
,
0000
0000
0100
0000
0000
0001
0010
0000
,
0200
0000
0300
1100
,
0000
0000
0001
0000
0000
0100
0010
0000
,
0100
0000
0000
0100
0001
0000
0010
0100
,
0000
0000
0010
0000
0000
0010
0001
0000
,
1000
0000
0000
0010
0100
0000
0001
0000
,
0000
0000
1000
0000
0000
0100
0010
0000
,
0100
0000
0000
1000
0001
0000
0010
0000
,
0000
0000
0001
0000
0000
0000
0100
0010
,
1000
0000
0001
0000
,
0000
1000
0000
0001
,
0010
0000
0000
0001
,
0000
0100
0100
0000
0000
0000
0001
0000
,
0010
0000
0100
0010
,
0000
0001
1000
0000
0000
0000
0100
0000
,
1000
0000
0001
0100
,
0000
0010
0010
0000
0000
0100
0001
0000
,
0000
0010
0000
0000
0000
0001
0000
0000
,
0000
1000
0000
0001
,
1001
0000
1000
0001
,
0000
0100
0010
0000
0000
0000
1000
0000
,
0100
0000
1000
0010
,
0000
0100
0001
0000
0000
0000
0010
0000
,
0100
0000
0010
0001
,
0000
0100
0010
0000
0000
0010
1000
0000
,
0000
0100
0000
0000
0000
0010
0000
0000
,
0000
0100
0000
1000
,
0000
0001
0000
0100
,
0000
0010
0000
1000
,
0000
0001
0000
0010
,
0010
0100
0000
1000
,
0000
0001
0000
0100
,
0000
0001
1000
0001
,
1000
0001
0010
0100
,
0010
0001
0000
1000
,
0000
0010
0000
0100
,
0001
0100
0000
0010
,
0000
1000
0000
0100
,
0000
1000
0000
0001
,
0000
0100
0000
0010
,
0000
1000
0001
1000
,
0001
0100
0010
1000
,
1001
0001
0010
0001
,
0100
0010
1000
0100
,
1000
0001
0100
0010
,
0100
0001
0010
0100
,
0010
0001
1000
0001
,
0100
0010
0100
0001
,
1000
0100
1000
0001
,
0100
0001
0010
0100
,
1100
1000
0001
0000
,
0100
0000
0010
0000
,
0100
0001
1000
0000
,
0100
0000
0010
0000
,
0100
2000
0001
0001
,
3001
0002
1000
1000
,
1003
0200
0010
0010
,
0310
0001
0010
0012
,
0003
1001
0MM0
1001
,
1000
0000
0000
0010
0100
0000
0001
0000
,
0000
0000
1000
0000
0000
0100
0010
0000
,
0100
0000
0000
1000
0100
0000
1000
0000
,
0000
0000
0001
0000
0000
0100
0001
0000
,
0010
0000
0000
0100
0010
0000
0001
0000
,
0000
0000
1000
0000
0000
0001
0010
0000
,
0200
0000
0000
1300
0100
0000
0010
0000
,
0000
0000
0001
0000
0000
1000
0010
0000
,
0100
0000
0000
0001
0100
0000
0001
0010
,
0000
0000
0100
0000
0000
1000
0100
0000
,
1000
0000
0000
0001
0100
0000
0010
0000
,
0000
0000
1000
0000
0000
0100
0010
0000
,
0100
0000
0020
0230
,
0320
0000
0031
0000
0000
0000
1000
0001
,
1000
0001
1000
0001
2000
0000
0000
0000
,
0000
0000
0000
0000
,
0000
0000
3000
0000
;

//---------------dance-single - ----------------
#NOTES:
     dance-single:
     :
     Medium:
     6:
     0.397716,0.479080,0.124956,0.254910,0.024991,557.000000,532.000000,25.000000,51.000000,8.000000,0.000000,0.397716,0.479080,0.124956,0.254910,0.024991,557.000000,532.000000,25.000000,51.000000,8.000000,0.000000:
0000
0000
0000
0000
0000
M000
000M
0000
,
M000
000M
M000
0000
000M
0000
0000
0000
0000
0000
0000
0000
0000
0000
0000
0000
,
0000
0000
0000
0000
,
0000
0000
0001
0000
0010
0000
0001
0100
,
0010
0000
1000
0000
0100
0000
0010
0100
,
1000
1100
0000
0000
0100
0000
1000
0000
,
0010
0100
0001
0000
0010
0000
0001
0000
,
0100
0020
0000
1030
0100
0020
0000
0130
,
0010
0002
0000
0103
0010
0020
1000
0030
,
0010
0100
0000
0001
1000
0100
0100
0010
,
0100
0000
1000
0000
0001
0100
0001
0000
,
0010
0100
0000
1000
0001
0100
0000
0001
,
0010
0100
0000
0010
0001
0010
0200
0000
,
0310
0001
0000
0000
1000
0000
0000
0010
,
0100
0010
0100
0001
0001
0000
0010
0100
,
1000
0001
0100
0010
1000
0010
1000
0001
,
0010
0100
0200
0000
1300
0000
0000
0001
,
0100
0101
0000
0000
0001
0000
0010
0100
,
1000
1001
0000
0000
0100
0010
1000
0001
,
0010
0110
0000
0000
0010
0001
0010
0100
,
1000
0200
1000
1300
0010
0100
0002
0000
,
0103
0002
0000
0003
0010
0001
1000
0100
,
1000
0020
0000
0030
0100
0001
1000
0010
,
1000
0100
0010
0010
0001
0001
1000
1000
,
0100
0100
0110
0000
0000
1000
0002
0000
,
0000
0100
0103
0000
0000
0001
0011
0000
,
0020
0000
0000
0000
0130
0000
0010
0001
,
0010
0100
2000
0000
0000
3100
0010
0000
,
0200
0000
1300
0002
,
0000
0000
0103
0000
0000
0010
1000
0001
,
0010
0000
0000
0100
1000
0000
0001
0010
,
0100
0010
0002
0000
0003
0100
0010
0000
,
0200
0000
0300
0110
,
0000
0000
0001
0000
0000
0010
0100
0010
,
0004
0000
0003
0100
0001
0000
0010
0100
,
0000
0010
0001
0000
0000
0100
0010
1000
,
0040
0000
0030
0100
0001
0000
0010
0002
,
0203
0320
1030
0000
0000
1000
0001
0010
,
0400
0000
0300
0010
0001
0000
0200
0320
,
0230
0302
1003
0000
0000
0000
0001
1000
,
1001
0000
0001
0000
,
0000
0000
0010
0100
1000
0001
0001
0000
,
0100
0000
0000
0000
0000
0001
0010
0001
,
0100
0010
0020
0000
2030
0000
3001
0000
,
0100
0000
0010
1000
0100
1000
0010
0000
,
0100
0001
0100
0000
0001
0010
0100
0010
,
0001
0001
0001
0001
0010
0100
1000
0000
,
0000
0010
0010
0000
0000
0100
0001
0000
,
0000
0011
0000
0000
0000
1001
0000
0000
,
0000
0001
1000
0000
0000
0000
1100
0000
,
1010
0000
0010
0010
,
0000
0100
0001
0000
1000
0000
0100
0010
,
0100
0010
0100
1000
0100
1000
0020
0000
,
0030
0100
0001
0000
0000
1000
0001
0010
,
0100
0000
0000
0000
0010
0000
0001
0010
,
0001
0100
0010
0000
0000
0100
0001
0000
,
0000
1000
0000
0000
0000
0100
0010
0200
,
0000
0000
1300
0000
0000
0001
0100
0100
,
0000
0010
1000
1000
0000
0100
0010
0001
,
0000
0000
1000
1000
0010
0100
0001
0001
,
0000
0010
0100
0100
0000
1000
0001
1000
,
0010
0100
1000
0000
0100
0010
1000
0010
,
0000
1000
0001
0010
0000
0100
0010
0001
,
0100
0000
0001
0010
0100
1000
0100
0010
,
0001
0100
0010
1000
0001
0100
0001
0001
,
0010
0001
0000
0000
1001
0000
0000
0000
0000
0000
1000
0000
0000
0000
0010
0000
,
0000
0100
0000
0010
0100
0001
0010
0001
,
0011
0000
1000
0100
0010
0100
1000
0001
,
1000
0000
0010
0000
0100
0000
0010
0000
0000
1000
0000
0000
0100
0000
0000
1000
,
0000
0000
0001
0000
0100
0000
0001
0000
0000
0100
0000
0000
0001
0000
0000
0010
,
0000
0200
0300
0010
0001
0100
0010
0100
,
0101
0001
1000
0100
,
1000
0001
0010
0100
,
0110
0000
0001
0000
1100
0001
0000
0100
,
0010
0000
1000
0000
0101
1000
0000
0100
,
0010
0010
0001
0000
1010
0001
0000
0010
,
0100
1000
1000
0000
0011
1000
0000
0010
,
0100
0000
0100
0000
0010
0000
0000
1000
0000
0000
0100
0000
0000
0010
0000
0000
,
0001
0000
0000
0100
0000
0000
0010
0000
0000
0100
0000
0000
0001
0000
0001
0000
,
0020
0000
0130
1000
0100
1000
0001
0100
,
0010
0100
0001
0010
0100
0010
0100
1000
,
1100
0000
0100
0000
0010
0000
0000
0100
,
0000
1000
0000
0010
0100
0001
1000
0001
,
0010
0000
0100
0000
0010
0000
0000
0001
,
0000
0100
0000
0100
0010
0000
1000
0000
,
0100
2000
0010
0010
,
3010
0100
0002
0000
0010
0000
0010
0000
,
0013
0100
0020
0000
0100
0000
0100
0000
,
0130
0000
1000
0001
0100
0010
0210
0000
,
0300
2002
3MM3
1001
,
2000
0000
0000
3100
0010
0000
0100
0010
,
0001
0100
0020
0000
0000
0130
0001
0000
,
1000
0000
0000
0100
1000
0001
0100
0001
,
1000
0100
0010
0000
0000
0100
0010
0001
,
1000
0000
0000
0010
0100
0000
0001
0020
,
0230
2300
3100
0000
0000
1000
0010
0000
,
0200
0000
0000
0310
1000
0000
1001
0000
,
2000
0000
3001
0010
0100
0010
0001
0100
,
0020
0000
0000
0130
0001
0000
0010
0001
,
0000
0000
0100
0010
0100
0010
1000
0100
,
2000
0000
0000
3001
0100
0000
0001
0010
,
0100
1000
2000
0000
0000
3001
0010
0000
,
0200
0000
0320
0230
,
0320
0000
0031
0000
0000
0000
1000
1000
,
0001
0001
1000
0001
2000
0000
0000
0000
,
0000
0000
0000
0000
,
0000
0000
3000
0000
;

//---------------dance-single - ----------------
#NOTES:
     dance-single:
     :
     Hard:
     9:
     0.521244,0.692004,0.134952,0.359872,0.292396,730.000000,703.000000,27.000000,72.000000,8.000000,0.000000,0.521244,0.692004,0.134952,0.359872,0.292396,730.000000,703.000000,27.000000,72.000000,8.000000,0.000000:
0000
0000
0000
0000
0000
M000
00M0
0000
,
0M00
00M0
0M00
0000
000M
0000
0000
0000
0000
0000
0000
0000
0000
0000
0000
0000
,
0000
0000
0000
0000
,
0000
1000
0001
0100
0010
1000
0010
0100
,
0001
0010
0100
0010
0100
1000
0010
0100
,
0001
0000
0101
0000
0000
0000
0000
0000
1000
0000
0100
0010
0001
0000
0100
0000
,
0010
1000
0200
0000
0310
0001
0010
0100
,
0010
0002
0000
1003
0010
0200
0000
0310
,
1000
0002
0000
0013
0001
0020
0100
0030
,
0010
0001
1000
0000
0000
0000
0001
1000
0010
0000
0100
0000
0100
0000
0001
0000
,
1000
0000
0001
0000
1000
0000
0100
1000
0001
0000
0100
0000
0100
0000
0000
0000
,
0001
0000
0020
0000
0000
0000
0031
1000
0001
0000
0200
0000
0000
0000
0301
1000
,
0001
0000
0020
0000
0000
0000
0031
0000
1000
0010
1000
0010
0200
0000
0000
0000
,
0310
0000
1000
0100
2000
0000
0000
0000
0000
0000
0000
0000
3000
0000
0001
0100
,
0001
0000
0010
0100
0010
0000
0001
0000
0001
0000
0000
0000
0100
0000
0010
0000
,
1000
0000
0001
0100
0001
0000
0010
0100
1000
0000
0100
1000
0001
0000
0100
0000
,
0010
1000
2000
0000
0100
0000
0000
3001
,
0010
0011
0000
0000
0001
0100
0010
0100
,
0001
0000
0101
0000
0000
0000
0000
0000
0100
0000
0010
0000
1000
0100
1000
0000
,
0010
1010
0000
0000
0010
0100
0001
1000
,
0100
0020
0001
0031
0010
0100
0020
0000
,
0031
0100
0002
0000
0000
0000
0003
0000
1000
0000
0001
0000
0100
0000
0010
0000
,
1000
0200
0000
0300
1000
0001
0100
0010
,
0100
0000
0001
0000
0010
0001
0010
0000
0001
1000
0001
0000
1000
0010
1000
0000
,
0100
0010
0001
0000
0011
0000
0000
0000
0000
0000
1000
0100
0020
0000
0000
0000
,
0000
0100
0130
0000
0000
0010
0011
0000
,
4001
0000
0000
3000
0010
0000
0100
0001
,
0010
0100
4000
0000
3000
0010
1000
0001
,
0040
0000
0000
0030
0100
0000
2000
0000
,
0000
0000
3100
1000
0010
0100
0010
1000
,
0001
0000
0000
0010
0100
0000
0010
0002
,
0103
0010
2000
0000
3000
0100
0110
0000
,
0200
0000
0300
1001
,
0001
1000
0001
1000
0001
0000
0010
0000
0100
0000
0010
0000
0001
0000
1000
0000
,
0040
0000
0030
0100
0001
0000
0010
0200
,
0000
0310
0001
0100
0010
1000
0001
0010
,
0002
0000
0000
0013
0100
0000
0010
0002
,
0203
0320
1030
0000
0000
1000
0001
0010
,
0400
0000
0300
0010
0001
0000
0200
0320
,
0230
0302
1003
0000
0000
0000
0001
0001
,
1001
0000
1000
0000
,
0010
0100
0010
0000
1000
0000
0100
0000
1000
0000
0001
0000
0010
0000
0000
0000
,
0200
0000
0010
0000
0310
0001
0010
0001
,
0100
0010
2000
0000
3002
0000
0023
0000
,
0130
0000
0000
0000
0010
0001
0010
0001
0100
0000
0010
0000
1000
0000
0000
0000
,
0100
0010
0100
1000
0001
0100
0010
1000
,
0100
1000
0100
1000
0001
0010
0001
0010
0001
0000
0100
0000
0010
0100
0010
0000
,
0000
0000
1000
0100
0010
0000
0100
0000
1000
0100
0010
0000
0100
0000
1000
0100
,
0010
0012
0000
0000
0000
1000
0000
0013
,
0001
0100
0001
0000
2000
0000
0000
0000
0000
0000
3000
0000
1001
0000
0000
0000
,
1010
0000
0000
0000
0010
0100
0001
1000
,
0001
0000
0010
0000
0002
0000
0000
0000
0100
0000
0000
0003
0100
0010
0100
0010
,
1000
0001
1000
0001
0010
0100
0010
0100
1000
0001
0100
0001
0020
0000
0000
0000
,
0031
0010
0002
0000
2003
0000
3020
0230
,
0304
0000
0000
0000
0000
0000
0003
0000
0010
0001
0010
0000
0001
1000
0010
0000
,
0100
0010
1000
0001
0020
0000
0000
0000
0030
0000
0100
0010
0001
0000
0000
0000
,
0000
1000
0000
0000
0000
0010
0100
0002
,
0000
0000
1003
0000
0000
0000
0001
0101
,
0000
0000
0010
0000
0110
0000
0100
0000
0000
0000
1000
0100
1000
0000
0001
0000
,
0000
0000
0000
0000
0100
0000
0100
0000
0010
0100
0010
0000
1000
0000
1000
0000
,
0000
0000
0100
0000
1000
0000
0001
0000
0000
0000
0100
0010
1000
0000
1000
0000
,
0001
0000
0010
0000
0200
0000
0000
0000
1300
0000
0010
0100
0010
0000
1000
0000
,
0000
0000
0100
0010
0001
0000
0010
0000
0001
0000
0010
0100
1000
0000
0001
0000
,
0100
0000
0010
0000
1000
0000
0001
0100
0001
0000
1000
0000
0100
0000
0010
0000
,
0001
0000
0100
0010
1000
0000
1000
0000
0001
0000
0001
0000
0010
0000
0001
0000
,
1000
0001
0000
0000
1001
0000
0000
0000
0001
0000
1000
0000
0000
0000
0010
0000
,
0000
0000
0100
0000
0000
0000
0010
0100
0000
0001
0010
0000
0001
0000
0100
0000
,
0101
0000
0000
0000
1000
0000
0100
0010
0100
0000
0010
0000
0001
0000
1000
0000
,
0010
0000
1000
0100
1000
0000
0010
0000
0100
0010
0000
0000
0100
0000
0001
2000
,
0000
3000
0001
0000
0010
0000
0001
0000
0010
0100
0000
0000
0010
0000
0001
0020
,
0000
0030
0100
0000
1000
0000
0010
0100
0001
0000
1000
0000
0100
0000
0010
0000
,
0001
0000
1000
0100
1000
0001
0100
0001
,
1000
0000
0010
0000
1000
0001
0100
0001
0100
0010
1000
0010
1000
0000
0001
0000
,
1001
0000
1000
0000
0101
1000
0000
0100
,
0010
0000
0001
0010
0100
0000
0000
0000
1100
0000
0001
0000
0000
0000
0100
0010
,
0000
0010
1000
0000
0001
0000
0000
0000
1010
0000
0001
0000
0000
0000
0010
0000
,
0100
0000
0010
0001
1000
0000
0000
0000
0011
0000
1000
0000
0000
0000
0010
0100
,
0000
0100
0001
0000
0010
0100
1000
0001
0000
0100
0010
1000
0001
0000
0010
0100
,
1000
0100
0000
0010
0001
1000
0010
0000
0100
0001
1000
0100
0010
0000
0010
0000
,
0000
0100
0000
0100
0000
1000
0001
0000
0100
0010
1000
0001
0000
0001
0100
0010
,
1000
0000
0100
0010
0000
0010
0001
0000
0100
0010
0000
1000
0100
0000
1000
0000
,
1001
0000
0000
0000
0001
0000
0000
0100
0010
0000
0100
0000
0000
0000
0001
0000
,
0010
0000
0100
0000
0000
0000
0100
0000
0010
0000
0001
1000
0001
0000
0200
0000
,
0000
0300
0110
0000
0010
0000
0000
1000
,
0100
0000
1000
0000
0000
0000
0010
0000
0100
0000
0001
1000
0001
0000
0010
0000
,
0100
0000
0000
0000
1000
0000
0100
0010
0001
0000
0010
0001
0010
0000
0000
0000
,
0100
0000
2000
0000
0000
0000
3001
0100
0010
0000
1000
0001
0010
0000
0001
0000
,
2000
0000
0000
0000
3010
0000
0100
0001
0010
0001
0010
0100
1000
0000
0001
0000
,
0200
0000
0310
0000
1000
0000
0100
0010
0100
0000
0010
0000
0002
0000
0000
0000
,
0000
0003
2000
0000
3MM0
0000
1001
0000
,
0002
0000
0000
0103
0010
0000
1000
0001
,
0010
0100
0040
0000
0030
0001
1000
0010
,
0200
0000
0000
0000
0310
1000
0100
1000
,
0001
0100
0002
0000
0000
0103
0010
0100
,
0002
0000
0000
0013
0100
0000
0010
0002
,
0203
0320
2030
0000
0000
3001
1002
0000
,
0203
0000
0000
0310
0100
0000
0110
0000
,
1000
0001
1000
0001
1000
0000
0010
0000
0100
0000
0001
0000
0010
0000
0100
0000
,
2000
0000
0000
3100
0020
0000
0031
1000
,
0000
0000
0000
0000
0010
0100
0001
1000
0010
0100
0001
1000
0100
1000
0100
0010
,
0002
0000
0000
0000
0000
0003
0010
0000
0100
0000
0000
0000
0010
0000
0100
0000
,
1000
0001
0200
0000
0000
0310
2000
0000
,
3002
0000
0023
0230
,
0320
0000
0031
0000
0000
0000
1000
0010
,
0100
0001
1000
0100
2000
0000
0000
0000
,
0000
0000
0000
0000
,
0000
0000
3000
0000
;
