#TITLE:Shampoo;
#SUBTITLE:;
#ARTIST:After School;
#TITLETRANSLIT:;
#SUBTITLETRANSLIT:;
#ARTISTTRANSLIT:;
#GENRE:K-Pop;
#CREDIT:;
#BANNER:shampoo-bn.png;
#BACKGROUND:shampoo-bg.png;
#LYRICSPATH:;
#CDTITLE:cdtitle.png;
#MUSIC:shampoo.mp3;
#OFFSET:0.000000;
#SAMPLESTART:74.646004;
#SAMPLELENGTH:12.000000;
#SELECTABLE:YES;
#BPMS:0.000000=126.999992
;
#STOPS:
;
#BGCHANGES:0.000=shampoo.mp4=1.000=1=0=0=StretchNoLoop==CrossFade==,
99999=-nosongbg-=1.000=0=0=0 // don't automatically add -songbackground-
;
#KEYSOUNDS:;
#ATTACKS:;

//---------------dance-single - ----------------
#NOTES:
     dance-single:
     :
     Medium:
     6:
     0.314354,0.392533,0.130981,0.231400,0.000000,504.000000,474.000000,30.000000,53.000000,0.000000,0.000000,0.314354,0.392533,0.130981,0.231400,0.000000,504.000000,474.000000,30.000000,53.000000,0.000000,0.000000:
0000
0000
0000
0000
,
0000
0000
0000
0000
,
0000
0000
0000
0000
,
0000
0000
0000
0000
,
0100
0000
0000
0010
0000
0000
0001
0010
,
0100
0000
0000
1000
0000
0000
1000
0100
,
0010
0000
0000
0001
0000
0000
0001
0010
,
0100
0000
0200
0001
0000
0000
0010
0010
,
0310
0100
0001
0100
,
0010
0001
0100
0001
,
1000
0010
0100
0010
,
1000
0100
1000
0010
1000
0001
1000
0100
,
0010
1000
0010
0100
,
1000
0001
1000
0010
,
0100
1000
0100
0001
,
0010
1000
0010
0100
,
2000
0000
0000
0010
0000
3000
0002
0000
0000
0100
0000
0003
,
0200
0000
0000
0010
0000
0300
0010
0000
0000
0011
0000
0000
,
0002
0000
0000
1000
0000
0003
2000
0000
0000
0100
0000
3000
,
0020
0000
0000
0001
0000
0030
0200
0000
0000
1000
0000
0300
,
2000
0000
0010
3000
0200
0000
0010
0300
,
0002
0000
0100
0003
0100
0000
0110
0000
,
0020
0000
0000
0001
0000
0030
0002
0000
0000
0100
0000
0003
,
2000
0000
0000
0000
0000
0000
0010
0000
0000
0000
3000
0000
0020
0000
0000
0100
0000
0000
0000
0000
0000
0100
0030
0000
,
0110
0010
0100
0010
,
1000
0010
1000
0000
0001
0000
1000
0000
,
0010
1000
0001
0100
,
0010
0000
0010
0000
0010
0000
0010
0100
,
0100
0001
0100
0010
,
0001
0100
0001
0000
1000
0000
0001
0000
,
0010
0100
0001
0100
,
0010
0100
1000
0100
0001
0100
0010
0100
,
1000
0000
1000
0000
1000
0000
0001
1000
,
0001
0000
0001
0000
0001
0000
0100
0001
,
0100
0000
0100
0000
0100
0000
0010
0100
,
0010
0010
0010
0001
,
0100
0000
0010
0000
1000
0100
1000
0000
,
0010
0000
1000
0000
0100
0000
0001
0010
,
0001
0010
0001
0100
,
1000
0001
1000
0001
0000
0000
0000
0000
,
1001
0001
0100
0010
,
1000
0001
0100
0010
,
0001
1000
0001
0100
,
0010
1000
0001
0100
,
0010
0001
1000
0001
,
0100
0010
1000
0001
,
0010
0100
0010
0001
,
1000
0001
0010
0100
,
0001
1000
0010
0100
,
0001
1000
0010
0100
,
0001
1000
0010
0100
,
0001
1000
0010
0100
,
0001
1000
0010
0100
,
0001
0010
1000
0010
,
0100
0001
1000
0010
,
0000
1000
0000
0001
,
1001
0000
0000
0000
0000
0000
0200
0000
0000
0000
0000
0300
,
0020
0000
0000
0000
0000
0030
2000
0000
0000
0000
0000
3000
,
0020
0000
0000
0000
0000
0000
0000
0000
0000
0000
0030
0000
0000
0000
0000
0000
0000
0000
0100
0000
0000
0001
0000
0000
,
0000
0020
0000
0000
0030
0000
0000
0000
,
1001
0000
0000
0000
2000
0000
0000
3000
,
0020
0000
0000
0030
0200
0000
0000
0300
,
0002
0000
0000
0003
0000
1000
0001
0200
,
0000
0300
0000
0000
,
0110
0000
0000
0000
0000
0000
0002
0000
0000
0000
0000
0003
,
2000
0000
0000
0000
0000
3000
0020
0000
0000
0000
0000
0030
,
0200
0000
0000
0000
0000
0000
0000
0000
0000
0000
0300
0000
0000
0000
0000
0010
0000
0000
0001
0000
0000
2000
0000
0000
,
0000
0000
0000
0000
0000
3000
0000
0000
,
1001
0000
0000
0000
0000
0000
0020
0000
0000
0000
0000
0030
,
0002
0000
0000
0000
0000
0000
0000
0000
0000
0000
0003
0000
1000
0000
0000
0000
0000
0000
0010
0000
0000
0001
0000
0000
,
0000
0000
0000
0010
0000
0000
2000
0000
0000
0000
0000
0000
0000
0000
0000
0000
3000
0000
0000
0000
0000
0000
0000
0000
,
1000
0001
1000
0001
0000
0000
0000
0000
,
1100
0000
0100
0000
1000
0001
0010
0001
,
0100
0010
0001
1001
,
1000
0000
0100
0100
0100
0000
0110
0000
,
0010
1000
0010
0001
0010
0000
1010
0000
,
1000
0000
0010
0100
0010
0000
0100
0000
,
0001
0000
0010
1000
0100
0000
0010
0010
,
0010
0000
1000
0100
0001
0000
1000
0000
,
1001
1000
0001
1000
0010
0000
0100
0000
,
2000
0000
0000
0000
0010
0000
0000
3200
,
0000
0300
1000
0000
0100
0000
0010
0000
,
0001
0000
0010
0000
0010
1000
0010
0100
,
0000
0010
0010
0000
1000
0000
0100
0000
,
0010
0000
0001
0000
0010
0000
1000
2000
,
0000
3000
0000
0000
0010
0000
1000
0000
0001
0000
1000
0000
0010
0000
0002
0000
,
0000
0003
0000
0000
0010
0000
0001
0000
1000
0000
0001
0000
0100
0000
0010
0000
,
0000
1000
0001
0000
0100
0000
0100
0000
,
0200
0000
1000
0300
0002
0000
0100
0003
,
2000
0000
0001
3000
0021
0000
0001
0030
,
0002
0000
0100
0003
0020
0000
1000
0030
,
2000
0000
0100
3000
0020
0000
0001
0030
,
0002
0000
0100
0003
0020
0000
0100
0030
,
0200
0000
1000
0300
1020
0000
1000
0030
,
2000
0000
0001
3000
0200
0000
0010
0300
,
0002
0000
1000
0003
0020
0000
0000
0000
,
1030
0100
0001
0100
,
0010
0001
0100
0001
,
1000
0000
0010
0000
1000
0010
1000
0100
,
0000
0010
0001
0000
0001
0000
1000
0000
,
0001
0000
0100
0000
0010
0100
1000
0000
,
0010
0000
1000
0000
0100
0010
0001
0000
,
0010
0000
0100
0000
0001
0100
0010
0000
,
1000
0100
0010
0001
,
1001
0001
0100
0001
,
1000
0010
0100
0010
,
1000
0010
1000
0001
,
0010
0001
1000
0001
0010
0001
1000
0001
,
0100
0001
0100
0010
,
1000
0001
1000
0100
,
0010
0100
0010
0001
,
0100
1000
0010
1000
0001
0000
0010
0000
,
0011
0000
0011
0000
,
1010
0000
0110
0000
,
0011
0000
1010
0000
,
1100
1000
0100
0010
0001
0010
0100
0010
,
0110
0000
1010
0000
,
0101
0000
1010
0000
,
0101
0000
1010
0000
,
0110
0010
0001
0010
0100
1000
0100
0010
;

//---------------dance-single - ----------------
#NOTES:
     dance-single:
     :
     Easy:
     3:
     0.156553,0.209351,0.048026,0.227034,0.000000,251.000000,240.000000,11.000000,52.000000,0.000000,0.000000,0.156553,0.209351,0.048026,0.227034,0.000000,251.000000,240.000000,11.000000,52.000000,0.000000,0.000000:
0000
0000
0000
0000
,
0000
0000
0000
0000
,
0000
0000
0000
0000
,
0000
0000
0000
0000
,
1000
0000
0000
0001
,
0001
0000
0000
0100
,
0100
0000
0000
0010
,
0010
0000
0000
1000
,
1010
0000
0010
0000
,
0100
0000
1000
0000
,
0100
0000
0001
0000
,
0100
0000
0010
0000
,
0100
0000
1000
0000
,
0001
0000
0100
0000
,
0010
0000
0100
0000
,
1000
0000
0100
0000
,
2000
0000
0000
0000
0000
3000
0002
0000
0000
0000
0000
0003
,
0200
0000
0000
0000
0000
0300
0010
0000
0000
0010
0000
0000
,
0020
0000
0000
0000
0000
0000
0000
0000
0000
0030
0000
0000
2000
0000
0000
0000
0000
0000
0000
0000
0000
0000
3000
0000
,
0020
0000
0000
0000
0000
0030
0200
0000
0000
0000
0000
0300
,
0002
0000
0000
0000
0000
0000
0000
0000
0000
0000
0003
0000
0020
0000
0000
0000
0000
0000
0000
0000
0000
0030
0000
0000
,
2000
0000
0000
0000
0000
3000
0100
0000
0000
0100
0000
0000
,
0200
0000
0000
0000
0000
0000
0000
0000
0000
0300
0000
0000
0002
0000
0000
0000
0000
0000
0000
0000
0000
0000
0003
0000
,
2000
0000
0000
0000
0000
0000
0000
3000
,
1000
0000
0100
0000
,
0010
0000
0001
0000
,
0001
0000
0010
0000
,
0001
0000
1000
0000
,
0100
0000
0010
0000
,
0010
0000
0001
0000
,
0010
0000
0001
0000
,
0010
0000
0100
0000
,
1000
0000
0100
0000
,
1000
0000
0100
0000
,
1000
0000
0001
0000
,
0010
0000
0100
0000
,
0001
0000
0010
0000
,
1000
0000
0001
0000
,
0100
0000
0001
0000
,
2002
0000
3003
0000
,
0110
0000
0100
0000
,
1000
0000
0100
0000
,
0001
0000
1000
0000
,
0100
0000
1000
0000
,
0010
0000
1000
0000
,
0100
0000
1000
0000
,
0001
0000
0010
0000
,
1000
0000
0100
0000
,
0001
0000
0010
0000
,
0001
0000
0100
0000
,
0001
0000
0010
0000
,
0001
0000
1000
0000
,
0001
0000
0010
0000
,
0001
0000
1000
0000
,
0100
0000
1000
0000
,
0000
0000
0000
0000
,
2001
0000
0000
0000
0000
0000
0000
0000
0200
0000
0000
0000
0000
0000
0000
3300
,
0020
0000
0000
0000
0000
0030
2000
0000
0000
0000
0000
3000
,
0020
0000
0000
0000
0000
0000
0000
0000
0000
0000
0030
0000
0000
0000
0000
0000
0000
0000
0001
0000
0000
0001
0000
0000
,
0000
0002
0000
0000
0003
0000
0000
0000
,
1001
0000
0000
0000
2000
0000
0000
3000
,
0020
0000
0000
0030
0200
0000
0000
0300
,
0002
0000
0000
0003
0000
1000
1000
2000
,
0000
3000
0100
0000
,
0110
0000
0000
0000
0000
0000
0002
0000
0000
0000
0000
0003
,
2000
0000
0000
0000
0000
3000
0020
0000
0000
0000
0000
0030
,
0200
0000
0000
0000
0000
0000
0000
0000
0000
0000
0300
0000
0000
0000
0000
0010
0000
0000
0010
0000
0000
0020
0000
0000
,
0000
0000
0000
0000
0000
0030
0000
0000
,
1001
0000
0000
0000
0000
0000
0000
0000
0002
0000
0000
0000
0000
0000
0000
0003
,
0200
0000
0000
0000
0000
0000
0000
0300
1000
0000
0000
0000
0100
0000
0010
0000
,
0000
0010
0200
0000
0000
0000
0300
0000
,
2002
0000
3003
0000
,
0000
1000
0000
0100
,
0000
0010
0001
0001
,
0000
0100
0010
0010
,
0000
0100
1000
1000
,
0002
0010
0000
0100
,
0000
1000
0000
0100
,
0000
0010
0000
0100
,
1003
0000
0000
0000
,
2000
0000
0001
0000
,
3010
0000
0100
0000
,
0010
0000
1000
0000
,
0001
0000
0010
0000
,
0001
0000
1000
0000
,
0100
0000
0001
0000
,
0100
0000
0010
0000
,
1000
0000
0010
0010
,
0020
0000
0000
0030
2000
0000
0000
3000
,
0200
0000
0000
0300
0010
0000
0010
0000
,
0020
0000
0000
0030
0002
0000
0000
0003
,
0200
0000
0000
0300
0020
0000
0000
0030
,
2000
0000
0000
3000
0200
0000
0000
0300
,
0002
0000
0000
0003
0010
0000
0010
0000
,
0020
0000
0000
0030
0200
0000
0000
0300
,
2000
0000
0000
0000
0002
0000
0000
3003
,
1001
0000
0001
0000
,
1000
0000
0010
0000
,
0100
0000
0001
0000
,
0010
0000
0001
0000
,
0100
0000
0001
0000
,
0010
0000
0001
0000
,
1000
0000
0001
0000
,
1000
0000
0100
0000
,
1010
0000
0100
0000
,
1000
0000
0010
0000
,
1000
0000
0100
0000
,
0010
0000
1000
0000
,
0100
0000
1000
0000
,
0001
0000
1000
0000
,
0010
0000
0001
0000
,
1000
0000
0010
0000
,
0011
0000
0001
0000
,
1000
0000
0100
0000
,
0001
0000
0010
0000
,
1000
0000
0100
0000
,
0010
0000
0001
0000
,
0100
0000
1000
0000
,
0001
0000
1000
0000
,
0100
0000
0000
0000
0001
0000
1000
1000
;

//---------------dance-single - ----------------
#NOTES:
     dance-single:
     :
     Hard:
     8:
     0.509578,0.575716,0.196471,0.109151,0.076406,817.000000,772.000000,45.000000,25.000000,0.000000,0.000000,0.509578,0.575716,0.196471,0.109151,0.076406,817.000000,772.000000,45.000000,25.000000,0.000000,0.000000:
// measure 0
0000
0000
0000
0000
,  // measure 1
0000
0000
0000
0000
,  // measure 2
0000
0000
0000
0000
,  // measure 3
0000
0000
0000
0000
,  // measure 4
1100
0000
0000
0010
0000
0000
0100
0000
0000
0001
0000
0000
0100
0000
1000
0000
,  // measure 5
0010
0000
0000
1000
0000
0000
0010
0000
0000
0001
0000
0000
0010
0000
1000
0000
,  // measure 6
0100
0000
0000
0010
0000
0000
0100
0000
0000
0001
0000
0000
0100
0000
1000
0000
,  // measure 7
0010
0000
0000
0100
0000
0000
0010
0000
0000
1000
0000
0000
0100
0000
0001
0000
,  // measure 8
0101
0100
0001
0010
0001
0010
0100
1000
,  // measure 9
0100
0010
0100
0001
0100
0010
0001
0100
,  // measure 10
0010
0001
0010
0100
0010
1000
0100
1000
,  // measure 11
0010
1000
0010
0001
0100
1000
0100
0010
,  // measure 12
0110
0010
1000
0001
1000
0010
0100
1000
,  // measure 13
0010
0100
0010
0001
0010
1000
0100
1000
,  // measure 14
0001
0010
0001
0100
0010
1000
0100
0010
,  // measure 15
0100
0000
0010
0000
0001
0000
0010
0000
0100
0000
0000
0000
0100
0100
0000
0000
,  // measure 16
1100
1000
0100
0010
0001
1000
0001
0100
,  // measure 17
0010
0001
0010
1000
0100
0000
0100
0000
,  // measure 18
0100
0010
0100
0001
0010
1000
0010
0100
,  // measure 19
0001
0010
0001
0100
1000
0010
1000
0001
,  // measure 20
0100
0010
0100
1000
0001
0010
0001
0100
,  // measure 21
0010
0001
0010
1000
0100
0000
0100
0000
,  // measure 22
0100
1000
0100
0001
0010
1000
0010
0100
,  // measure 23
0001
0000
0010
0000
0001
0000
0100
0000
0101
0000
0100
0000
0000
0010
0000
0000
,  // measure 24
0110
0000
0100
0010
1000
0010
0001
0100
,  // measure 25
0000
1000
1000
0000
1100
1000
0100
0010
,  // measure 26
0000
0100
0000
0001
0000
0010
0100
0010
,  // measure 27
0011
0000
0110
0000
1100
0000
0100
0200
,  // measure 28
0000
0300
0000
0000
0001
0000
0010
0000
0001
0000
1000
0000
0010
0000
0100
0000
,  // measure 29
0000
0100
0001
0000
0101
0100
0010
0001
,  // measure 30
0000
0001
0100
1000
0000
1000
0010
0001
,  // measure 31
0011
0000
0010
0000
0001
0000
0100
0000
0010
0000
0001
0000
0100
0100
0000
0000
,  // measure 32
2000
0000
0000
3000
0200
0000
0000
0300
0020
0000
0000
0030
0001
0000
0001
0000
,  // measure 33
0002
0000
0000
0003
0200
0000
0000
0300
2000
0000
0000
3000
0010
0000
0010
0000
,  // measure 34
0020
0000
0000
0030
0002
0000
0000
0003
2000
0000
0000
3000
0001
0000
0010
0000
,  // measure 35
0100
0000
0010
0000
0100
0001
0100
2000
,  // measure 36
0000
0000
0000
3000
0100
0000
1000
0000
0010
0000
1000
0000
0001
0000
0100
0000
,  // measure 37
0000
0100
0001
0100
0010
0100
1000
0100
,  // measure 38
0000
0010
0001
0000
0001
0010
0100
1000
,  // measure 39
1001
1001
1001
1001
0000
0000
0000
0000
,  // measure 40
1001
1000
0001
1000
0010
0100
0000
0100
,  // measure 41
0000
0100
0001
0100
1000
0100
0010
0001
,  // measure 42
0000
0001
1000
0001
0100
0001
0010
0100
,  // measure 43
0000
0000
0100
0000
1000
0000
0000
0000
1000
0000
0010
0000
0100
0000
0010
0100
,  // measure 44
0010
0100
1000
0100
0001
0100
0000
0010
,  // measure 45
0000
0010
0100
0010
1000
0010
0001
0100
,  // measure 46
0000
0100
0001
0100
0010
0100
0001
0010
,  // measure 47
0000
0000
0010
0000
1000
0000
0000
0000
1000
0000
0100
0000
0000
0100
0010
0000
,  // measure 48
0110
0100
0001
0100
0010
0100
1000
0010
,  // measure 49
0000
0010
1000
0010
0001
0010
0100
1000
,  // measure 50
0000
1000
0001
1000
0010
1000
0100
0010
,  // measure 51
0000
0000
0010
0000
0001
0000
0000
0000
0010
0000
0100
0000
0001
0000
0100
1000
,  // measure 52
0100
0010
1000
0010
0100
0010
1000
0001
,  // measure 53
0000
0001
0010
0001
1000
0001
0010
0100
,  // measure 54
0000
0100
0001
0100
1000
0100
0010
1000
,  // measure 55
0000
1000
1000
0000
1000
0100
0010
0001
,  // measure 56
1001
0000
0000
0000
0001
0000
0000
0000
0200
0000
0000
0000
0010
0000
0000
0300
,  // measure 57
0020
0000
0000
1000
0000
0030
2000
0000
0000
0001
0000
3000
,  // measure 58
0020
0000
0000
0000
0000
0000
0100
0000
0000
0000
0030
0000
0010
0000
0000
0000
0000
0000
0100
0000
0000
0100
0000
0000
,  // measure 59
0000
0000
0200
0000
0010
0000
0000
0300
0000
0000
0000
0000
0100
0000
0000
0010
,  // measure 60
0110
0000
0010
0000
2000
0000
0100
3000
,  // measure 61
0020
0000
0000
0000
0100
0000
0030
0000
0002
0000
0000
0000
0010
0000
0000
0003
,  // measure 62
0020
0000
0000
0000
0100
0000
0000
0030
1000
0000
1000
0000
0100
0000
0020
0000
,  // measure 63
0000
0000
0000
0000
0030
0000
0000
0000
0010
0000
0100
0000
1000
0100
0000
0000
,  // measure 64
0110
0000
0000
0010
0000
0000
0100
0000
0000
1000
0000
0000
0100
0000
0010
0000
,  // measure 65
0100
0000
0000
0010
0000
0000
0001
0000
0000
0010
0000
0000
0100
0000
1000
0000
,  // measure 66
0100
0000
0000
0010
0000
0000
0100
0000
0000
0001
0000
0000
0001
0000
0010
0000
,  // measure 67
0001
0000
0000
0010
0000
0000
1000
0000
0000
0010
0000
0000
0100
0000
0010
0000
,  // measure 68
0110
0000
0000
1000
0000
0000
0100
0000
0000
0010
0000
0000
1000
0000
0010
0000
,  // measure 69
0001
0000
0000
0010
0000
0000
0100
0000
0000
0001
0000
0000
0010
0000
0001
0000
,  // measure 70
0010
0000
0000
0100
0000
0000
1000
0000
0000
0010
0000
0000
0001
0000
1000
0000
,  // measure 71
1001
1001
1001
1001
0000
0000
1000
0100
,  // measure 72
1100
0100
1000
0100
0010
0100
0001
0100
,  // measure 73
1000
0010
0100
0010
0001
0000
0001
0000
,  // measure 74
0001
0010
0100
0010
1000
0000
1000
0010
,  // measure 75
1000
1000
0100
0001
0010
0000
0010
0100
,  // measure 76
0001
0100
0010
0100
1000
0000
1000
0100
,  // measure 77
0001
0100
1000
0100
0010
0000
0010
0001
,  // measure 78
0100
0001
0010
0001
1000
0000
1000
0010
,  // measure 79
1000
0100
0001
0100
0010
0000
0010
0000
,  // measure 80
2010
0000
0000
0000
0010
0000
0000
3100
,  // measure 81
0000
0100
1000
0100
0010
0100
0001
1000
,  // measure 82
0000
1000
0100
0001
0010
1000
0010
0100
,  // measure 83
0000
0100
0001
0000
0001
0010
0100
0010
,  // measure 84
0000
0001
1000
0001
0100
0001
0010
0100
,  // measure 85
0000
0100
0010
0100
0001
0100
1000
0010
,  // measure 86
0000
0010
0001
0010
1000
0010
0100
0001
,  // measure 87
0000
0000
0001
0000
2000
0000
0000
3000
0200
0000
0000
0300
0002
0000
0000
0003
,  // measure 88
0010
0100
0001
0100
1000
0100
0010
1000
,  // measure 89
0000
1000
0001
1000
0010
1000
0100
0010
,  // measure 90
0000
0010
0001
0010
0100
0010
1000
0010
,  // measure 91
0000
1000
1000
0000
1000
0100
0010
0001
,  // measure 92
0000
0001
0010
0001
1000
0001
0100
0010
,  // measure 93
0000
0010
1000
0010
0100
0010
0001
0100
,  // measure 94
0000
0100
0001
0100
1000
0100
0010
0001
,  // measure 95
0000
0100
1000
0000
0100
0010
0100
0000
,  // measure 96
0101
0001
0100
0001
1000
0001
0000
0010
,  // measure 97
0000
0010
1000
0010
0100
0010
0001
0100
,  // measure 98
0000
0100
0010
0100
0001
0100
1000
1000
,  // measure 99
0000
0010
0010
0000
0001
0010
0100
1000
,  // measure 100
0000
1000
0100
1000
0001
1000
0100
0010
,  // measure 101
0000
0010
0100
0010
0001
0010
1000
0100
,  // measure 102
0000
0100
0010
0100
0001
0100
0010
0001
,  // measure 103
0000
0000
0100
0000
1000
0000
0000
0000
0100
0000
0010
0000
0000
0010
0000
0000
,  // measure 104
1010
0100
0001
0100
1000
0100
0010
0001
,  // measure 105
0010
0100
0010
1000
0010
0001
0100
1000
,  // measure 106
0100
0010
0001
0010
0100
0010
1000
0010
,  // measure 107
0001
0010
0100
0010
0001
0010
1000
0100
,  // measure 108
1100
0100
0001
0100
1000
0100
0010
0100
,  // measure 109
0001
0010
0001
0100
0001
0010
0001
0010
,  // measure 110
0100
0000
1000
0000
0010
0010
0000
0000
0001
0000
0100
0000
1000
1000
0000
0000
,  // measure 111
1000
0000
0100
0000
0010
0010
0000
0000
0010
0000
0001
0000
0100
0100
0000
0000
,  // measure 112
0101
0100
0010
0100
0101
0010
0100
1000
,  // measure 113
1010
0100
0001
0010
0011
0001
0010
0100
,  // measure 114
0110
0100
0010
0100
1100
1000
0100
0001
,  // measure 115
0101
0001
0010
0100
1000
0100
0010
0001
,  // measure 116
0011
0001
0010
0001
0101
0010
0100
0001
,  // measure 117
0101
0100
1000
0010
1010
0100
0010
1000
,  // measure 118
1010
0010
0001
0100
0101
0001
0010
0100
,  // measure 119
0110
0010
1000
0100
0001
0010
1000
0100
;
