#VERSION:0.83;
#TITLE:なんでやねんねん;
#SUBTITLE:;
#ARTIST:浜田ばみゅばみゅ;
#TITLETRANSLIT:Nandeya nen nen;
#SUBTITLETRANSLIT:;
#ARTISTTRANSLIT:Hamada Bamyu Bamyu;
#GENRE:;
#ORIGIN:;
#CREDIT:Lisek;
#BANNER:[Long Week] - Nandeya nen nen.png;
#BACKGROUND:[Long Week] - Nandeya nen nen-bg.png;
#PREVIEWVID:;
#JACKET:[Long Week] - Nandeya nen nen-jacket.png;
#CDIMAGE:;
#DISCIMAGE:;
#LYRICSPATH:;
#CDTITLE:cdtitle.png;
#MUSIC:[Long Week] - Nandeya nen nen.ogg;
#OFFSET:-1.176350;
#SAMPLESTART:31.150000;
#SAMPLELENGTH:15.000000;
#SELECTABLE:YES;
#BPMS:0.000=128.000,
176.000=64.000,
192.000=128.000;
#STOPS:;
#DELAYS:;
#WARPS:;
#TIMESIGNATURES:0.000=4=4;
#TICKCOUNTS:0.000=4;
#COMBOS:0.000=1;
#SPEEDS:0.000=1.000=0.000=0;
#SCROLLS:0.000=1.000,
128.000=0.000,
128.250=2.000,
128.500=0.000,
128.750=2.000,
129.000=1.000,
130.000=0.000,
130.250=2.000,
130.500=0.000,
130.750=2.000,
131.000=1.000,
132.000=0.000,
132.250=2.000,
132.500=0.000,
132.750=2.000,
133.000=1.000,
134.000=0.000,
134.250=2.000,
134.500=0.000,
134.750=2.000,
135.000=1.000,
136.000=0.000,
136.250=2.000,
136.500=0.000,
136.750=2.000,
137.000=1.000,
138.000=0.000,
138.250=2.000,
138.500=0.000,
138.750=2.000,
139.000=1.000,
140.000=0.000,
140.250=2.000,
140.500=0.000,
140.750=2.000,
141.000=1.000,
176.000=2.000,
176.250=1.750,
176.500=1.500,
176.750=1.250,
177.000=1.000,
189.750=1.100,
190.000=1.200,
190.250=1.300,
190.500=1.400,
190.750=1.500,
191.000=1.600,
191.250=1.700,
191.500=1.800,
191.750=1.900,
192.000=1.000,
352.000=1.250,
352.500=1.500,
353.000=1.750,
353.500=2.000,
354.000=2.500,
354.500=3.000,
355.000=4.000,
356.000=0.000,
358.500=1.000;
#FAKES:;
#LABELS:0.000=Song Start;
#BGCHANGES:0.000=[Long Week] - Nandeya nen nen.avi=1.000=1=0=0=StretchNoLoop=[Long Week] - Nandeya nen nen-bg.png=CrossFade==,
423.000=[Long Week] - Nandeya nen nen-bg.png=1.000=1=0=1==[Long Week] - Nandeya nen nen.avi=CrossFade==,
99999=-nosongbg-=1.000=0=0=0 // don't automatically add -songbackground-
;
#KEYSOUNDS:;
#ATTACKS:
;

//---------------dance-single - ----------------
#NOTEDATA:;
#CHARTNAME:;
#STEPSTYPE:dance-single;
#DESCRIPTION:;
#CHARTSTYLE:;
#DIFFICULTY:Hard;
#METER:7;
#RADARVALUES:0.407493,0.450219,0.387896,0.189217,0.068591,603.000000,521.000000,82.000000,40.000000,0.000000,0.000000,2.000000,0.000000,0.000000,0.407493,0.450219,0.387896,0.189217,0.068591,603.000000,521.000000,82.000000,40.000000,0.000000,0.000000,2.000000,0.000000,0.000000;
#CREDIT:Lisek;
#NOTES:
// measure 0
0000
0000
0000
0000
,  // measure 1
0000
0000
0000
0000
,  // measure 2
0000
0000
0000
0000
,  // measure 3
0000
0000
0000
0000
,  // measure 4
1000
0100
0010
0100
,  // measure 5
1000
0000
0000
0000
,  // measure 6
0001
0010
0100
0010
,  // measure 7
0001
0000
1000
0001
,  // measure 8
1000
0100
0010
0001
,  // measure 9
1000
0000
0010
0000
0100
0000
0001
1000
,  // measure 10
0000
0001
0000
0100
0000
0010
0000
2002
,  // measure 11
0000
3003
0000
0000
1000
0000
0001
0000
,  // measure 12
1000
0100
1000
0100
,  // measure 13
0010
0001
0010
0001
,  // measure 14
1000
0010
1000
0010
0100
0001
0100
0001
,  // measure 15
1000
0000
0010
0000
0100
0001
1000
0000
,  // measure 16
0011
1100
0101
1010
,  // measure 17
1000
0100
0010
0001
1000
0000
0000
0000
,  // measure 18
0101
1010
1100
0011
,  // measure 19
0001
0010
0100
1000
0001
0000
0000
0000
,  // measure 20
1010
1100
0101
0011
,  // measure 21
0001
0100
0010
1000
0001
0000
0000
0000
,  // measure 22
0101
0011
1010
1100
,  // measure 23
1000
0010
0100
0001
1000
0000
0000
0000
,  // measure 24
0001
0100
1000
0000
1000
0100
0001
0000
,  // measure 25
1000
0000
0010
0100
0010
0000
0100
0000
0002
0000
0000
0000
0003
0000
0000
0000
,  // measure 26
1000
0100
0001
0000
0001
0100
1000
0000
,  // measure 27
0001
0000
0100
0010
0100
0000
0010
0000
2000
0000
0000
0000
3000
0000
0000
0000
,  // measure 28
0001
0010
1000
0000
1000
0010
0001
0000
,  // measure 29
1000
0000
0100
0010
0100
0000
0010
0000
0002
0000
0000
0000
0003
0000
0000
0000
,  // measure 30
1000
0010
0001
0000
0001
0010
1000
0000
,  // measure 31
0001
0000
0010
0000
0100
0000
1000
0000
0001
0000
1000
0001
1000
0000
0000
0000
,  // measure 32
0001
0001
0100
0000
0100
0100
0010
0000
,  // measure 33
0010
0010
1000
0000
1000
0001
1001
0000
,  // measure 34
1000
1000
0100
0000
0100
0100
0010
0000
,  // measure 35
0010
0010
0001
0000
2000
0000
3002
0000
,  // measure 36
2003
0000
0000
3200
0000
0000
0302
0000
,  // measure 37
0000
0000
0000
0203
0000
0000
2300
0000
,  // measure 38
3002
0000
0000
0023
0000
0000
2030
0000
,  // measure 39
0000
0000
0000
3020
0000
0000
0032
0000
,  // measure 40
2003
0000
0000
3020
0000
0000
0032
0000
,  // measure 41
0000
0000
0000
0023
0000
0000
2030
0000
,  // measure 42
3002
0000
0000
0203
0000
0000
2300
0000
,  // measure 43
0000
0000
0000
3200
0000
0000
0302
0000
,  // measure 44
2003
0000
3000
0000
0001
0100
0010
2000
0000
3000
0000
0001
0010
0100
1000
0010
,  // measure 45
0000
0100
0000
0010
0000
0100
0000
0020
0000
0030
0000
0000
1000
0100
0010
0002
,  // measure 46
0000
0000
0003
0000
0001
0010
0100
2000
0000
0000
3000
0000
0010
0100
0001
2000
,  // measure 47
0001
0000
0100
0000
3001
1000
0000
0000
,  // measure 48
1100
0011
1010
0101
,  // measure 49
0001
0010
0100
1000
0001
0000
0000
0000
,  // measure 50
1010
0101
0011
1100
,  // measure 51
1000
0100
0010
0001
1000
0000
0000
0000
,  // measure 52
0002
0103
0020
1030
,  // measure 53
0001
0100
0010
1000
0001
0000
0000
0000
,  // measure 54
2000
3100
0020
0031
,  // measure 55
1000
0010
0100
0001
1000
0000
0000
0000
,  // measure 56
0001
0000
0001
0000
1000
1000
1000
0000
,  // measure 57
0010
0000
0100
0000
0010
0000
0100
0010
0100
0000
0010
0000
0100
0000
0000
0000
,  // measure 58
0010
0000
0010
0000
0100
0100
0100
0000
,  // measure 59
0001
0000
1000
0000
0001
0000
1000
0001
1000
0000
0001
0000
1000
0000
0000
0000
,  // measure 60
0001
0000
0001
0000
0100
0100
0100
0000
,  // measure 61
0010
0000
1000
0000
0010
0000
1000
0010
1000
0000
0010
0000
1000
0000
0000
0000
,  // measure 62
0010
0000
0010
0000
1000
1000
1000
0000
,  // measure 63
0001
0000
0001
0000
1000
0000
1000
0000
0001
0000
1000
0100
0010
0001
0100
0010
,  // measure 64
1000
0000
1010
0000
0010
0010
0010
0000
,  // measure 65
1000
0100
0001
0100
1000
0001
1000
0000
,  // measure 66
1010
0000
0101
0000
0100
0100
0100
0000
,  // measure 67
0001
0100
1000
0100
0001
1000
0001
0000
,  // measure 68
1100
0000
0011
0000
0001
0001
0001
0000
,  // measure 69
1000
0010
0001
0010
1000
0001
1000
0000
,  // measure 70
0011
0000
1100
0000
1000
1000
1000
0000
,  // measure 71
0001
0010
1000
0010
0001
1000
0001
0000
,  // measure 72
1001
0000
1001
0000
1000
0100
0001
0000
,  // measure 73
0001
0100
1000
0010
0001
0010
1000
0000
,  // measure 74
1001
0000
1001
0000
0001
0100
1000
0000
,  // measure 75
1000
0100
0001
0010
1000
0010
0001
0000
,  // measure 76
1001
0000
1001
0000
1000
0010
0001
0000
,  // measure 77
0001
0010
1000
0100
0001
0100
1000
0000
,  // measure 78
1001
0000
1001
0000
0001
0010
1000
0000
,  // measure 79
1000
0010
0001
0100
1000
0100
0001
0000
,  // measure 80
1001
0000
0110
0000
0100
0001
1000
0000
,  // measure 81
0001
0100
1000
0100
0001
0100
0010
0000
,  // measure 82
0110
0000
1001
0000
0001
0100
0010
0000
,  // measure 83
1000
0100
0001
0100
1000
0001
1000
0000
,  // measure 84
1001
0000
0110
0000
0100
0001
1000
0000
,  // measure 85
0001
0010
1000
0010
0001
0100
0010
0000
,  // measure 86
0110
0000
1001
0000
1000
0001
0100
0000
,  // measure 87
0001
0100
1000
0100
0001
1000
0001
0000
,  // measure 88
4004
0000
0000
0000
,  // measure 89
3003
0000
0000
0000
,  // measure 90
0011
1100
0101
1010
,  // measure 91
1000
0100
0010
0001
1000
0000
0000
0000
,  // measure 92
0101
1010
1100
0011
,  // measure 93
0001
0010
0100
1000
0001
0000
0000
0000
,  // measure 94
1010
1100
0101
0011
,  // measure 95
0001
0100
0010
1000
0001
0000
0000
0000
,  // measure 96
0101
0011
1010
1100
,  // measure 97
1000
0010
0100
0001
1000
0000
0000
0000
,  // measure 98
0011
0110
1100
1001
,  // measure 99
1000
0000
0001
1000
0001
0000
0100
0000
0020
0000
0000
0000
0030
0000
0000
0000
,  // measure 100
1100
0110
0011
1001
,  // measure 101
0001
0000
1000
0001
1000
0000
0010
0000
0200
0000
0000
0000
0300
0000
0000
0000
,  // measure 102
0011
0110
1100
1001
,  // measure 103
1000
0000
0010
0100
0010
0000
1000
0000
0002
0000
0000
0000
0003
0000
0000
0000
,  // measure 104
1100
0110
0011
1001
,  // measure 105
0001
0000
0010
0000
0100
0000
1000
0000
0001
0000
1000
0001
1000
0000
0000
0000
;

//---------------dance-single - ----------------
#NOTEDATA:;
#CHARTNAME:;
#STEPSTYPE:dance-single;
#DESCRIPTION:;
#CHARTSTYLE:;
#DIFFICULTY:Medium;
#METER:5;
#RADARVALUES:0.265580,0.350171,0.056765,0.156104,0.011826,393.000000,381.000000,12.000000,33.000000,0.000000,0.000000,0.000000,0.000000,0.000000,0.265580,0.350171,0.056765,0.156104,0.011826,393.000000,381.000000,12.000000,33.000000,0.000000,0.000000,0.000000,0.000000,0.000000;
#CREDIT:Lisek;
#NOTES:
0000
0000
0000
0000
,
0000
0000
0000
0000
,
0000
0000
0000
0000
,
0000
0000
0000
0000
,
1000
0001
0100
0010
,
1000
0000
0000
0000
,
0001
0010
0100
1000
,
0001
0000
1000
0010
,
0200
0300
0001
0100
,
0020
0000
0030
0000
1000
0000
0001
1000
,
0000
0001
0000
1000
0000
0001
0000
0200
,
0000
0300
0000
0000
0001
0000
1000
0000
,
0020
0030
0100
0001
,
2000
3000
0001
1000
,
2002
0000
0000
0000
,
3003
0000
0000
0000
,
1000
0100
0010
0001
,
1000
0000
0001
1000
0001
0000
0000
0000
,
1000
0010
0100
0001
,
1000
0000
0010
0100
0001
0000
0000
0000
,
0001
0010
0100
1000
,
0001
0000
1000
0001
1000
0000
0000
0000
,
0001
0100
0010
1000
,
0001
0000
0100
0010
1000
0000
0000
0000
,
0001
0100
0001
1000
,
0001
0000
0001
0100
0001
0000
0000
0000
,
1000
0010
1000
0100
,
1000
0000
1000
0010
1000
0000
0000
0000
,
0001
0010
0001
0100
,
0001
0000
0001
0100
0001
0000
0000
0000
,
1000
0001
1000
0010
,
1000
0001
1000
0001
1000
0001
1000
0000
,
0001
1000
0001
0000
1000
0001
1000
0000
,
0001
1000
0001
0000
1002
0000
1003
0000
,
0100
0010
0100
0000
0010
0100
0010
0000
,
0100
0010
0100
0000
0110
0000
0000
0000
,
0001
0100
0010
1000
,
0001
0000
0000
0000
,
1000
0100
0010
0001
,
1000
0000
0000
0000
,
0001
0010
0100
1000
,
0001
0000
0000
0000
,
1000
0010
0100
0001
,
1000
0000
0001
1000
,
0002
0000
0003
0000
1000
0000
0001
0000
2000
0000
3000
0000
0010
0000
0100
0001
,
0000
1000
0000
0001
0000
1000
0000
0010
0000
0000
0000
0000
1000
0000
0100
0000
,
2000
3000
0001
0100
0002
0003
1000
0001
,
0200
0000
0300
0000
,
0001
0100
0010
1000
,
0001
0000
1000
0001
1000
0000
0000
0000
,
0001
0010
0100
1000
,
0001
0000
1000
0001
1000
0000
0000
0000
,
1000
0010
0100
0001
,
1000
0000
0001
1000
0001
0000
0000
0000
,
1000
0100
0010
0001
,
1000
0000
0001
1000
0001
0000
0000
0000
,
1000
0000
1000
0000
0001
1000
0001
0000
,
0100
0010
1000
0001
,
0100
0000
0100
0000
0010
0100
0010
0000
,
1000
0001
0100
0001
,
1000
0000
1000
0000
0001
1000
0001
0000
,
1000
0010
0100
0001
,
0100
0000
0100
0000
0010
0100
0010
0000
,
2000
3002
1003
0000
,
1001
1001
0001
1000
,
0001
0100
0010
1000
,
1001
1001
1000
0010
,
0100
0001
1000
0001
,
1001
1001
0001
0100
,
0010
1000
0001
1000
,
1001
1001
1000
0100
,
0010
0001
1000
0010
,
0200
0000
0302
0000
,
1003
0010
0100
0001
,
2000
0000
3200
0000
,
1300
0100
0010
0001
,
2000
0000
3002
0000
,
1003
0010
0100
0001
,
2000
0000
3020
0000
,
1030
0100
0010
0001
,
2000
0000
3002
0000
,
0103
0000
0010
0000
0100
0010
0100
0000
,
0002
0000
2003
0000
,
3010
0000
0100
0000
0010
0100
0010
0000
,
0200
0000
0320
0000
,
1030
0000
0001
0000
1000
0001
1000
0000
,
0020
0000
0230
0000
,
0301
0000
1000
0000
0001
1000
0001
0000
,
2002
0000
0000
0000
,
3003
0000
0000
0000
,
1000
0001
0100
0001
,
1000
0000
0010
0100
0010
0000
0000
0000
,
1000
0010
0100
0010
,
1000
0000
0010
0100
0001
0000
0000
0000
,
0001
0100
0010
0100
,
0001
0000
0100
0010
0100
0000
0000
0000
,
0001
1000
0010
1000
,
0001
0000
0100
0010
1000
0000
0000
0000
,
0001
0100
0010
1000
,
0001
0000
0100
0010
0100
0000
0000
0000
,
0010
1000
0001
0100
,
0010
0000
1000
0100
1000
0000
0000
0000
,
0001
0010
0100
1000
,
0100
0000
1000
0001
1000
0000
0000
0000
,
0001
0010
0100
1000
,
0001
1000
0001
1000
0001
1000
0001
0000
;

//---------------dance-single - ----------------
#NOTEDATA:;
#CHARTNAME:;
#STEPSTYPE:dance-single;
#DESCRIPTION:;
#CHARTSTYLE:;
#DIFFICULTY:Beginner;
#METER:1;
#RADARVALUES:0.050007,0.124174,0.000000,0.085148,0.000000,74.000000,74.000000,0.000000,18.000000,0.000000,0.000000,0.000000,0.000000,0.000000,0.050007,0.124174,0.000000,0.085148,0.000000,74.000000,74.000000,0.000000,18.000000,0.000000,0.000000,0.000000,0.000000,0.000000;
#CREDIT:Lisek;
#NOTES:
0000
0000
0000
0000
,
0000
0000
0000
0000
,
0000
0000
0000
0000
,
0000
0000
0000
0000
,
0000
0000
0000
0000
,
0000
0000
0000
0000
,
0000
0000
0000
0000
,
0000
0000
0000
0000
,
1000
0000
0000
0000
,
0001
0000
0000
0000
,
1000
0000
0000
0000
,
0001
0000
0000
0000
,
0100
0000
0000
0000
,
0010
0000
0000
0000
,
0200
0000
0000
0000
,
0300
0000
0000
0000
,
0001
0000
0000
0000
,
1000
0000
0000
0000
,
0001
0000
0000
0000
,
0100
0000
0000
0000
,
0010
0000
0000
0000
,
1000
0000
0000
0000
,
0010
0000
0000
0000
,
0100
0000
0000
0000
,
0002
0000
0000
0000
,
0000
0000
0000
0003
,
2000
0000
0000
0000
,
0000
0000
0000
3000
,
0020
0000
0000
0000
,
0000
0000
0000
0030
,
0200
0000
0000
0000
,
0000
0000
0000
0300
,
0000
0000
0000
0000
,
0000
0000
0000
0000
,
0000
0000
0000
0000
,
0000
0000
0000
0000
,
0001
0000
0000
0000
,
0000
0000
0000
0000
,
1000
0000
0000
0000
,
0000
0000
0000
0000
,
0010
0000
0000
0000
,
0000
0000
0000
0000
,
0100
0000
0000
0000
,
0000
0000
0000
0000
,
0001
0000
1000
0000
,
0001
0000
1000
0000
,
0010
0000
0100
0000
,
0020
0000
0030
0000
,
1000
0000
0000
0000
,
0001
0000
0000
0000
,
1000
0000
0000
0000
,
0001
0000
0000
0000
,
0100
0000
0000
0000
,
0010
0000
0000
0000
,
0100
0000
0000
0000
,
0010
0000
0000
0000
,
2000
0000
0000
0000
,
0000
0000
0000
3000
,
0002
0000
0000
0000
,
0000
0000
0000
0003
,
0200
0000
0000
0000
,
0000
0000
0000
0300
,
0020
0000
0000
0000
,
0030
0000
0000
0000
,
1000
0000
0000
0000
,
0100
0000
0000
0000
,
0010
0000
0000
0000
,
0001
0000
0000
0000
,
1000
0000
0000
0000
,
0010
0000
0000
0000
,
0100
0000
0000
0000
,
0001
0000
0000
0000
,
2000
0000
0000
0000
,
0000
0000
0000
3000
,
0200
0000
0000
0000
,
0000
0000
0000
0300
,
0020
0000
0000
0000
,
0000
0000
0000
0030
,
0002
0000
0000
0000
,
0000
0000
0000
0003
,
2000
0000
0000
0000
,
0000
0000
0000
3000
,
0020
0000
0000
0000
,
0000
0000
0000
0030
,
0200
0000
0000
0000
,
0000
0000
0000
0300
,
0002
0000
0000
0000
,
0000
0000
0000
0003
,
0000
0000
0000
0000
,
0000
0000
0000
0000
,
1000
0000
0000
0000
,
0100
0000
0000
0000
,
1000
0000
0000
0000
,
0100
0000
0000
0000
,
0010
0000
0000
0000
,
0001
0000
0000
0000
,
0010
0000
0000
0000
,
0001
0000
0000
0000
,
1000
0000
0000
0000
,
0010
0000
0000
0000
,
0100
0000
0000
0000
,
0001
0000
0000
0000
,
1000
0000
0000
0000
,
0100
0000
0000
0000
,
0010
0000
0000
0000
,
0001
0000
0000
0000
;

//---------------dance-single - ----------------
#NOTEDATA:;
#CHARTNAME:;
#STEPSTYPE:dance-single;
#DESCRIPTION:;
#CHARTSTYLE:;
#DIFFICULTY:Easy;
#METER:2;
#RADARVALUES:0.098663,0.150073,0.004730,0.189217,0.000000,146.000000,145.000000,1.000000,40.000000,0.000000,0.000000,0.000000,0.000000,0.000000,0.098663,0.150073,0.004730,0.189217,0.000000,146.000000,145.000000,1.000000,40.000000,0.000000,0.000000,0.000000,0.000000,0.000000;
#CREDIT:Lisek;
#NOTES:
0000
0000
0000
0000
,
0000
0000
0000
0000
,
0000
0000
0000
0000
,
0000
0000
0000
0000
,
1000
0000
0000
0000
,
0000
0000
0000
0000
,
0001
0000
0000
0000
,
0000
0000
0000
0000
,
1000
0000
0000
0000
,
0001
0000
0000
0000
,
0100
0000
0000
0000
,
0010
0000
0000
0000
,
1000
0000
0000
0000
,
0001
0000
0000
0000
,
0200
0000
0000
0000
,
0300
0000
0000
0000
,
0001
0000
1000
0000
,
0002
0000
0003
0000
,
1000
0000
0010
0000
,
2000
0000
3000
0000
,
0001
0000
0100
0000
,
0002
0000
0003
0000
,
0100
0000
0010
0000
,
0200
0000
0300
0000
,
0001
0000
0100
0000
,
0020
0000
0030
0000
,
1000
0000
0010
0000
,
0200
0000
0300
0000
,
0001
0000
0010
0000
,
0200
0000
0300
0000
,
1000
0000
0100
0000
,
0020
0000
0000
0030
,
0002
0003
2000
3000
,
0002
0003
1000
0000
,
0020
0030
0200
0300
,
0020
0030
0100
0000
,
0002
0000
0000
0000
,
0000
0003
0000
0000
,
2000
0000
0000
0000
,
0000
3000
0000
0000
,
0020
0000
0000
0000
,
0000
0030
0000
0000
,
0200
0000
0000
0000
,
0000
0300
0000
0000
,
0001
0000
1000
0000
,
0001
0000
1000
0000
,
0010
0000
0100
0000
,
0020
0000
0030
0000
,
1000
0000
0100
0000
,
2000
0000
3000
0000
,
0001
0000
0100
0000
,
0002
0000
0003
0000
,
1000
0000
0010
0000
,
2000
0000
3000
0000
,
0001
0000
0010
0000
,
0002
0000
0003
0000
,
1000
0000
0001
0000
,
1000
0001
1000
0000
,
0010
0000
0100
0000
,
0010
0100
0010
0000
,
1000
0000
0100
0000
,
1000
0100
1000
0000
,
0001
0000
0010
0000
,
0002
2003
3001
0000
,
1000
0000
0010
0000
,
0100
0000
0010
0000
,
1000
0000
0001
0000
,
0100
0000
0001
0000
,
1000
0000
0010
0000
,
1000
0000
0001
0000
,
1000
0000
0100
0000
,
1000
0000
0001
0000
,
2000
0000
0000
0000
,
0000
0000
0000
3000
,
0002
0000
0000
0000
,
0000
0000
0000
0003
,
0200
0000
0000
0000
,
0000
0000
0000
0300
,
0020
0000
0000
0000
,
0000
0000
0000
0030
,
2000
0000
0100
0000
,
0100
0000
0000
3000
,
0200
0000
0010
0000
,
0010
0000
0000
0300
,
0020
0000
0001
0000
,
0001
0000
0000
0030
,
0002
0000
1000
0000
,
1000
0000
0000
0003
,
2002
0000
0000
0000
,
3003
0000
0000
0000
,
0001
0000
0100
0000
,
0010
0000
0100
0000
,
0001
0000
1000
0000
,
0010
0000
1000
0000
,
0001
0000
0100
0000
,
0010
0000
1000
0000
,
0001
0000
0010
0000
,
0100
0000
1000
0000
,
0001
0000
1000
0000
,
0020
0000
0030
0000
,
0100
0000
0001
0000
,
2000
0000
3000
0000
,
0001
0000
1000
0000
,
0020
0000
0030
0000
,
1000
0000
0001
0000
,
0200
0000
0000
0300
;
