#TITLE:Live Forever;
#SUBTITLE:;
#ARTIST:Magnus Carlsson;
#TITLETRANSLIT:;
#SUBTITLETRANSLIT:;
#ARTISTTRANSLIT:;
#GENRE:;
#CREDIT:;
#BANNER:.;
#BACKGROUND:;
#LYRICSPATH:;
#CDTITLE:;
#MUSIC:Live Forever.ogg;
#OFFSET:-1.026;
#SAMPLESTART:38.920;
#SAMPLELENGTH:11.920;
#SELECTABLE:YES;
#DISPLAYBPM:160.000;
#BPMS:0.000=160.000;
#STOPS:;
#TIMESIGNATURES:0.000=4=4
;
#BGCHANGES:;
#KEYSOUNDS:;

//---------------dance-single - ----------------
#NOTES:
     dance-single:
     :
     Challenge:
     9:
     0.742,0.744,0.114,0.858,0.022,777.000,21.000,158.000,0.000,0.000,0.000,0.742,0.744,0.114,0.858,0.022,777.000,21.000,158.000,0.000,0.000,0.000: // measure 1
0000
0000
0000
0000
,  // measure 2
1000
0010
1000
0010
1000
0001
1000
0001
,  // measure 3
0020
0000
0000
0000
,  // measure 4
0031
0010
0001
0010
0001
1000
0001
1000
,  // measure 5
0020
0000
0000
0000
,  // measure 6
1030
0100
1000
0100
1000
0001
1000
0001
,  // measure 7
0200
0000
0000
0001
,  // measure 8
0301
0100
0001
0100
0001
1000
0001
1000
,  // measure 9
0200
0000
0000
0000
,  // measure 10
0000
0000
0000
0300
,  // measure 11
0110
0000
0100
0100
0100
0000
1000
0001
,  // measure 12
0100
0010
1000
0100
,  // measure 13
0010
0000
0001
0001
0001
0000
0100
0010
,  // measure 14
0000
1010
0000
1001
0000
0011
0000
0010
,  // measure 15
0100
0000
1000
1000
1000
0000
0001
0100
,  // measure 16
0010
1000
0001
0011
,  // measure 17
1001
0000
1000
2000
0000
0000
0000
0000
,  // measure 18
0200
0000
0000
0000
0000
3000
1300
0100
,  // measure 19
0010
0000
0001
0001
0001
0000
1000
0001
,  // measure 20
0100
0010
1000
0001
,  // measure 21
0010
0000
0001
0001
0001
0000
1000
0010
,  // measure 22
0000
0110
0000
0101
0000
1001
0000
1000
,  // measure 23
0100
0000
0010
0010
0010
0000
0100
1000
,  // measure 24
0001
0100
0010
0110
,  // measure 25
0100
0100
0001
0001
1000
1000
0100
0100
,  // measure 26
0020
0001
0100
0031
,  // measure 27
0020
0031
1000
0001
0020
0031
1000
0020
,  // measure 28
0130
0000
0000
0000
0000
0000
0000
0000
0000
0000
0000
0000
0000
0000
0000
0000
0000
0000
0000
0000
0000
0000
0000
0000
0020
0000
0000
0000
0000
0000
0000
0000
0000
0000
0000
0000
0000
0000
0000
0000
0000
0000
0000
0000
0000
0000
0000
0000
1030
0000
0000
0000
0000
0000
0000
0000
0000
0000
0000
0000
0000
0000
0000
0000
0000
0000
0000
0000
0000
0000
0000
0000
0001
0000
0000
0000
0000
0000
0000
0000
0000
0000
0000
0000
0000
0000
0000
0000
0000
0000
0000
0000
0000
0000
0000
0000
1000
0000
0000
0000
0000
0000
0000
0000
0000
0000
0000
0000
0000
0000
0000
0000
0000
0000
0000
0000
0000
0000
0000
0000
0100
0000
0000
0000
0000
0000
0000
0000
0000
0000
0000
0000
0000
0000
0000
0000
0000
0000
0000
0000
0000
0000
0000
0000
0020
0000
0000
0000
0000
0000
0000
0000
0000
0000
0000
0000
0000
0000
0000
0000
0000
0000
0000
0000
0000
0000
0000
0030
0020
0000
0000
0000
0000
0000
0000
0000
0000
0000
0000
0000
0000
0000
0000
0000
0000
0000
0000
0000
0000
0000
0000
0030
,  // measure 29
0020
0130
1000
0020
0130
0020
1030
0020
,  // measure 30
0130
0001
0010
0001
1000
0001
0010
0001
,  // measure 31
0200
0310
1000
0001
0200
0310
1000
0200
,  // measure 32
0310
0200
1300
0001
1000
0010
0200
0301
,  // measure 33
0200
0310
1000
0001
0200
0310
1000
0200
,  // measure 34
0320
0001
0100
0031
,  // measure 35
0020
0031
1000
0001
0020
0031
1000
0020
,  // measure 36
0130
0000
0000
0000
0000
0000
0000
0000
0000
0000
0000
0000
0000
0000
0000
0000
0000
0000
0000
0000
0000
0000
0000
0000
0020
0000
0000
0000
0000
0000
0000
0000
0000
0000
0000
0000
0000
0000
0000
0000
0000
0000
0000
0000
0000
0000
0000
0000
1030
0000
0000
0000
0000
0000
0000
0000
0000
0000
0000
0000
0000
0000
0000
0000
0000
0000
0000
0000
0000
0000
0000
0000
0001
0000
0000
0000
0000
0000
0000
0000
0000
0000
0000
0000
0000
0000
0000
0000
0000
0000
0000
0000
0000
0000
0000
0000
1000
0000
0000
0000
0000
0000
0000
0000
0000
0000
0000
0000
0000
0000
0000
0000
0000
0000
0000
0000
0000
0000
0000
0000
0100
0000
0000
0000
0000
0000
0000
0000
0000
0000
0000
0000
0000
0000
0000
0000
0000
0000
0000
0000
0000
0000
0000
0000
0020
0000
0000
0000
0000
0000
0000
0000
0000
0000
0000
0000
0000
0000
0000
0000
0000
0000
0000
0000
0000
0000
0000
0030
0001
0000
0000
0000
0000
0000
0000
0000
0000
0000
0000
0000
0000
0000
0000
0000
0000
0000
0000
0000
0000
0000
0000
0000
,  // measure 37
0020
0130
1000
0020
0130
0020
1030
0020
,  // measure 38
0130
0001
0010
0001
1000
0001
0010
0001
,  // measure 39
0200
0310
1000
0001
0200
0310
1000
0200
,  // measure 40
0310
0200
1300
0001
1000
0010
0200
0301
,  // measure 41
0200
0310
1000
0001
0200
0310
1000
0200
,  // measure 42
0310
0010
0100
0100
1000
1000
0001
0001
,  // measure 43
0102
0000
0100
0100
0203
0000
0010
0320
,  // measure 44
0000
0000
0000
0000
2030
0000
0000
0000
0000
0000
0000
0000
0000
0000
0000
0000
0000
0000
0000
0000
0000
0000
0000
0000
0000
0000
0000
0000
0000
0000
3010
1000
,  // measure 45
0010
0000
1000
1000
1000
0000
0010
0100
,  // measure 46
0000
0101
0000
1001
0000
1100
0000
0100
,  // measure 47
0010
0000
0001
0001
0001
0000
1000
0010
,  // measure 48
0001
0010
1000
1100
,  // measure 49
1001
0000
0001
0002
0000
0000
0000
0000
,  // measure 50
0020
0000
0000
0000
0000
0003
0031
0010
,  // measure 51
0100
0000
1000
1000
1000
0000
0001
1000
,  // measure 52
0010
0100
0001
1000
,  // measure 53
0100
0000
1000
1000
1000
0000
0001
0100
,  // measure 54
0000
0110
0000
1010
0000
1001
0000
0001
,  // measure 55
0010
0000
0100
0100
0100
0000
0010
0001
,  // measure 56
1000
0010
0100
0110
,  // measure 57
0010
0010
1000
1000
0001
0001
0010
0010
,  // measure 58
0200
1000
0010
1300
,  // measure 59
0200
1300
0001
1000
0200
1300
0001
0200
,  // measure 60
0310
0000
0000
0000
0000
0000
0000
0000
0000
0000
0000
0000
0000
0000
0000
0000
0000
0000
0000
0000
0000
0000
0000
0000
0200
0000
0000
0000
0000
0000
0000
0000
0000
0000
0000
0000
0000
0000
0000
0000
0000
0000
0000
0000
0000
0000
0000
0000
0301
0000
0000
0000
0000
0000
0000
0000
0000
0000
0000
0000
0000
0000
0000
0000
0000
0000
0000
0000
0000
0000
0000
0000
1000
0000
0000
0000
0000
0000
0000
0000
0000
0000
0000
0000
0000
0000
0000
0000
0000
0000
0000
0000
0000
0000
0000
0000
0001
0000
0000
0000
0000
0000
0000
0000
0000
0000
0000
0000
0000
0000
0000
0000
0000
0000
0000
0000
0000
0000
0000
0000
0010
0000
0000
0000
0000
0000
0000
0000
0000
0000
0000
0000
0000
0000
0000
0000
0000
0000
0000
0000
0000
0000
0000
0000
0200
0000
0000
0000
0000
0000
0000
0000
0000
0000
0000
0000
0000
0000
0000
0000
0000
0000
0000
0000
0000
0000
0000
0300
0200
0000
0000
0000
0000
0000
0000
0000
0000
0000
0000
0000
0000
0000
0000
0000
0000
0000
0000
0000
0000
0000
0000
0300
,  // measure 61
0200
0310
0001
0200
0310
0200
0301
0200
,  // measure 62
0310
1000
0100
1000
0001
1000
0100
1000
,  // measure 63
0020
0130
0001
1000
0020
0130
0001
0020
,  // measure 64
0130
0020
0031
1000
0001
0100
0020
1030
,  // measure 65
0020
0130
0001
1000
0020
0130
0001
0020
,  // measure 66
0230
1000
0010
1300
,  // measure 67
0200
1300
0001
1000
0200
1300
0001
0200
,  // measure 68
0310
0000
0000
0000
0000
0000
0000
0000
0000
0000
0000
0000
0000
0000
0000
0000
0000
0000
0000
0000
0000
0000
0000
0000
0200
0000
0000
0000
0000
0000
0000
0000
0000
0000
0000
0000
0000
0000
0000
0000
0000
0000
0000
0000
0000
0000
0000
0000
0301
0000
0000
0000
0000
0000
0000
0000
0000
0000
0000
0000
0000
0000
0000
0000
0000
0000
0000
0000
0000
0000
0000
0000
1000
0000
0000
0000
0000
0000
0000
0000
0000
0000
0000
0000
0000
0000
0000
0000
0000
0000
0000
0000
0000
0000
0000
0000
0001
0000
0000
0000
0000
0000
0000
0000
0000
0000
0000
0000
0000
0000
0000
0000
0000
0000
0000
0000
0000
0000
0000
0000
0010
0000
0000
0000
0000
0000
0000
0000
0000
0000
0000
0000
0000
0000
0000
0000
0000
0000
0000
0000
0000
0000
0000
0000
0200
0000
0000
0000
0000
0000
0000
0000
0000
0000
0000
0000
0000
0000
0000
0000
0000
0000
0000
0000
0000
0000
0000
0300
1000
0000
0000
0000
0000
0000
0000
0000
0000
0000
0000
0000
0000
0000
0000
0000
0000
0000
0000
0000
0000
0000
0000
0000
,  // measure 69
0200
0310
0001
0200
0310
0200
0301
0200
,  // measure 70
0310
1000
0100
1000
0001
1000
0100
1000
,  // measure 71
0020
0130
0001
1000
0020
0130
0001
0020
,  // measure 72
0130
0020
0031
1000
0001
0100
0020
1030
,  // measure 73
0020
0130
0001
1000
0020
0130
0001
0020
,  // measure 74
0130
0100
0010
0010
0001
0001
1000
1000
,  // measure 75
0010
1000
0010
1000
0001
0000
0100
0001
0100
0001
1000
0000
0100
0010
0100
0010
,  // measure 76
0002
0000
0000
0100
0103
0001
1000
0100
,  // measure 77
0010
0100
1000
0001
0100
0010
0100
0001
,  // measure 78
1000
0010
0100
0010
1000
0001
0010
0100
,  // measure 79
0010
0001
1000
0010
0100
0010
1000
0100
,  // measure 80
0020
0000
0000
0100
0130
0010
0100
1000
,  // measure 81
0001
0100
0010
0100
0001
1000
0010
0100
,  // measure 82
0010
1000
0001
0010
0100
0010
0001
1000
,  // measure 83
0100
0010
0100
1000
0001
0100
0010
0100
,  // measure 84
0001
1000
0010
0100
,  // measure 85
0020
1000
0100
1030
,  // measure 86
0020
1030
0001
0100
0020
1030
0100
0020
,  // measure 87
0031
0000
0000
0000
0000
0000
0000
0000
0000
0000
0000
0000
0000
0000
0000
0000
0000
0000
0000
0000
0000
0000
0000
0000
0020
0000
0000
0000
0000
0000
0000
0000
0000
0000
0000
0000
0000
0000
0000
0000
0000
0000
0000
0000
0000
0000
0000
0000
0130
0000
0000
0000
0000
0000
0000
0000
0000
0000
0000
0000
0000
0000
0000
0000
0000
0000
0000
0000
0000
0000
0000
0000
1000
0000
0000
0000
0000
0000
0000
0000
0000
0000
0000
0000
0000
0000
0000
0000
0000
0000
0000
0000
0000
0000
0000
0000
0001
0000
0000
0000
0000
0000
0000
0000
0000
0000
0000
0000
0000
0000
0000
0000
0000
0000
0000
0000
0000
0000
0000
0000
0100
0000
0000
0000
0000
0000
0000
0000
0000
0000
0000
0000
0000
0000
0000
0000
0000
0000
0000
0000
0000
0000
0000
0000
0020
0000
0000
0000
0000
0000
0000
0000
0000
0000
0000
0000
0000
0000
0000
0000
0000
0000
0000
0000
0000
0000
0000
0030
0020
0000
0000
0000
0000
0000
0000
0000
0000
0000
0000
0000
0000
0000
0000
0000
0000
0000
0000
0000
0000
0000
0000
0030
,  // measure 88
0020
0130
0001
0020
0130
0020
0031
0020
,  // measure 89
0130
1000
0010
1000
0001
1000
0100
0010
,  // measure 90
0200
1300
0001
0010
0200
1300
0001
0200
,  // measure 91
0310
0200
0301
1000
0010
1000
0200
0310
,  // measure 92
0200
1300
0001
1000
0200
0310
0001
0200
,  // measure 93
0320
1000
0100
1030
,  // measure 94
0020
1030
0001
0100
0020
1030
0100
0020
,  // measure 95
0031
0000
0000
0000
0000
0000
0000
0000
0000
0000
0000
0000
0000
0000
0000
0000
0000
0000
0000
0000
0000
0000
0000
0000
0020
0000
0000
0000
0000
0000
0000
0000
0000
0000
0000
0000
0000
0000
0000
0000
0000
0000
0000
0000
0000
0000
0000
0000
0130
0000
0000
0000
0000
0000
0000
0000
0000
0000
0000
0000
0000
0000
0000
0000
0000
0000
0000
0000
0000
0000
0000
0000
1000
0000
0000
0000
0000
0000
0000
0000
0000
0000
0000
0000
0000
0000
0000
0000
0000
0000
0000
0000
0000
0000
0000
0000
0001
0000
0000
0000
0000
0000
0000
0000
0000
0000
0000
0000
0000
0000
0000
0000
0000
0000
0000
0000
0000
0000
0000
0000
0100
0000
0000
0000
0000
0000
0000
0000
0000
0000
0000
0000
0000
0000
0000
0000
0000
0000
0000
0000
0000
0000
0000
0000
0020
0000
0000
0000
0000
0000
0000
0000
0000
0000
0000
0000
0000
0000
0000
0000
0000
0000
0000
0000
0000
0000
0000
0030
1000
0000
0000
0000
0000
0000
0000
0000
0000
0000
0000
0000
0000
0000
0000
0000
0000
0000
0000
0000
0000
0000
0000
0000
,  // measure 96
0020
0130
0001
0020
0130
0020
0031
0020
,  // measure 97
0130
1000
0010
1000
0001
1000
0100
0010
,  // measure 98
0200
1300
0001
0010
0200
1300
0001
0200
,  // measure 99
0310
0200
0301
1000
0010
1000
0200
0310
,  // measure 100
0200
1300
0001
1000
0200
0310
0001
0200
,  // measure 101
0310
0010
1000
1000
0001
0001
0010
0010
,  // measure 102
0200
1300
0001
0010
0200
1300
0010
1000
,  // measure 103
0200
0310
0001
1000
0001
0010
0001
1000
,  // measure 104
0020
1030
0100
1000
0020
1030
0001
0100
,  // measure 105
0020
1030
0001
0010
0100
0010
0001
1000
,  // measure 106
0002
0013
0100
1000
0002
0103
0010
0100
,  // measure 107
0002
1003
0010
1000
0001
1000
0200
0310
,  // measure 108
0200
1300
0001
0010
0200
1300
0001
0200
,  // measure 109
0320
1000
0100
1030
,  // measure 110
0020
0130
0001
1000
0020
1030
0100
0020
,  // measure 111
0031
0020
1030
0010
0100
1000
0020
1030
,  // measure 112
0200
0310
0001
0200
1300
0200
0301
0200
,  // measure 113
0310
1000
0100
1000
0001
0010
0001
1000
,  // measure 114
0200
0310
0001
1000
0200
0310
0001
0200
,  // measure 115
1300
0200
0301
1000
0001
0010
0200
1300
,  // measure 116
0020
0130
1000
0100
0020
0130
0001
0020
,  // measure 117
0130
0000
1000
0100
0010
0001
1000
0001
,  // measure 118
0100
0000
0010
1000
0001
1000
0100
0010
,  // measure 119
0022
0000
0000
0000
,  // measure 120
0033
0000
0000
0000
;

//---------------dance-single - ----------------
#NOTES:
     dance-single:
     :
     Hard:
     8:
     0.498,0.517,0.369,0.147,0.000,546.000,68.000,27.000,0.000,0.000,0.000,0.498,0.517,0.369,0.147,0.000,546.000,68.000,27.000,0.000,0.000,0.000: // measure 1
0000
0000
0000
0000
,  // measure 2
0002
0000
0203
0000
,  // measure 3
0320
0000
0000
0000
,  // measure 4
2030
0000
3200
0000
,  // measure 5
0320
0000
0000
0000
,  // measure 6
0032
0000
0203
0000
,  // measure 7
0320
0000
0000
1000
,  // measure 8
2030
0000
3200
0000
,  // measure 9
0320
0000
0000
0000
,  // measure 10
0000
0000
0000
0000
,  // measure 11
0130
0000
1000
0100
1000
0000
0001
0100
,  // measure 12
0000
0001
0000
0000
0000
0000
0000
0000
,  // measure 13
0000
0000
1000
0010
1000
0000
0001
0010
,  // measure 14
0000
0100
0000
0010
0000
0001
0000
1000
,  // measure 15
0000
0000
0001
0100
0001
0000
1000
0100
,  // measure 16
0000
1000
0000
0000
0000
0000
1001
0000
,  // measure 17
0201
0000
0010
0320
0000
0000
0000
0000
,  // measure 18
2030
0000
0000
0000
0000
0000
0001
3001
,  // measure 19
1000
0000
0001
0010
0001
0000
1000
0010
,  // measure 20
0000
1000
0000
0000
0000
0000
0000
0000
,  // measure 21
0000
0000
0001
0100
0001
0000
1000
0100
,  // measure 22
0000
0010
0000
0100
0000
1000
0000
0001
,  // measure 23
0000
0000
1000
0010
1000
0000
0001
0010
,  // measure 24
0000
0001
0000
0000
0000
0000
1001
0000
,  // measure 25
0001
1000
0010
1000
0001
1000
0100
0010
,  // measure 26
0200
0010
0010
0310
,  // measure 27
0100
1000
0100
0000
1000
0010
1000
0001
,  // measure 28
1000
0100
0010
0000
0001
0010
0001
0001
,  // measure 29
1000
0000
0010
1000
0000
0100
0000
1000
,  // measure 30
0000
1010
1001
0011
,  // measure 31
0010
0001
0010
0000
0001
0100
0001
1000
,  // measure 32
0001
0010
0100
0000
1000
0000
1100
0000
,  // measure 33
1001
0000
0000
0000
0011
0000
0000
0101
,  // measure 34
0000
1001
1010
0110
,  // measure 35
0010
1000
0010
0000
1000
0100
1000
0001
,  // measure 36
1000
0010
0100
0000
0001
0100
0001
1000
,  // measure 37
0001
0000
0010
0001
0000
0100
0000
0001
,  // measure 38
0000
0011
1001
1010
,  // measure 39
0010
1000
0010
0000
1000
0100
1000
0001
,  // measure 40
1000
0010
0100
0000
0001
0000
0101
0000
,  // measure 41
1001
0000
0000
0000
1010
0000
0000
1100
,  // measure 42
0000
0000
1000
0100
1000
0001
1000
0010
,  // measure 43
0100
0000
0010
0100
0010
0000
0100
0002
,  // measure 44
0000
0020
0000
0000
0000
0000
0033
0000
,  // measure 45
0011
0000
0001
0100
0001
0000
1000
0100
,  // measure 46
0000
0010
0000
0100
0000
1000
0000
0001
,  // measure 47
0000
0000
1000
0010
1000
0000
0001
0100
,  // measure 48
0000
1000
0000
0000
0000
0000
1100
0000
,  // measure 49
0120
0000
0100
0230
0000
0000
0000
0000
,  // measure 50
0302
0000
0000
0000
0000
0000
1000
1003
,  // measure 51
0001
0000
1000
0100
1000
0000
0001
0100
,  // measure 52
0000
0001
0000
0000
0000
0000
0000
0000
,  // measure 53
0000
0000
1000
0010
1000
0000
0001
0010
,  // measure 54
0000
0100
0000
0010
0000
0001
0000
1000
,  // measure 55
0000
0000
0001
0100
0001
0000
1000
0100
,  // measure 56
0000
1000
0000
0000
0000
0000
1001
0000
,  // measure 57
1000
0001
0100
0001
1000
0001
0010
0100
,  // measure 58
0020
0100
0100
0130
,  // measure 59
0010
0001
0010
0000
0001
0100
0001
1000
,  // measure 60
0001
0010
0100
0000
1000
0100
1000
1000
,  // measure 61
0001
0000
0100
0001
0000
0010
0000
0001
,  // measure 62
0000
0101
1001
1100
,  // measure 63
0100
1000
0100
0000
1000
0010
1000
0001
,  // measure 64
1000
0100
0010
0000
0001
0000
0011
0000
,  // measure 65
1001
0000
0000
0000
1100
0000
0000
1010
,  // measure 66
0000
1001
0101
0110
,  // measure 67
0100
0001
0100
0000
0001
0010
0001
1000
,  // measure 68
0001
0100
0010
0000
1000
0010
1000
0001
,  // measure 69
1000
0000
0100
1000
0000
0010
0000
1000
,  // measure 70
0000
1100
1001
0101
,  // measure 71
0100
0001
0100
0000
0001
0010
0001
1000
,  // measure 72
0001
0100
0010
0000
1000
0000
1010
0000
,  // measure 73
1001
0000
0000
0000
0101
0000
0000
0011
,  // measure 74
0000
0000
0001
0010
0001
1000
0001
0100
,  // measure 75
0010
0010
0000
1000
1000
0000
1100
0000
,  // measure 76
1002
0000
0000
0100
0103
0000
0001
0000
,  // measure 77
1000
0100
0010
0100
,  // measure 78
1000
0001
0100
0010
,  // measure 79
0100
0001
1000
1010
,  // measure 80
1002
0000
0000
0010
0013
0000
0001
0000
,  // measure 81
0010
0100
0010
0001
,  // measure 82
1000
0010
0100
0010
,  // measure 83
1000
0001
0100
0010
,  // measure 84
0100
0100
0001
0001
,  // measure 85
2000
0100
0100
3100
,  // measure 86
0010
0001
1000
0000
0001
0100
0001
0010
,  // measure 87
0001
0100
0010
0000
1000
0100
0010
0010
,  // measure 88
0001
0000
0100
0001
0000
1000
0000
0010
,  // measure 89
0000
1010
1001
1100
,  // measure 90
0100
0010
0001
0000
1000
0010
1000
0100
,  // measure 91
0010
0001
0100
0000
0001
0000
0011
0000
,  // measure 92
0101
0000
0000
0000
0110
0000
0000
1010
,  // measure 93
0000
1001
0101
0110
,  // measure 94
0100
0001
0010
0000
0001
0010
0100
1000
,  // measure 95
0001
0100
0010
0000
1000
0010
1000
0001
,  // measure 96
0100
0000
0010
1000
0000
0100
0000
0010
,  // measure 97
0000
0110
1100
1001
,  // measure 98
1000
0001
0010
0000
0001
0100
0001
1000
,  // measure 99
0010
0100
0001
0000
1000
0000
1010
0000
,  // measure 100
1001
0000
0000
0000
0101
0000
0000
0011
,  // measure 101
0000
0000
0001
0010
0001
0100
0010
1000
,  // measure 102
0100
0010
0100
0000
1000
0100
1000
0000
,  // measure 103
0001
0001
0001
0000
1000
0000
0010
0000
,  // measure 104
1000
0100
1000
0000
0001
0100
0001
0000
,  // measure 105
1000
1000
1000
0000
0001
0000
0010
0000
,  // measure 106
0001
0100
0001
0000
1000
0100
1000
0000
,  // measure 107
0001
0001
0001
0000
1000
0000
0100
0000
,  // measure 108
0110
0000
0000
0000
1100
0000
0000
1001
,  // measure 109
0000
0101
0011
0110
,  // measure 110
0100
1000
0001
1000
0100
0010
0001
1000
,  // measure 111
0001
0100
0010
0100
0001
1000
0100
0010
,  // measure 112
0001
1000
0001
0010
0100
1000
0001
0100
,  // measure 113
0010
0100
0001
1000
0010
0100
0010
1000
,  // measure 114
0001
0010
0100
0010
0001
1000
0001
0100
,  // measure 115
0010
0100
0001
1000
0100
0010
0100
1000
,  // measure 116
0001
0010
0100
0010
0001
0100
0001
1000
,  // measure 117
0010
0000
1000
0010
1000
0001
1000
0100
,  // measure 118
0010
0000
0001
0010
0001
1000
0001
0200
,  // measure 119
0020
0000
0000
0000
,  // measure 120
0330
0000
0000
0000
;

//---------------dance-single - ----------------
#NOTES:
     dance-single:
     :
     Medium:
     6:
     0.324,0.420,0.022,0.136,0.000,388.000,4.000,25.000,0.000,0.000,0.000,0.324,0.420,0.022,0.136,0.000,388.000,4.000,25.000,0.000,0.000,0.000: // measure 1
0000
0000
0000
0000
,  // measure 2
0002
0000
2003
0000
,  // measure 3
3002
0000
0000
0000
,  // measure 4
0203
0000
0320
0000
,  // measure 5
0230
0000
0000
0000
,  // measure 6
0302
0000
2003
0000
,  // measure 7
3002
0000
0000
0010
,  // measure 8
0023
0000
0230
0000
,  // measure 9
0320
0000
0000
0000
,  // measure 10
0030
0000
0000
0000
,  // measure 11
0100
1000
0100
1000
,  // measure 12
0100
0000
1000
0000
,  // measure 13
0001
0100
0001
0100
,  // measure 14
0001
0001
1000
1000
,  // measure 15
0010
0100
0010
0100
,  // measure 16
0010
0100
0000
0010
,  // measure 17
1000
0000
0001
1000
0000
0000
0001
0000
,  // measure 18
0100
0000
0000
0000
0000
0000
0001
1000
,  // measure 19
0001
1000
0001
1000
,  // measure 20
0100
0000
0010
0000
,  // measure 21
0100
1000
0100
1000
,  // measure 22
0001
0001
0100
0100
,  // measure 23
0010
1000
0010
1000
,  // measure 24
0001
0001
0000
1000
,  // measure 25
0001
0100
0001
0100
0001
0100
0001
0100
,  // measure 26
0002
0100
0100
0103
,  // measure 27
0001
0000
0000
0000
1000
0000
0000
0001
,  // measure 28
0000
1000
0000
0000
0000
0000
0100
0010
,  // measure 29
0100
0000
0000
1000
0000
0100
0000
1000
,  // measure 30
0000
0001
0010
0100
,  // measure 31
1000
0000
0000
0000
0001
0000
0000
0100
,  // measure 32
0000
0010
0000
0000
0000
0000
1000
0000
,  // measure 33
0010
0000
0000
0000
1000
0000
0000
0100
,  // measure 34
0000
0010
0001
1000
,  // measure 35
0001
0000
0000
0000
0100
0000
0000
0010
,  // measure 36
0000
0100
0000
0000
0000
0000
0001
0010
,  // measure 37
0001
0000
0000
1000
0000
0100
0000
0010
,  // measure 38
0000
0100
1000
0001
,  // measure 39
0010
0000
0000
0000
0001
0000
0000
0100
,  // measure 40
0000
0010
0000
0000
0000
0000
1000
0000
,  // measure 41
0002
0000
0000
0000
2003
0000
0000
3002
,  // measure 42
0000
0000
0000
0000
,  // measure 43
0200
0000
0000
0000
,  // measure 44
0000
0000
0000
0303
,  // measure 45
0001
1000
0001
1000
,  // measure 46
0010
0010
0100
0100
,  // measure 47
0001
1000
0001
0010
,  // measure 48
1000
1000
0000
0010
,  // measure 49
0010
0000
0001
0010
0000
0000
0001
0000
,  // measure 50
1000
0000
0000
0000
0000
0000
0100
0010
,  // measure 51
0100
1000
0100
1000
,  // measure 52
0001
0000
0010
0000
,  // measure 53
0001
0100
0001
0100
,  // measure 54
0010
0010
1000
1000
,  // measure 55
0001
0010
0001
0010
,  // measure 56
0100
0000
1000
0000
,  // measure 57
0100
0010
0100
0010
0100
0010
0100
0010
,  // measure 58
0200
1000
1000
1300
,  // measure 59
0100
0000
0000
0000
1000
0000
0000
0001
,  // measure 60
0000
0010
0000
0000
0000
0000
0001
0100
,  // measure 61
0001
0000
0000
1000
0000
0010
0000
0100
,  // measure 62
0000
0010
1000
0100
,  // measure 63
0010
0000
0000
0000
0100
0000
0000
1000
,  // measure 64
0000
0100
0000
0000
0000
0000
1000
0000
,  // measure 65
0001
0000
0000
0000
0010
0000
0000
0001
,  // measure 66
0000
0100
0010
0100
,  // measure 67
0001
0000
0000
0000
1000
0000
0000
0100
,  // measure 68
0000
0010
0000
0000
0000
0000
0100
1000
,  // measure 69
0100
0000
0000
1000
0000
0010
0000
0100
,  // measure 70
0000
0001
0010
0100
,  // measure 71
1000
0000
0000
0000
0001
0000
0000
0100
,  // measure 72
0000
0010
0000
0000
0000
0000
0100
0000
,  // measure 73
0001
0000
0000
0000
0010
0000
0000
0200
,  // measure 74
0000
0000
0000
0000
,  // measure 75
2000
0000
3300
1100
,  // measure 76
1100
0000
0000
1000
0100
0000
0010
0000
,  // measure 77
0100
1000
0001
0100
,  // measure 78
0010
0100
0001
1000
,  // measure 79
0100
0010
0100
1100
,  // measure 80
1100
0000
0000
1000
0010
0000
0100
0000
,  // measure 81
0010
1000
0001
0010
,  // measure 82
0100
0010
0001
1000
,  // measure 83
0010
0100
0010
1000
,  // measure 84
0001
1000
0001
1000
,  // measure 85
0002
0010
0010
0013
,  // measure 86
0001
0000
0000
0000
0010
0000
0000
0100
,  // measure 87
0000
1000
0000
0000
0000
0000
0010
1000
,  // measure 88
0001
0000
0000
0100
0000
0001
0000
0010
,  // measure 89
0000
0100
1000
0010
,  // measure 90
0100
0000
0000
0000
0001
0000
0000
1000
,  // measure 91
0000
0010
0000
0000
0000
0000
1000
0000
,  // measure 92
0100
0000
0000
0000
0010
0000
0000
0001
,  // measure 93
0000
0100
0010
1000
,  // measure 94
0001
0000
0000
0000
0010
0000
0000
0001
,  // measure 95
0000
0100
0000
0000
0000
0000
0010
1000
,  // measure 96
0001
0000
0000
0100
0000
0001
0000
0010
,  // measure 97
0000
0100
1000
0010
,  // measure 98
0100
0000
0000
0000
0001
0000
0000
1000
,  // measure 99
0000
0100
0000
0000
0000
0000
0010
0000
,  // measure 100
0001
0000
0000
0000
1000
0000
0000
0002
,  // measure 101
0000
0000
0103
0010
0100
0001
0100
0010
,  // measure 102
0100
0010
1000
0100
,  // measure 103
0010
0000
0001
0000
0100
0000
0010
1000
,  // measure 104
0001
1000
0100
0010
,  // measure 105
0001
0100
0010
0100
,  // measure 106
0001
1000
0100
0010
,  // measure 107
0001
1000
0010
1000
,  // measure 108
0100
0000
0000
0000
1000
0000
0000
0002
,  // measure 109
0000
0000
0013
0001
1000
0001
0010
0001
,  // measure 110
1000
0010
0100
0001
,  // measure 111
1000
0000
0100
0000
0010
0000
0100
1000
,  // measure 112
0001
0100
0010
1000
,  // measure 113
0001
0010
0100
0010
,  // measure 114
0001
1000
0010
0100
,  // measure 115
0001
0010
0100
1000
,  // measure 116
0001
0000
0000
0000
0100
0000
0000
0020
,  // measure 117
0000
0000
1030
0010
0100
0010
1000
0010
,  // measure 118
0100
0000
0001
0010
0100
0010
0001
0010
,  // measure 119
0200
0000
0000
0000
,  // measure 120
0300
0000
0000
0000
;

//---------------dance-single - ----------------
#NOTES:
     dance-single:
     :
     Beginner:
     2:
     0.137,0.162,0.005,0.071,0.000,163.000,1.000,13.000,0.000,0.000,0.000,0.137,0.162,0.005,0.071,0.000,163.000,1.000,13.000,0.000,0.000,0.000:
0000
0000
0000
0000
,
1000
0000
1000
0000
,
1000
0000
0000
0000
,
0001
0000
0001
0000
,
0001
0000
0000
0000
,
0100
0000
0100
0000
,
0100
0000
0000
0010
,
0010
0000
0010
0000
,
0020
0000
0000
0000
,
0000
0000
0030
0000
,
0010
0000
0000
0000
,
0010
0000
0000
0000
,
1000
0000
0000
0000
,
1000
0000
1000
0000
,
0001
0000
0000
0000
,
0001
0000
0000
0000
,
0010
0000
0010
0000
,
0100
0000
0100
0000
,
1000
0000
0000
0000
,
0001
0000
0000
0000
,
0100
0000
0000
0000
,
0010
0000
0010
0000
,
1000
0000
0000
0000
,
0001
0000
0000
0000
,
1000
0000
1000
0000
,
1000
0000
0000
0000
,
0001
0000
1000
0000
,
0001
0000
0000
0000
,
0100
0000
0010
0000
,
0100
0000
0000
0000
,
0001
0000
1000
0000
,
0001
0000
0000
0000
,
1000
0000
0100
0000
,
1000
0000
0000
0000
,
0001
0000
0010
0000
,
0001
0000
0000
0000
,
1000
0000
0010
0000
,
1000
0000
0000
0000
,
0001
0000
0100
0000
,
0001
0000
0000
0000
,
1000
0000
0001
0000
,
1000
0000
0000
0000
,
2002
0000
0000
0000
,
3003
0000
0000
0000
,
1000
0000
0000
0000
,
0001
0000
0001
0000
,
0100
0000
0000
0000
,
0100
0000
0000
0000
,
0010
0000
0010
0000
,
1000
0000
1000
0000
,
0001
0000
0000
0000
,
0001
0000
0000
0000
,
1000
0000
0000
0000
,
1000
0000
0000
0000
,
0100
0000
0000
0000
,
0100
0000
0000
0000
,
0010
0000
0010
0000
,
0010
0000
0000
0000
,
0001
0000
0100
0000
,
0001
0000
0000
0000
,
1000
0000
0100
0000
,
1000
0000
0000
0000
,
0001
0000
0100
0000
,
0001
0000
0000
0000
,
1000
0000
0100
0000
,
1000
0000
0000
0000
,
0001
0000
0010
0000
,
0001
0000
0000
0000
,
1000
0000
0010
0000
,
1000
0000
0000
0000
,
0001
0000
0010
0000
,
0001
0000
0000
0000
,
1000
0000
0010
0000
,
2000
0000
0000
0000
,
3000
0000
0000
0000
,
0001
0000
0001
0000
,
0000
0000
0000
0000
,
1000
0000
0000
0000
,
1000
0000
0000
0000
,
0100
0000
0100
0000
,
0000
0000
0000
0000
,
0010
0000
0000
0000
,
0010
0000
0000
0000
,
0002
0000
0000
0000
,
0003
0000
0000
0000
,
1000
0000
0010
0000
,
0100
0000
0000
0000
,
0001
0000
0010
0000
,
0100
0000
0000
0000
,
1000
0000
0010
0000
,
0100
0000
0000
0000
,
0001
0000
0010
0000
,
0100
0000
0000
0000
,
1000
0000
0100
0000
,
0010
0000
0000
0000
,
0001
0000
0100
0000
,
0010
0000
0000
0000
,
1000
0000
0100
0000
,
0010
0000
0000
0000
,
0001
0000
0100
0000
,
0010
0000
0000
0000
,
1000
0000
1000
0000
,
2000
0000
3000
0000
,
0001
0000
0001
0000
,
0002
0000
0003
0000
,
0100
0000
0100
0000
,
0200
0000
0300
0000
,
0010
0000
0010
0000
,
0020
0000
0030
0000
,
1000
0000
0001
0000
,
2000
0000
3000
0000
,
0001
0000
1000
0000
,
0002
0000
0003
0000
,
0100
0000
0010
0000
,
0200
0000
0300
0000
,
0010
0000
0100
0000
,
0010
0000
0000
0000
,
0100
0100
0100
0100
,
0200
0000
0000
0000
,
0300
0000
0000
0000
;

//---------------dance-single - ----------------
#NOTES:
     dance-single:
     :
     Easy:
     5:
     0.226,0.291,0.027,0.082,0.000,271.000,5.000,15.000,0.000,0.000,0.000,0.226,0.291,0.027,0.082,0.000,271.000,5.000,15.000,0.000,0.000,0.000:
0000
0000
0000
0000
,
0001
0000
1000
0000
,
0002
0000
0000
0000
,
0103
0000
0010
0000
,
0200
0000
0000
0000
,
0301
0000
1000
0000
,
0002
0000
0000
0010
,
0013
0000
0100
0000
,
0020
0000
0000
0000
,
0000
0000
0000
0000
,
0130
0000
1000
0000
,
0100
0100
0000
0000
,
1000
0000
0001
0000
,
0100
0100
0010
0010
,
1000
0000
0001
0000
,
1000
1000
0000
0000
,
0001
0000
0000
0002
0000
0000
0000
0000
,
0000
0000
0003
0000
,
1000
0000
0001
0000
,
0010
0010
0000
0000
,
0001
0000
1000
0000
,
0100
0100
0010
0010
,
0001
0000
1000
0000
,
0010
0010
0000
0000
,
1000
0001
1000
0001
,
2000
0000
0000
0000
,
3000
0000
0000
0000
,
0000
0000
0000
0000
,
0000
0000
0000
0000
,
0000
0000
0000
0000
,
0000
0000
0000
0000
,
0000
0000
0000
0000
,
0000
0000
0000
0000
,
0000
0000
0000
0000
,
0000
0000
0000
0000
,
0000
0000
0000
0000
,
0000
0000
0000
0000
,
0000
0000
0000
0000
,
0000
0000
0000
0000
,
0000
0000
0000
0000
,
0000
0000
0000
0000
,
0000
0000
0000
0000
,
0000
0000
0000
0000
,
0000
0000
0000
0000
,
1000
0000
0001
0000
,
0100
0100
0010
0010
,
1000
0000
0001
0000
,
0010
0010
0000
0000
,
1000
0000
0000
2000
0000
0000
0000
0000
,
0000
0000
3000
0000
,
1000
0000
0100
0000
,
1000
1000
0000
0000
,
0001
0000
0100
0000
,
0001
0001
1000
1000
,
0010
0000
1000
0000
,
0100
0100
0000
0000
,
0100
0010
0100
0010
,
0002
0000
0000
0000
,
1003
0000
0000
0000
0010
0000
0000
1000
,
0000
1000
0000
0000
0000
0000
0100
0000
,
0010
0000
0000
0100
0000
0100
0000
0100
,
0000
0010
0001
0010
,
0100
0000
0000
0000
1000
0000
0000
0001
,
0000
0001
0000
0000
0000
0000
0100
0000
,
0010
0000
0000
0000
0100
0000
0000
0010
,
0000
1000
1000
1000
,
0001
0000
0000
0000
0010
0000
0000
0001
,
0000
0001
0000
0000
0000
0000
1000
0000
,
0001
0000
0000
0100
0000
0100
0000
0100
,
0000
0010
1000
0010
,
0100
0000
0000
0000
0001
0000
0000
0010
,
0000
0010
0000
0000
0000
0000
0100
0000
,
1000
0000
0000
0000
0001
0000
0000
2000
,
0000
0000
0000
0000
,
0002
0000
3003
1001
,
1001
0000
0000
0001
1000
0000
0000
0000
,
0010
0000
0010
0000
,
0100
0100
0010
0010
,
1000
0001
0100
0110
,
0110
0000
0000
0010
0100
0000
0000
0000
,
0010
0000
0010
0000
,
0100
0100
0001
0001
,
1000
0100
1000
0100
,
0010
0001
1000
0001
,
0200
0010
0010
0310
,
0100
0000
0000
0000
0010
0000
0000
1000
,
0000
0010
0000
0000
0000
0000
1000
0000
,
0100
0000
0000
0010
0000
0001
0000
0010
,
0000
0001
1000
0001
,
0100
0000
0000
0000
0010
0000
0000
0100
,
0000
0010
0000
0000
0000
0000
1000
0000
,
0001
0000
0000
0000
1000
0000
0000
0001
,
0000
0010
0100
0010
,
0001
0000
0000
0000
1000
0000
0000
0010
,
0000
0100
0000
0000
0000
0000
0010
0000
,
1000
0000
0000
0001
0000
0010
0000
0001
,
0000
1000
0100
1000
,
0010
0000
0000
0000
0100
0000
0000
0010
,
0000
0100
0000
0000
0001
0000
0000
0000
,
1000
0000
0000
0000
0001
0000
0000
0020
,
0000
0100
0100
0130
,
0010
0100
1000
0100
,
0010
0001
1000
0001
,
0100
0010
1000
0010
,
0100
0001
0100
0010
,
1000
0100
0010
0001
,
0010
0100
1000
0001
,
0100
0000
0000
0000
0010
0000
0000
0200
,
0000
0001
0001
0301
,
0100
0010
1000
0100
,
0010
0001
0100
0010
,
1000
0001
0010
0100
,
1000
0001
0100
0010
,
1000
0001
0010
0100
,
1000
0001
0100
0010
,
1000
0001
0010
0100
,
1000
1000
1000
1000
,
0001
0001
0001
0001
,
2002
0000
0000
0000
,
3003
0000
0000
0000
;
