#TITLE:Everything You've Ever Dreamed;
#SUBTITLE:;
#ARTIST:Arrianne;
#TITLETRANSLIT:;
#SUBTITLETRANSLIT:;
#ARTISTTRANSLIT:;
#CREDIT:;
#BANNER:;
#BACKGROUND:;
#LYRICSPATH:;
#CDTITLE:;
#MUSIC:Everything You've Ever Dreamed.ogg;
#OFFSET:-2.700;
#SAMPLESTART:100.000;
#SAMPLELENGTH:12.000;
#SELECTABLE:YES;
#BPMS:0.000=88.020;
#STOPS:;
#BGCHANGES:;

//---------------dance-single - Copied from----------------
#NOTES:
     dance-single:
     Copied from:
     Hard:
     9:
     0.486,1.000,0.088,0.088,0.526:
0000
0000
0000
0000
,
0000
0000
0000
0000
,
0000
0000
0000
0000
,
0000
0000
0000
0000
,
0000
0000
0000
0000
,
1000
1000
0100
0010
0000
0100
0000
1000
,
0010
0010
0100
0001
0000
1000
0000
0001
,
0010
0010
0100
1000
0000
0001
0000
1000
,
0010
0010
0100
0001
0000
1000
0000
0001
,
2001
0000
0000
0001
0000
0000
0100
0000
0000
0010
0000
0000
0000
0000
0000
3100
0000
0000
1000
0000
0010
0000
0100
0000
,
0001
0001
1000
0100
0000
0010
0000
0001
,
1000
1000
0001
0100
0000
0010
0000
1000
,
0010
0010
0100
0001
0000
1000
0000
0001
,
0010
0000
0000
0010
0000
0000
0100
0000
0000
1000
0000
0000
0001
0010
0001
1000
0010
1000
0001
0100
0001
1000
0100
1000
,
0001
0001
0100
0010
0000
1000
0000
1000
,
0010
0010
0100
0110
0001
1000
0100
0010
,
0001
0000
0010
0000
0100
0000
1000
0000
0000
0000
0001
1000
0100
0000
0000
0000
,
1100
1000
0100
0010
0100
1000
0000
0010
,
1010
1000
0010
0100
0000
0100
0000
0001
,
0011
0000
0010
0000
0100
0000
1000
0000
0000
0000
1000
0000
0000
0000
0001
1000
,
0001
0010
0100
1000
0100
0001
0100
1000
,
0001
0100
0001
1000
0100
1000
0000
0010
,
0101
0001
0100
0010
0000
1000
0000
0100
,
0011
0001
0100
0010
0000
1000
0000
0001
,
1000
1000
0100
1000
0001
0001
0000
0001
,
1000
0010
0001
0010
1000
0001
0000
0010
,
0000
0100
0010
0220
0000
0000
0000
0330
,
0100
1000
0100
0001
0100
1000
0000
0001
,
0000
1000
0001
2002
0000
0000
0000
3003
,
1000
0100
0010
0100
1000
0001
0000
0010
,
0000
0000
0100
0000
1000
0000
0001
0000
0000
0000
1001
0000
1000
0000
0100
1000
,
0001
0010
0001
0100
0010
1000
0000
1001
,
0000
0000
0000
0001
0000
0000
0100
0000
0000
0010
0000
0000
1000
0100
1000
0001
0100
0001
1000
0100
0010
0001
0100
0010
,
1000
0000
0000
0001
0000
0000
1000
0000
0000
0100
1000
0010
0100
0001
1000
0001
0010
0100
1000
0001
0100
0010
1000
0001
,
1000
0001
0100
1000
0100
0001
1000
0001
,
0010
0100
1000
0001
0000
1000
0000
1001
,
0000
1000
0002
0000
0020
0000
0030
0000
0200
0000
0000
0000
0000
0000
0303
0000
,
0001
0001
0100
0010
1000
0001
0000
1000
,
0000
0010
0200
0000
0002
0000
0003
0000
1300
0000
0100
0000
0001
0000
1000
0000
,
0100
1000
0002
0000
0013
0001
1000
0001
,
1000
0000
0000
0100
0000
0000
0001
0000
0000
0100
0000
0000
1000
0010
0100
0001
1000
0100
0010
0001
1000
0001
0010
0100
,
1000
0000
0000
0001
0000
0000
0100
0000
0000
0010
1000
0010
0100
0001
0010
0100
0010
0001
0100
0010
1000
0100
1000
0001
,
1000
0100
0010
0001
0000
1000
0001
1000
,
0010
0000
0010
0000
0100
0000
0001
0000
0100
0000
1000
0000
0100
0001
1000
0001
,
1000
0000
0000
0100
0000
0000
0010
0000
0000
0000
0000
0001
1000
0000
0000
0010
0000
0000
0100
0000
0000
0001
0000
0000
,
0010
0010
0001
1000
0001
1001
0000
1000
,
0010
0000
0000
0100
0000
0000
0001
0000
0000
0000
0000
1000
0001
0000
0000
0100
0000
0000
0010
0000
0000
0000
1000
0000
,
0000
0001
1000
0000
0010
1000
0001
0010
,
0001
0001
0100
0010
0000
1000
0001
1000
,
0100
0000
2000
0000
0001
0000
0000
0000
0100
0000
0000
0000
3001
0000
0100
0010
,
1000
0000
0000
0001
1000
0100
1000
0001
0100
0001
1000
0100
1000
0001
0100
0010
1000
0001
0010
0100
1000
0001
0100
0010
,
1000
0000
0000
0001
0000
0000
1000
0000
0000
0010
0100
0001
1000
0100
0010
0100
1000
0010
0100
0001
1000
0001
0010
0100
,
1000
0001
0100
0101
0000
0100
0001
0100
,
0010
0010
1000
0001
0000
1001
1000
1010
,
0000
1000
0010
0000
0200
0000
0001
0000
0302
0000
1000
0000
0003
0000
0001
0000
,
1000
0100
0010
0100
1000
0001
0000
1001
,
0000
0001
1000
0000
0020
0000
0130
0000
0200
0000
0301
0000
0100
0000
0001
0000
,
0010
0100
1000
0000
0001
1000
0010
0100
,
0001
0000
0000
0000
0000
0000
1000
0000
0000
0000
0000
0000
0100
0000
0000
1000
0000
0000
0010
0000
0000
0100
0000
0000
0001
0000
0100
0000
0001
0000
1000
0000
0100
0000
1000
0000
0010
0000
0100
0000
0001
0000
1000
0000
0001
0000
0100
0000
,
0010
0000
0000
1000
0000
0000
0001
0000
0000
1000
0010
1000
0001
0010
0001
1000
0100
1000
0001
0100
0010
1000
0001
0100
,
0001
0000
1000
0000
0100
0000
1000
0000
0000
0000
0100
0000
1000
0000
0100
0010
,
0001
0010
0001
1000
0000
0001
1000
0010
,
0100
0001
1000
1000
0100
0100
0010
0100
,
1000
1000
0001
1000
0000
0010
0000
1000
,
0000
0001
1000
0000
0002
0000
0000
0000
0103
0000
0001
0000
1000
0000
0000
0000
,
1001
1000
0001
0000
0011
0001
1000
0100
,
1000
0000
0010
0000
0100
0000
0001
0000
1000
0000
0001
0000
0100
0010
0100
0000
,
0001
0000
0000
0000
2000
0000
0000
0000
3200
0000
0000
0000
0001
0300
0100
0010
,
0001
0000
0000
0000
0010
0000
0100
1000
0002
0000
0000
0000
2003
0000
0000
0000
,
3001
0000
0000
0000
0000
0000
0000
0000
0000
0000
0000
0000
0000
0000
0000
0000
0000
0000
0000
0000
0000
0000
0000
0000
0100
0000
0000
0000
0000
0000
0000
0000
0000
0000
0000
0000
0000
0000
0000
0000
0000
0000
0000
0000
0000
0000
0000
0000
0020
0000
0000
0000
0000
0000
0000
0000
0000
0000
0000
0000
0000
0000
0000
0000
0000
0000
0000
0000
0000
0000
0000
0000
0000
0000
0000
0000
0000
0000
0000
0000
0000
0000
0000
0000
0130
0000
0000
0000
0000
0000
0010
0000
0000
0000
0000
0000
0100
0000
0000
0000
0000
0000
0000
0000
0000
0000
0000
0000
0000
0000
0000
0000
0000
0000
0000
0000
0000
0000
0000
0000
0001
0000
0000
0000
0000
0000
0000
0000
0000
0000
0000
0000
0000
0000
0000
0000
0000
0000
0000
0000
0000
0000
0000
0000
1000
0000
0000
0000
0000
0000
0000
0000
0000
0000
0000
0000
0000
0000
0000
0000
0001
0000
0000
0000
0000
0000
0000
0000
0000
0000
0000
0000
0000
0000
0000
0000
0100
0000
0000
0000
0000
0000
0000
0000
0000
0000
0000
0000
0000
0000
0000
0000
,
0001
0000
0000
0000
1000
0000
0000
0000
0001
0000
0010
0000
0000
0000
0100
0000
0000
1000
0000
0000
0001
0000
1000
0000
0000
0000
0001
1000
0000
0000
0001
0000
,
1000
0000
1000
0000
0100
0010
0001
1000
0000
0001
0000
0001
0000
0000
1000
0000
,
0010
0000
0000
0000
0000
0000
0000
0000
0000
0000
0000
0000
0000
0000
0000
0000
0000
0000
0000
0000
0000
0000
0000
0000
0010
0000
0000
0000
0000
0000
0000
0000
0000
0000
0000
0000
0000
0000
0000
0000
0000
0000
0000
0000
0000
0000
0000
0000
0100
0000
0000
0000
0000
0000
0000
0000
0000
0000
0000
0000
0001
0000
0000
0000
0000
0000
0000
0000
0000
0000
0000
0000
1000
0000
0000
0000
0000
0000
0000
0000
0000
0000
0000
0000
0100
0000
0000
0000
0000
0000
0000
0000
0000
0000
0000
0000
1000
0000
0000
0000
0000
0000
0001
0000
0000
0000
0000
0000
0000
0000
0000
0000
1000
0000
0000
0000
0000
0000
0000
0000
0000
0000
0000
0000
0000
0000
0000
0000
0010
0000
0000
0000
0000
0000
0000
0000
0000
0000
0000
0000
0000
0000
0000
0000
0100
0000
0000
0000
0000
0000
0000
0000
0000
0000
0000
0000
0000
0000
0000
0000
0000
0000
0001
0000
0000
0000
0000
0000
1000
0000
0000
0000
0000
0000
0000
0000
0000
0000
0000
0000
0001
0000
0000
0000
0000
0000
0000
0000
0000
0000
0000
0000
,
1000
0000
0000
0000
0000
0000
0010
0000
0000
0000
0000
0000
0000
0000
0000
0000
0000
0000
0000
0000
0000
0000
0000
0000
0100
0000
0000
0000
0000
0000
0000
0000
0000
0000
0000
0000
0000
0000
0000
0000
0000
0000
0001
0000
0000
0000
0000
0000
0000
0000
0000
0000
0000
0000
0000
0000
0000
0000
0000
0000
0001
0000
0000
0000
0000
0000
0000
0000
0000
0000
0000
0000
0000
0000
0000
0000
0000
0000
0000
0000
0000
0000
0000
0000
1000
0000
0000
0000
0000
0000
0000
0000
0000
0000
0000
0000
0001
0000
0000
0000
0000
0000
1000
0000
0000
0000
0000
0000
0000
0000
0000
0000
0000
0000
0000
0000
0000
0000
0000
0000
1000
0000
0000
0000
0000
0000
0000
0000
0000
0000
0000
0000
0000
0000
0000
0000
0000
0000
0000
0000
0000
0000
0000
0000
0001
0000
0000
0000
0000
0000
0000
0000
0000
0000
0000
0000
0000
0000
0000
0000
0010
0000
0000
0000
0000
0000
0000
0000
0000
0000
0000
0000
0000
0000
0000
0000
0100
0000
0000
0000
0000
0000
0000
0000
0000
0000
0000
0000
0000
0000
0000
0000
,
1000
0000
0000
0000
0000
0000
1000
0000
0000
0000
0000
0000
0100
0000
0000
0000
0000
0000
0000
0010
0100
0000
0000
0000
0000
0000
0000
1000
0001
0000
0000
0000
0000
0000
0000
1000
0000
0000
0000
0000
0000
0000
0000
0000
0000
1000
0010
0000
,
0000
0000
0000
0000
0000
0000
0010
0100
0001
0000
0000
0000
1000
0000
0000
0000
0000
0000
0001
0000
0000
0000
0000
0000
0000
0000
0000
0000
0000
0000
1000
0000
0000
0000
0000
0000
0000
0000
0000
0000
0000
0000
0001
0000
0000
0100
0000
0000
,
0010
1000
0100
0010
0100
1000
0010
0100
0001
1000
0001
0100
1000
0100
0001
0100
,
0010
0000
0000
0000
0000
0000
0010
0000
0000
0000
0000
0000
1001
0000
0000
0000
0000
0000
1000
0000
0000
0001
0000
0000
0000
0000
0000
0000
0000
0000
1000
0000
0000
0000
0000
0000
0001
0000
0000
0000
0010
0000
0000
0000
0100
0000
0000
0000
,
1000
0000
1000
0000
0001
1000
0010
0100
0001
0000
1000
0000
0001
1000
0010
0000
,
0100
0000
0000
0000
0001
0000
0010
0000
0100
0000
1000
0000
0001
0000
1000
0000
0010
0000
0100
0000
0001
0000
1000
0000
0100
0000
0000
1000
0000
0000
0100
0000
,
0000
0010
0000
0000
0100
0000
0010
0000
0001
0000
0000
1000
0000
0000
0001
0000
0000
1000
0000
0000
0001
0000
0100
0000
0001
0000
1000
0000
0001
0000
0000
0000
,
0100
0000
0000
0000
0000
0000
0010
0000
0000
0000
0000
0000
1000
0000
0000
0001
0000
0000
0000
0000
0000
1000
0000
0000
0001
0000
0010
0000
0100
0000
1000
0000
0010
0000
0100
0000
0001
0000
0010
0000
0100
0000
1000
0000
0010
0000
0100
0000
,
0001
0000
0000
0000
0000
0000
0000
0000
0000
0000
0000
0000
0000
0000
0000
0000
0000
0000
0000
0000
0000
0000
0000
0000
1000
0000
0000
0000
0000
0000
0000
0000
0000
0000
0000
0000
0000
0000
0000
0000
0000
0000
0000
0000
0000
0000
0000
0000
0001
0000
0000
0000
1000
0000
0000
0000
0000
0000
0000
0000
0000
0000
0000
0000
0000
0000
0000
0000
0001
0000
0000
0000
1000
0000
0000
0000
0000
0000
0000
0000
0000
0000
0000
0000
0000
0000
0000
0000
0000
0000
0001
0000
0000
0000
0000
0000
0000
0000
0000
0000
0000
0000
0000
0000
0000
0000
0000
0000
1000
0000
0000
0000
0000
0000
0000
0000
0000
0000
0000
0000
0001
0000
0000
0000
0000
0000
0000
0000
0000
0000
0000
0000
0000
0000
0000
0000
0000
0000
0000
0000
0000
0000
0000
0000
0100
0000
0000
0000
0000
0000
0000
0000
0000
0000
0000
0000
0000
0000
0000
0000
0000
0000
0000
0000
0000
0000
0000
0000
0010
0000
0000
0000
0000
0000
0000
0000
0000
0000
0000
0000
0000
0000
0000
0000
0000
0000
0000
0000
0000
0000
0000
0000
,
1000
0000
0000
0000
0000
0000
0000
0000
0000
0000
0000
0000
0000
0000
0000
0000
0000
0000
0000
0000
0000
0000
0000
0000
0100
0000
0000
0000
0000
0000
0010
0000
0000
0000
0000
0000
0000
0000
0000
0000
0000
0000
0001
0000
0000
0000
0000
0000
0000
0000
0000
0000
0000
0000
1000
0000
0000
0000
0000
0000
0000
0000
0000
0000
0000
0000
0000
0000
0000
0000
0000
0000
0000
0000
0000
0000
0000
0000
0001
0000
0000
0000
0000
0000
0000
0000
0000
0000
0000
0000
0010
0000
0000
0000
0000
0000
0001
0000
0000
0000
0000
0000
0000
0000
0000
0000
0000
0000
0000
0000
0000
0000
0100
0000
0000
0000
0000
0000
0000
0000
0000
0000
0000
0000
0000
0000
0000
0000
0010
0000
0000
0000
0000
0000
0000
0000
0000
0000
0000
0000
0000
0000
0000
0000
1000
0000
0000
0000
0000
0000
0000
0000
0000
0000
0000
0000
0000
0000
0000
0000
0000
0000
0000
0000
0000
0000
0000
0000
0001
0000
0000
0000
0000
0000
0000
0000
0000
0000
0000
0000
0010
0000
0000
0000
0000
0000
0000
0000
0000
0000
0000
0000
,
0100
0000
0000
0000
0000
0000
1000
0000
0000
0000
0000
0000
0001
0000
0000
0000
0000
0000
1000
0000
0000
0000
0000
0000
0100
0000
0000
0010
0000
0000
0001
0000
0000
0000
0000
0000
0100
0000
0000
0010
0000
0000
0000
1000
0000
0000
0000
0010
,
0000
0000
0100
0000
0000
0001
0000
0000
0000
0000
0000
0001
0000
0000
0000
0000
0000
0000
1000
0000
0000
0000
0000
0000
0000
0000
0000
0000
0000
0000
0001
0000
0000
0000
0000
0000
1000
0000
0000
0000
0001
0000
0000
0000
0100
0000
0000
0000
,
0001
0000
1000
0000
0001
1000
0001
1000
0001
1000
0001
1000
0001
1000
0001
1000
0001
1000
0001
1000
0001
0000
1000
0000
0000
0000
0010
0100
0010
0100
0010
0100
,
0010
0100
0010
0100
0010
0100
0010
0100
0010
0100
0010
0100
0010
0100
0010
1000
0001
1000
0001
1000
0001
1000
0001
1000
0001
1000
0001
1000
0001
1000
0001
1000
,
0001
0100
1000
0100
0001
0000
1000
0000
0002
0000
0000
0000
0103
0001
1000
0001
,
1000
0000
0000
0000
0001
0000
0010
0000
0000
0000
0000
0000
0100
0000
0000
0000
1000
0000
0000
0000
0001
0000
0000
0000
0000
0000
0000
0000
0000
0000
0000
0000
0000
0000
0000
0000
0000
0000
0000
1000
0000
0000
0010
0000
0000
0100
0000
0000
,
0001
0000
0000
0000
0001
0000
0010
0000
0000
0000
0010
0000
0100
0000
0000
0000
0100
0000
1000
0000
0000
0000
1000
0000
0000
0000
0000
0000
0000
0000
0000
0000
0000
0000
0000
0000
1000
0000
0000
0100
0000
0000
1000
0000
0000
0001
0000
0000
,
0010
0001
0000
0000
0000
0000
1000
0000
0000
0000
0001
1000
0001
0000
0000
0100
0000
0000
0001
0000
0000
0000
0000
0000
1000
0001
1000
0000
0000
0000
0100
0000
0000
0010
0000
0000
0000
0000
0001
1000
0001
0000
0000
0000
0000
0010
0000
0000
,
0100
0000
0000
0010
0000
0000
0001
1000
0001
0000
0000
0000
1000
0000
0000
0000
0000
0000
0001
0000
0000
0000
0000
0000
0100
0000
0000
0000
0000
0000
0001
0000
0000
0000
0000
0000
1000
0000
0000
0100
0000
0000
0010
0000
0000
0001
0000
0000
,
1000
0000
0000
0001
0000
0000
1000
0000
0000
0000
0000
0000
0010
0000
0000
0100
0000
0000
0010
0000
0000
0000
0000
0000
1000
0000
0000
0000
0010
0000
0000
0000
0010
0000
0000
0000
0100
0000
0000
0000
0001
0000
0000
0000
0001
0000
0000
0000
,
1000
0000
0000
0000
0000
0000
0100
0000
0000
0010
0000
0000
0000
0000
0000
0000
0001
0000
1000
0000
0000
0000
1000
0000
0010
0000
0000
0000
0010
0000
0100
0000
0000
0000
0100
0000
0000
0001
0000
0000
0000
0001
0000
0010
0000
0000
0000
0010
,
0000
0100
0000
0000
0000
0000
0010
0000
0000
0000
0002
0000
0000
0000
0000
0000
0000
0000
0000
0000
0000
0000
0000
0000
0103
0000
0000
0000
0000
0000
0001
0000
0000
0000
0000
0000
0100
0000
0000
0000
0000
0000
0010
0000
0000
0000
0000
0000
,
1000
0000
1000
0000
0010
0000
0100
0000
0000
0000
0010
0100
0001
0000
0000
0000
,
0010
0010
0100
1000
0000
1001
0000
1000
,
0010
0010
0100
0001
0000
1001
0000
0001
,
0010
0010
0100
1000
0000
1001
0000
1000
,
0010
0010
0100
0001
0000
1001
0000
0001
,
1000
0000
0000
1000
0000
0000
0100
0000
0000
0010
0000
0000
0000
0000
0000
0011
0000
0000
0001
0000
0010
0000
0100
0000
,
2000
0000
3000
0000
;

//---------------dance-double - ----------------
#NOTES:
     dance-double:
     :
     Hard:
     9:
     0.489,1.000,0.046,0.035,0.526:
00000000
00000000
00000000
00000000
,
00000000
00000000
00000000
00000000
,
00000000
00000000
00000000
00000000
,
00000000
00000000
00000000
00000000
,
00000000
00000000
00000000
00000000
,
00010000
00010000
00000100
00001000
00000000
00000001
00000000
00001000
,
00000010
00000010
00000100
00000001
00000000
00001000
00000000
00000001
,
00001000
00001000
00000100
00010000
00000000
00001000
00000000
01000000
,
00100000
00100000
10000000
00010000
00000000
10000000
00000000
00100000
,
01000000
00000000
00000000
01000000
00000000
00000000
00001000
00000000
00000000
00010000
00000000
00000000
00000000
00000000
00000000
00000100
00000000
00000000
00000010
00000000
00000100
00000000
00010000
00000000
,
00001000
00001000
01000000
00010000
00000000
10000000
00000000
00010000
,
00100000
00100000
00001000
00010000
00000000
00000100
00000000
00001000
,
00000010
00000010
00000100
00000001
00000000
00000100
00000000
00001000
,
00100000
00000000
00000000
00100000
00000000
00000000
00010000
00000000
00000000
10000000
00000000
00000000
00100000
10000000
00010000
00100000
00010000
10000000
00100000
10000000
00010000
00100000
00010000
10000000
,
00010000
00010000
01000000
00001000
00000000
00010000
00000000
00001000
,
00000010
00000010
00000001
00001000
00000001
00000100
00001000
00010000
,
01000000
00000000
00100000
00000000
00010000
00000000
10000000
00000000
00000000
00000000
00010000
10000000
00010000
00000000
00000000
00000000
,
10000000
01000000
00010000
01000000
10000000
01000000
00000000
00100000
,
00101000
00001000
00010000
00000100
00000000
00000100
00000000
00001000
,
00001010
00000000
00000010
00000000
00000100
00000000
00000001
00000000
00000000
00000000
00001000
00000000
00000000
00000000
00000001
00000100
,
00000001
00000100
00001000
00010000
00000000
00001000
00000000
00010000
,
00001000
00100000
10000000
00100000
00010000
00100000
00000000
00000010
,
00000000
00001000
00001010
00000100
00000000
00000001
00000000
00001000
,
00000000
00000001
00000011
00000100
00000000
00010000
00000000
00001000
,
01000000
00100000
10000000
00010000
10000000
10000000
00000000
01000000
,
10000000
00100000
00010000
00001000
00000100
00000001
00000000
00001000
,
00000000
00000001
00001000
00001001
00001000
00000010
00000010
00000100
,
00000001
00000100
00001000
00010000
01000000
10000000
00010000
10010000
,
00000000
10000000
00010000
01000000
00010000
00001000
00000010
00001000
,
00000001
00000010
00001000
00010000
00100000
10000000
00000000
10010000
,
00000000
00000000
10000000
00000000
00100000
00000000
01000000
00000000
00001000
00000000
00010000
00000000
00000100
00000000
00001000
00000100
,
00000010
00000001
00000010
00001000
00000010
00000100
00000000
00011000
,
00000000
00000000
00000000
00100000
00000000
00000000
00010000
00000000
00000000
01000000
00000000
00000000
00100000
10000000
00010000
00100000
00001000
00010000
00000100
00001000
00000001
00000100
00000010
00001000
,
00000002
00000000
00000000
00000000
00000000
00000000
00000103
00000000
00000000
00000010
00001000
00000001
00000100
00000001
00001000
00000100
00010000
00001000
00100000
00010000
10000000
00100000
10000000
00010000
,
10000000
01000000
00100000
00001000
00010000
00000100
00000010
00000001
,
00001000
00000010
00000001
00000010
00010000
00001000
00000000
00100000
,
00010000
10000000
00100000
01000000
00001000
00010000
00000100
00000010
,
00000001
00000001
00000100
00000010
00010000
00001000
00010000
01000000
,
10000000
00100000
01000000
00001000
00010000
00000100
00001000
00000001
,
00001000
00000100
00000010
00000000
00000001
00000100
00001000
00010000
,
01000000
00000000
00000000
10000000
00000000
00000000
01000000
00000000
00000000
00010000
00000000
00000000
00001000
00010000
00000100
00001000
00000010
00000100
00000001
00001000
00000100
00000010
00000001
00001000
,
00000001
00000000
00000000
00000100
00000000
00000000
00000010
00000000
00000000
00010000
00001000
00100000
00010000
01000000
00100000
10000000
00010000
00100000
01000000
10000000
00010000
10000000
01000000
00100000
,
00010000
01000000
00100000
10000000
00000000
01000000
10000000
01000000
,
00100000
00000000
00100000
00000000
00001000
00000000
00010000
00000000
00000100
00000000
00001000
00000000
00000000
00000001
00000100
00000010
,
00001000
00000001
00000010
00000100
00010000
00001000
01000000
00001000
,
00010000
00100000
10000000
00010000
00000000
10010000
00000000
10000000
,
01000000
00100000
00001000
00010000
00000100
00000010
00000001
00001000
,
00000000
00000001
00000100
00000000
00000110
00000010
00010000
00001000
,
01000000
00010000
10000000
01000000
00000000
10000000
01000000
00100000
,
00001000
00000000
00010000
00000000
00000010
00000000
00000000
00000000
00000100
00000000
00000000
00000000
00000001
00000000
00001000
00000001
,
00001000
00000000
00000000
00000001
00000100
00000010
00001000
00000001
00001000
00000100
00000010
00000001
00000100
00001000
00010000
00100000
10000000
00010000
10000000
01000000
00100000
00010000
10000000
00100000
,
01000000
00000000
00000000
00001000
00000000
00000000
00010000
00000000
00000000
00000100
00001000
00000001
00000010
00000001
00001000
00000100
00010000
00001000
01000000
00010000
10000000
01000000
00100000
00010000
,
10000000
01000000
00100000
00010000
10000000
00010000
01000000
00010000
,
00100000
00000000
00100000
00000000
00001000
00000000
00010000
00000000
00000100
00000000
00001000
00000000
00000001
00000100
00000010
00000000
,
00010000
00001000
01000000
00010000
10000000
00010000
00000000
00010000
,
10000000
01000000
00010000
01000000
00100000
00001000
00010000
00000010
,
00000100
00000001
00001000
00000010
00001000
00000100
00000001
00000100
,
00010000
00001000
00100000
00000000
00110000
00010000
10000000
00100000
,
00000000
00000000
00000000
00000000
00000000
00000000
01000000
00000000
00000000
00000000
00000000
00000000
00001000
00000000
00000000
00010000
00000000
00000000
00000100
00000000
00000000
00001000
00000000
00000000
00000001
00000000
00000100
00000000
00000010
00000000
00001000
00000000
00000100
00000000
00000010
00000000
00000001
00000000
00000100
00000000
00000010
00000000
00010000
00000000
00001000
00000000
00100000
00000000
,
00010000
00000000
00000000
10000000
00000000
00000000
01000000
00000000
00000000
10000000
00010000
00100000
00001000
00000000
00010000
00000100
00001000
00000001
00000100
00000001
00001000
00000100
00010000
00001000
,
00010000
01000000
10000000
00010000
10000000
01000000
00010000
00001000
,
00010000
00010000
00001000
00000100
00000001
00001000
00000100
00000000
,
00000100
00001000
00000010
00000100
00000001
00000010
00000100
00010000
,
00001000
00100000
00010000
10000000
00010000
01000000
00000000
01000000
,
00100000
10000000
01000000
00010000
00001000
00000100
00000001
00000000
,
00002000
00000100
00000001
00000000
00003010
00000100
00000001
00000100
,
00001000
00000000
00010000
00000000
00001000
00000000
00100000
00000000
00010000
00000000
10000000
00000000
00100000
01000000
00001000
00000000
,
00020000
00030020
00000230
00002300
,
00203000
00000000
00000000
00000000
01300000
00000000
10000000
00010000
10000000
00000000
00010000
00000000
10000000
00000000
01000000
00000000
,
00100000
00000000
00000000
00000000
00000000
00000000
00000000
00000000
00000000
00000000
00000000
00000000
00000000
00000000
00000000
00000000
00000000
00000000
00000000
00000000
00000000
00000000
00000000
00000000
00100000
00000000
00000000
00000000
00000000
00000000
00000000
00000000
00000000
00000000
00000000
00000000
00000000
00000000
00000000
00000000
00000000
00000000
00000000
00000000
00000000
00000000
00000000
00000000
00002000
00000000
00000000
00000000
00000000
00000000
00000000
00000000
00000000
00000000
00000000
00000000
00000000
00000000
00000000
00000000
00000000
00000000
00000000
00000000
00000000
00000000
00000000
00000000
00000000
00000000
00000000
00000000
00000000
00000000
00000000
00000000
00000000
00000000
00000000
00000000
00013000
00000000
00000000
00000000
00000000
00000000
00001000
00000000
00000000
00000000
00000000
00000000
00010000
00000000
00000000
00000000
00000000
00000000
00000000
00000000
00000000
00000000
00000000
00000000
00000000
00000000
00000000
00000000
00000000
00000000
00000000
00000000
00000000
00000000
00000000
00000000
00001000
00000000
00000000
00000000
00000000
00000000
00000000
00000000
00000000
00000000
00000000
00000000
00000000
00000000
00000000
00000000
00000000
00000000
00000000
00000000
00000000
00000000
00000000
00000000
00010000
00000000
00000000
00000000
00000000
00000000
00000000
00000000
00000000
00000000
00000000
00000000
00000000
00000000
00000000
00000000
00000100
00000000
00000000
00000000
00000000
00000000
00000000
00000000
00000000
00000000
00000000
00000000
00000000
00000000
00000000
00000000
00001000
00000000
00000000
00000000
00000000
00000000
00000000
00000000
00000000
00000000
00000000
00000000
00000000
00000000
00000000
00000000
,
00000001
00000000
00000000
00000000
00000100
00000000
00000000
00000000
00001000
00000000
00010000
00000000
00000000
00000000
00001000
00000000
00000000
00100000
00000000
00000000
00010000
00000000
10000000
00000000
00000000
00000000
00010000
10000000
00000000
00000000
00010000
00000000
,
10000000
00000000
10000000
00000000
01000000
00010000
00001000
00010000
00000000
00001000
00000000
00001000
00000000
00000000
00010000
00000000
,
00001000
00000000
00000000
00000000
00000000
00000000
00000000
00000000
00000000
00000000
00000000
00000000
00000000
00000000
00000000
00000000
00000000
00000000
00000000
00000000
00000000
00000000
00000000
00000000
00001000
00000000
00000000
00000000
00000000
00000000
00000000
00000000
00000000
00000000
00000000
00000000
00000000
00000000
00000000
00000000
00000000
00000000
00000000
00000000
00000000
00000000
00000000
00000000
00000100
00000000
00000000
00000000
00000000
00000000
00000000
00000000
00000000
00000000
00000000
00000000
00001000
00000000
00000000
00000000
00000000
00000000
00000000
00000000
00000000
00000000
00000000
00000000
00010000
00000000
00000000
00000000
00000000
00000000
00000000
00000000
00000000
00000000
00000000
00000000
00001000
00000000
00000000
00000000
00000000
00000000
00000000
00000000
00000000
00000000
00000000
00000000
00000100
00000000
00000000
00000000
00000000
00000000
00001000
00000000
00000000
00000000
00000000
00000000
00000000
00000000
00000000
00000000
00010000
00000000
00000000
00000000
00000000
00000000
00000000
00000000
00000000
00000000
00000000
00000000
00000000
00000000
00000000
00000000
00001000
00000000
00000000
00000000
00000000
00000000
00000000
00000000
00000000
00000000
00000000
00000000
00000000
00000000
00000000
00000000
00010000
00000000
00000000
00000000
00000000
00000000
00000000
00000000
00000000
00000000
00000000
00000000
00000000
00000000
00000000
00000000
00000000
00000000
00000100
00000000
00000000
00000000
00000000
00000000
00001000
00000000
00000000
00000000
00000000
00000000
00000000
00000000
00000000
00000000
00000000
00000000
00000100
00000000
00000000
00000000
00000000
00000000
00000000
00000000
00000000
00000000
00000000
00000000
,
00000010
00000000
00000000
00000000
00000000
00000000
00000100
00000000
00000000
00000000
00000000
00000000
00000000
00000000
00000000
00000000
00000000
00000000
00000000
00000000
00000000
00000000
00000000
00000000
00001000
00000000
00000000
00000000
00000000
00000000
00000000
00000000
00000000
00000000
00000000
00000000
00000000
00000000
00000000
00000000
00000000
00000000
00000001
00000000
00000000
00000000
00000000
00000000
00000000
00000000
00000000
00000000
00000000
00000000
00000000
00000000
00000000
00000000
00000000
00000000
00000001
00000000
00000000
00000000
00000000
00000000
00000000
00000000
00000000
00000000
00000000
00000000
00000000
00000000
00000000
00000000
00000000
00000000
00000000
00000000
00000000
00000000
00000000
00000000
00001000
00000000
00000000
00000000
00000000
00000000
00000000
00000000
00000000
00000000
00000000
00000000
00000001
00000000
00000000
00000000
00000000
00000000
00001000
00000000
00000000
00000000
00000000
00000000
00000000
00000000
00000000
00000000
00000000
00000000
00000000
00000000
00000000
00000000
00000000
00000000
00000001
00000000
00000000
00000000
00000000
00000000
00000000
00000000
00000000
00000000
00000000
00000000
00000000
00000000
00000000
00000000
00000000
00000000
00000000
00000000
00000000
00000000
00000000
00000000
00000010
00000000
00000000
00000000
00000000
00000000
00000000
00000000
00000000
00000000
00000000
00000000
00000000
00000000
00000000
00000000
00000100
00000000
00000000
00000000
00000000
00000000
00000000
00000000
00000000
00000000
00000000
00000000
00000000
00000000
00000000
00000000
00010000
00000000
00000000
00000000
00000000
00000000
00000000
00000000
00000000
00000000
00000000
00000000
00000000
00000000
00000000
00000000
,
00001000
00000000
00000000
00000000
00000000
00000000
01000000
00000000
00000000
00000000
00000000
00000000
00010000
00000000
00000000
00000000
00000000
10000000
00010000
10000000
00010000
00000000
00000000
00000000
00000000
01000000
00100000
01000000
00100000
00000000
00000000
00000000
00000000
00000000
10000000
00010000
10000000
00000000
00000000
00000000
00000000
00000000
00000000
00000000
00000000
10000000
00010000
00000000
,
00000000
00000000
00000000
00000000
00000000
00000000
00010000
01000000
00001000
00000000
00000000
00000000
00010000
00000000
00000000
00000000
00000000
00000000
00000100
00000000
00000000
00000000
00000000
00000000
00000000
00000000
00000000
00000000
00000000
00000000
00001000
00000000
00000000
00000000
00000000
00000000
00000000
00000000
00000000
00000000
00000000
00000000
00000001
00000000
00000000
00000100
00000000
00000000
,
00000010
00001000
00000100
00000001
00000100
00010000
00001000
00100000
00010000
01000000
00100000
10000000
00010000
10000000
01000000
00100000
,
00001000
00000000
00000000
00000000
00000000
00000000
00001000
00000000
00000000
00000000
00000000
00000000
00011000
00000000
00000000
00000000
00000000
00000000
00010000
00000000
00000000
00001000
00000000
00000000
00000000
00000000
00000000
00000000
00000000
00000000
00010000
00000000
00000000
00000000
00000000
00000000
00001000
00000000
00000000
00000000
00010000
00000000
00000000
00000000
00000100
00000000
00000000
00000000
,
00001000
00000000
00001000
00000000
00000001
00000100
00000010
00001000
00000001
00000000
00001000
00000001
00001000
00000000
00000001
00000000
,
00000100
00000000
00000010
00000000
00010000
00000000
00001000
00000000
00100000
00000000
00010000
00000000
01000000
00000000
00100000
00000000
10000000
00000000
01000000
00000000
00010000
00000000
01000000
00000000
10000000
00000000
00000000
01000000
00000000
00000000
00010000
00000000
,
01000000
00000000
00000000
00010000
00000000
00000000
00001000
00000000
00010000
00000000
00000000
00001000
00000000
00000000
00000100
00000000
00000001
00000000
00000000
00000000
00001000
00000000
00000001
00000000
00001000
00000000
00000100
00000000
00000010
00000000
00000000
00000000
,
00000001
00000000
00000000
00001000
00000000
00000000
00000001
00000000
00000000
00000000
00000000
00000000
00000010
00000000
00000000
00000001
00000000
00000000
00000010
00000000
00000000
00000100
00000000
00000000
00001000
00000000
00000010
00000000
00000100
00000000
00000001
00000000
00000010
00000000
00000100
00000000
00010000
00000000
00001000
00000000
00100000
00000000
00010000
00000000
01000000
00000000
00100000
00000000
,
10000000
00000000
00000000
00000000
00000000
00000000
00010000
00000000
00000000
00000000
00000000
00000000
10000000
00010000
00000000
00000000
00000000
10000000
00010000
00000000
00000000
00000000
10000000
00010000
00000000
00000000
00000000
10000000
00000000
00000000
00000000
00000000
10000000
00000000
00000000
00000000
01000000
00000000
00000000
00000000
00000000
00000000
00100000
00000000
00000000
00000000
00000000
00000000
,
00001000
00000000
00000000
00000000
00000000
00000000
00000000
00000000
00000000
00000000
00000000
00000000
00000000
00000000
00000000
00000000
00000000
00000000
00000000
00000000
00000000
00000000
00000000
00000000
00010000
00000000
00000000
00000000
00000000
00000000
00000100
00000000
00000000
00000000
00000000
00000000
00000000
00000000
00000000
00000000
00000000
00000000
00000010
00000000
00000000
00000000
00000000
00000000
00000000
00000000
00000000
00000000
00000000
00000000
00000001
00000000
00000000
00000000
00000000
00000000
00000000
00000000
00000000
00000000
00000000
00000000
00000000
00000000
00000000
00000000
00000000
00000000
00000000
00000000
00000000
00000000
00000000
00000000
00000010
00000000
00000000
00000000
00000000
00000000
00000000
00000000
00000000
00000000
00000000
00000000
00000000
00000000
00000000
00000000
00000000
00000000
00000100
00000000
00000000
00000000
00000000
00000000
00000000
00000000
00000000
00000000
00000000
00000000
00000000
00000000
00000000
00000000
00010000
00000000
00000000
00000000
00000000
00000000
00000000
00000000
00000000
00000000
00000000
00000000
00000000
00000000
00000000
00000000
00001000
00000000
00000000
00000000
00000000
00000000
00000000
00000000
00000000
00000000
00000000
00000000
00000000
00000000
00000000
00000000
01000000
00000000
00000000
00000000
00000000
00000000
00000000
00000000
00000000
00000000
00000000
00000000
00000000
00000000
00000000
00000000
00000000
00000000
00000000
00000000
00000000
00000000
00000000
00000000
00010000
00000000
00000000
00000000
00000000
00000000
00000000
00000000
00000000
00000000
00000000
00000000
10000000
00000000
00000000
00000000
00000000
00000000
00000000
00000000
00000000
00000000
00000000
00000000
,
00010000
00000000
00000000
00000000
00000000
00000000
00100000
00000000
00000000
00000000
00000000
00000000
00001000
00000000
00000000
00000000
00000000
00000000
00010000
00000000
00000000
00000000
00000000
00000000
00000100
00000000
00000000
00001000
00000000
00000000
00000001
00000000
00000000
00000000
00000000
00000000
00000100
00000000
00000000
00000001
00000000
00000000
00000000
00001000
00000000
00000000
00000000
00000001
,
00000000
00000000
00000100
00000000
00000000
00001000
00000000
00000000
00000000
00000000
00000000
00010000
00000000
00000000
00000000
00000000
00000000
00000000
00001000
00000000
00000000
00000000
00000000
00000000
00000000
00000000
00000000
00000000
00000000
00000000
01000000
00000000
00000000
00000000
00000000
00000000
00010000
00000000
00000000
00000000
10000000
00000000
00000000
00000000
01000000
00000000
00000000
00000000
,
10000000
00000000
00010000
00000000
10000000
00010000
10000000
00010000
10000000
00010000
10000000
00010000
10000000
00010000
10000000
00010000
10000000
00010000
10000000
00010000
10000000
00000000
01000000
00000000
00000000
00000000
00010000
00011000
00001000
00010000
00001000
00010000
,
00001000
00010000
00001000
00010000
00001000
00010000
00001000
00010000
00000100
00010000
00000100
00010000
00000100
00010000
00000100
00010000
00000100
00001000
00000100
00001000
00000100
00001000
00000100
00001000
00000001
00001000
00000001
00001000
00000001
00001000
00000001
00001000
,
00000001
00000100
00001000
00000100
00000001
00000000
00000100
00000000
00001000
00000000
00000100
00000000
00000001
00000100
00001000
00010000
,
00001000
00000000
00000000
00000000
00010000
00000000
00001000
00000000
00000000
00000000
00000000
00000000
00100000
00000000
00000000
00000000
00010000
00000000
00000000
00000000
10000000
00000000
00000000
00000000
00000000
00000000
00000000
00000000
00000000
00000000
00000000
00000000
00000000
00000000
00000000
00000000
00000000
00000000
00000000
00010000
00000000
00000000
00100000
00000000
00000000
00001000
00000000
00000000
,
00010000
00000000
00000000
00000000
00010000
00000000
00001000
00000000
00000000
00000000
00001000
00000000
00010000
00000000
00000000
00000000
00010000
00000000
01000000
00000000
00000000
00000000
01000000
00000000
00000000
00000000
00000000
00000000
00000000
00000000
00000000
00000000
00000000
00000000
00000000
00000000
10000000
00000000
00000000
01000000
00000000
00000000
00100000
00000000
00000000
00001000
00000000
00000000
,
00010000
00001000
00000000
00000000
00000000
00000000
00010000
00000000
00000000
00000000
00000100
00001000
00000100
00000000
00000000
00000010
00000000
00000000
00000001
00000000
00000000
00000000
00000000
00000000
00001000
00000001
00001000
00000000
00000000
00000000
00000100
00000000
00000000
00010000
00000000
00000000
00000000
00000000
00001000
00010000
00001000
00000000
00000000
00000000
00000000
01000000
00000000
00000000
,
00010000
00000000
00000000
10000000
00000000
00000000
00010000
10000000
00010000
00000000
00000000
00000000
01000000
00000000
00000000
00000000
00000000
00000000
00010000
00000000
00000000
00000000
00000000
00000000
01000000
00000000
00000000
00000000
00000000
00000000
10000000
00000000
00000000
00000000
00000000
00000000
01000000
00000000
00000000
00001000
00000000
00000000
00010000
00000000
00000000
00000100
00000000
00000000
,
00001000
00000000
00000000
00000001
00000000
00000000
00001000
00000000
00000000
00000000
00000000
00000000
00000010
00000000
00000000
00000100
00000000
00000000
00000010
00000000
00000000
00000000
00000000
00000000
00001000
00000000
00000000
00000000
00000010
00000000
00000000
00000000
00000010
00000000
00000000
00000000
00000100
00000000
00000000
00000000
00000001
00000000
00000000
00000000
00000001
00000000
00000000
00000000
,
00001000
00000000
00000000
00000000
00000000
00000000
00000100
00000000
00000000
00000010
00000000
00000000
00000000
00000000
00000000
00000000
00000001
00000000
00001000
00000000
00000000
00000000
00001000
00000000
00000010
00000000
00000000
00000000
00000010
00000000
00000100
00000000
00000000
00000000
00000100
00000000
00000000
00001000
00000000
00000000
00000000
00010000
00000000
00100000
00000000
00000000
00000000
00100000
,
00000000
10000000
00000000
00000000
00000000
00000000
00010000
00000000
00000000
00000000
20000000
00000000
00000000
00000000
00000000
00000000
00000000
00000000
00000000
00000000
00000000
00000000
00000000
00000000
31000000
00000000
00000000
00000000
00000000
00000000
10000000
00000000
00000000
00000000
00000000
00000000
00010000
00000000
00000000
00000000
00000000
00000000
01000000
00000000
00000000
00001000
00000000
00000000
,
00010000
00000000
00000000
00000000
00010000
00000000
00000010
00000000
00000000
00000000
00000000
00000000
00000100
00000000
00000000
00000000
00000001
00000000
00000000
00000000
00001000
00000000
00000001
00000000
00001000
00000000
00000000
00000000
00000000
00000000
00000001
00001000
,
00000001
00000100
00001000
00010000
00100000
10000000
00000000
10000000
,
00100000
00100000
01000000
00001000
00010000
00001000
00000000
00010000
,
00000010
00000010
00000100
00000001
00000010
00000100
00000000
00000100
,
00000010
00000010
00000001
00000100
00001000
00010000
00000000
00010000
,
00001000
00000000
00000000
00001000
00000000
00000000
01000000
00000000
00000000
00100000
00000000
00000000
10000000
00000000
00000000
00010000
00000000
00000000
00100000
00000000
00001000
00000000
00010000
00000000
,
00002000
00000000
00003000
00000000
;

//---------------dance-double - Copied from Copied f----------------
#NOTES:
     dance-double:
     Copied from Copied f:
     Challenge:
     9:
     0.486,1.000,0.088,0.088,0.518:
00000000
00000000
00000000
00000000
,
00000000
00000000
00000000
00000000
,
00000000
00000000
00000000
00000000
,
00000000
00000000
00000000
00000000
,
00000000
00000000
00000000
00000000
,
10000000
10000000
01000000
00100000
00000000
01000000
00000000
10000000
,
00100000
00100000
01000000
00010000
00000000
10000000
00000000
00010000
,
00100000
00100000
01000000
10000000
00000000
00010000
00000000
10000000
,
00100000
00100000
01000000
00010000
00000000
10000000
00000000
00010000
,
20010000
00000000
00000000
00010000
00000000
00000000
01000000
00000000
00000000
00100000
00000000
00000000
00000000
00000000
00000000
31000000
00000000
00000000
10000000
00000000
00100000
00000000
01000000
00000000
,
00010000
00010000
10000000
01000000
00000000
00100000
00000000
00010000
,
10000000
10000000
00010000
01000000
00000000
00100000
00000000
10000000
,
00100000
00100000
01000000
00010000
00000000
10000000
00000000
00010000
,
00100000
00000000
00000000
00100000
00000000
00000000
01000000
00000000
00000000
10000000
00000000
00000000
00010000
00100000
00010000
10000000
00100000
10000000
00010000
01000000
00010000
10000000
01000000
10000000
,
00010000
00010000
01000000
00100000
00000000
10000000
00000000
10000000
,
00100000
00100000
01000000
01100000
00010000
10000000
01000000
00100000
,
00010000
00000000
00100000
00000000
01000000
00000000
10000000
00000000
00000000
00000000
00010000
10000000
01000000
00000000
00000000
00000000
,
11000000
10000000
01000000
00100000
01000000
10000000
00000000
00100000
,
10100000
10000000
00100000
01000000
00000000
01000000
00000000
00010000
,
00110000
00000000
00100000
00000000
01000000
00000000
10000000
00000000
00000000
00000000
10000000
00000000
00000000
00000000
00010000
10000000
,
00010000
00100000
01000000
10000000
01000000
00010000
01000000
10000000
,
00010000
01000000
00010000
10000000
01000000
10000000
00000000
00100000
,
01010000
00010000
01000000
00100000
00000000
10000000
00000000
01000000
,
00110000
00010000
01000000
00100000
00000000
10000000
00000000
00010000
,
10000000
10000000
01000000
10000000
00010000
00010000
00000000
00010000
,
10000000
00100000
00010000
00100000
10000000
00010000
00000000
00100000
,
00000000
01000000
00100000
02200000
00000000
00000000
00000000
03300000
,
01000000
10000000
01000000
00010000
01000000
10000000
00000000
00010000
,
00000000
10000000
00010000
20020000
00000000
00000000
00000000
30030000
,
10000000
01000000
00100000
01000000
10000000
00010000
00000000
00100000
,
00000000
00000000
01000000
00000000
10000000
00000000
00010000
00000000
00000000
00000000
10010000
00000000
10000000
00000000
01000000
10000000
,
00010000
00100000
00010000
01000000
00100000
10000000
00000000
10010000
,
00000000
00000000
00000000
00010000
00000000
00000000
01000000
00000000
00000000
00100000
00000000
00000000
10000000
01000000
10000000
00010000
01000000
00010000
10000000
01000000
00100000
00010000
01000000
00100000
,
10000000
00000000
00000000
00010000
00000000
00000000
10000000
00000000
00000000
01000000
10000000
00100000
01000000
00010000
10000000
00010000
00100000
01000000
10000000
00010000
01000000
00100000
10000000
00010000
,
10000000
00010000
01000000
10000000
01000000
00010000
10000000
00010000
,
00100000
01000000
10000000
00010000
00000000
10000000
00000000
10010000
,
00000000
10000000
00020000
00000000
00200000
00000000
00300000
00000000
02000000
00000000
00000000
00000000
00000000
00000000
03030000
00000000
,
00010000
00010000
01000000
00100000
10000000
00010000
00000000
10000000
,
00000000
00100000
02000000
00000000
00020000
00000000
00030000
00000000
13000000
00000000
01000000
00000000
00010000
00000000
10000000
00000000
,
01000000
10000000
00020000
00000000
00130000
00010000
10000000
00010000
,
10000000
00000000
00000000
01000000
00000000
00000000
00010000
00000000
00000000
01000000
00000000
00000000
10000000
00100000
01000000
00010000
10000000
01000000
00100000
00010000
10000000
00010000
00100000
01000000
,
10000000
00000000
00000000
00010000
00000000
00000000
01000000
00000000
00000000
00100000
10000000
00100000
01000000
00010000
00100000
01000000
00100000
00010000
01000000
00100000
10000000
01000000
10000000
00010000
,
10000000
01000000
00100000
00010000
00000000
10000000
00010000
10000000
,
00100000
00000000
00100000
00000000
01000000
00000000
00010000
00000000
01000000
00000000
10000000
00000000
01000000
00010000
10000000
00010000
,
10000000
00000000
00000000
01000000
00000000
00000000
00100000
00000000
00000000
00000000
00000000
00010000
10000000
00000000
00000000
00100000
00000000
00000000
01000000
00000000
00000000
00010000
00000000
00000000
,
00100000
00100000
00010000
10000000
00010000
10010000
00000000
10000000
,
00100000
00000000
00000000
00000000
00000000
00000000
01000000
00000000
00000000
00000000
00000000
00000000
00010000
00000000
00000000
00000000
00000000
00000000
00000000
00000000
00000000
10000000
00000000
00000000
00010000
00000000
00000000
00000000
00000000
00000000
01000000
00000000
00000000
00000000
00000000
00000000
00100000
00000000
00000000
00000000
00000000
00000000
00000000
00000000
10000000
00000000
00000000
00000000
,
00000000
00010000
10000000
00000000
00100000
10000000
00010000
00100000
,
00010000
00010000
01000000
00100000
00000000
10000000
00010000
10000000
,
01000000
00000000
20000000
00000000
00010000
00000000
00000000
00000000
01000000
00000000
00000000
00000000
30010000
00000000
01000000
00100000
,
10000000
00000000
00000000
00010000
10000000
01000000
10000000
00010000
01000000
00010000
10000000
01000000
10000000
00010000
01000000
00100000
10000000
00010000
00100000
01000000
10000000
00010000
01000000
00100000
,
10000000
00000000
00000000
00010000
00000000
00000000
10000000
00000000
00000000
00100000
01000000
00010000
10000000
01000000
00100000
01000000
10000000
00100000
01000000
00010000
10000000
00010000
00100000
01000000
,
10000000
00010000
01000000
01010000
00000000
01000000
00010000
01000000
,
00100000
00100000
10000000
00010000
00000000
10010000
10000000
10100000
,
00000000
10000000
00100000
00000000
02000000
00000000
00010000
00000000
03020000
00000000
10000000
00000000
00030000
00000000
00010000
00000000
,
10000000
01000000
00100000
01000000
10000000
00010000
00000000
10010000
,
00000000
00010000
10000000
00000000
00200000
00000000
01300000
00000000
02000000
00000000
03010000
00000000
01000000
00000000
00010000
00000000
,
00100000
01000000
10000000
00000000
00010000
10000000
00100000
01000000
,
00010000
00000000
00000000
00000000
00000000
00000000
10000000
00000000
00000000
00000000
00000000
00000000
01000000
00000000
00000000
10000000
00000000
00000000
00100000
00000000
00000000
01000000
00000000
00000000
00010000
00000000
01000000
00000000
00010000
00000000
10000000
00000000
01000000
00000000
10000000
00000000
00100000
00000000
01000000
00000000
00010000
00000000
10000000
00000000
00010000
00000000
01000000
00000000
,
00100000
00000000
00000000
10000000
00000000
00000000
00010000
00000000
00000000
10000000
00100000
10000000
00010000
00100000
00010000
10000000
01000000
10000000
00010000
01000000
00100000
10000000
00010000
01000000
,
00010000
00000000
10000000
00000000
01000000
00000000
10000000
00000000
00000000
00000000
01000000
00000000
10000000
00000000
01000000
00100000
,
00010000
00100000
00010000
10000000
00000000
00010000
10000000
00100000
,
01000000
00010000
10000000
10000000
01000000
01000000
00100000
01000000
,
10000000
10000000
00010000
10000000
00000000
00100000
00000000
10000000
,
00000000
00010000
10000000
00000000
00020000
00000000
00000000
00000000
01030000
00000000
00010000
00000000
10000000
00000000
00000000
00000000
,
10010000
10000000
00010000
00000000
00110000
00010000
10000000
01000000
,
10000000
00000000
00100000
00000000
01000000
00000000
00010000
00000000
10000000
00000000
00010000
00000000
01000000
00100000
01000000
00000000
,
00010000
00000000
00000000
00000000
20000000
00000000
00000000
00000000
32000000
00000000
00000000
00000000
00010000
03000000
01000000
00100000
,
00010000
00000000
00000000
00000000
00100000
00000000
01000000
10000000
00020000
00000000
00000000
00000000
20030000
00000000
00000000
00000000
,
30010000
00000000
00000000
00000000
00000000
00000000
00000000
00000000
00000000
00000000
00000000
00000000
00000000
00000000
00000000
00000000
00000000
00000000
00000000
00000000
00000000
00000000
00000000
00000000
01000000
00000000
00000000
00000000
00000000
00000000
00000000
00000000
00000000
00000000
00000000
00000000
00000000
00000000
00000000
00000000
00000000
00000000
00000000
00000000
00000000
00000000
00000000
00000000
00200000
00000000
00000000
00000000
00000000
00000000
00000000
00000000
00000000
00000000
00000000
00000000
00000000
00000000
00000000
00000000
00000000
00000000
00000000
00000000
00000000
00000000
00000000
00000000
00000000
00000000
00000000
00000000
00000000
00000000
00000000
00000000
00000000
00000000
00000000
00000000
01300000
00000000
00000000
00000000
00000000
00000000
00100000
00000000
00000000
00000000
00000000
00000000
01000000
00000000
00000000
00000000
00000000
00000000
00000000
00000000
00000000
00000000
00000000
00000000
00000000
00000000
00000000
00000000
00000000
00000000
00000000
00000000
00000000
00000000
00000000
00000000
00010000
00000000
00000000
00000000
00000000
00000000
00000000
00000000
00000000
00000000
00000000
00000000
00000000
00000000
00000000
00000000
00000000
00000000
00000000
00000000
00000000
00000000
00000000
00000000
10000000
00000000
00000000
00000000
00000000
00000000
00000000
00000000
00000000
00000000
00000000
00000000
00000000
00000000
00000000
00000000
00010000
00000000
00000000
00000000
00000000
00000000
00000000
00000000
00000000
00000000
00000000
00000000
00000000
00000000
00000000
00000000
01000000
00000000
00000000
00000000
00000000
00000000
00000000
00000000
00000000
00000000
00000000
00000000
00000000
00000000
00000000
00000000
,
00010000
00000000
00000000
00000000
10000000
00000000
00000000
00000000
00010000
00000000
00100000
00000000
00000000
00000000
01000000
00000000
00000000
10000000
00000000
00000000
00010000
00000000
10000000
00000000
00000000
00000000
00010000
10000000
00000000
00000000
00010000
00000000
,
10000000
00000000
10000000
00000000
01000000
00100000
00010000
10000000
00000000
00010000
00000000
00010000
00000000
00000000
10000000
00000000
,
00100000
00000000
00000000
00000000
00000000
00000000
00000000
00000000
00000000
00000000
00000000
00000000
00000000
00000000
00000000
00000000
00000000
00000000
00000000
00000000
00000000
00000000
00000000
00000000
00100000
00000000
00000000
00000000
00000000
00000000
00000000
00000000
00000000
00000000
00000000
00000000
00000000
00000000
00000000
00000000
00000000
00000000
00000000
00000000
00000000
00000000
00000000
00000000
01000000
00000000
00000000
00000000
00000000
00000000
00000000
00000000
00000000
00000000
00000000
00000000
00010000
00000000
00000000
00000000
00000000
00000000
00000000
00000000
00000000
00000000
00000000
00000000
10000000
00000000
00000000
00000000
00000000
00000000
00000000
00000000
00000000
00000000
00000000
00000000
01000000
00000000
00000000
00000000
00000000
00000000
00000000
00000000
00000000
00000000
00000000
00000000
10000000
00000000
00000000
00000000
00000000
00000000
00010000
00000000
00000000
00000000
00000000
00000000
00000000
00000000
00000000
00000000
10000000
00000000
00000000
00000000
00000000
00000000
00000000
00000000
00000000
00000000
00000000
00000000
00000000
00000000
00000000
00000000
00100000
00000000
00000000
00000000
00000000
00000000
00000000
00000000
00000000
00000000
00000000
00000000
00000000
00000000
00000000
00000000
01000000
00000000
00000000
00000000
00000000
00000000
00000000
00000000
00000000
00000000
00000000
00000000
00000000
00000000
00000000
00000000
00000000
00000000
00010000
00000000
00000000
00000000
00000000
00000000
10000000
00000000
00000000
00000000
00000000
00000000
00000000
00000000
00000000
00000000
00000000
00000000
00010000
00000000
00000000
00000000
00000000
00000000
00000000
00000000
00000000
00000000
00000000
00000000
,
10000000
00000000
00000000
00000000
00000000
00000000
00100000
00000000
00000000
00000000
00000000
00000000
00000000
00000000
00000000
00000000
00000000
00000000
00000000
00000000
00000000
00000000
00000000
00000000
01000000
00000000
00000000
00000000
00000000
00000000
00000000
00000000
00000000
00000000
00000000
00000000
00000000
00000000
00000000
00000000
00000000
00000000
00010000
00000000
00000000
00000000
00000000
00000000
00000000
00000000
00000000
00000000
00000000
00000000
00000000
00000000
00000000
00000000
00000000
00000000
00010000
00000000
00000000
00000000
00000000
00000000
00000000
00000000
00000000
00000000
00000000
00000000
00000000
00000000
00000000
00000000
00000000
00000000
00000000
00000000
00000000
00000000
00000000
00000000
10000000
00000000
00000000
00000000
00000000
00000000
00000000
00000000
00000000
00000000
00000000
00000000
00010000
00000000
00000000
00000000
00000000
00000000
00000000
00000000
00000000
00000000
00000000
00000000
00000000
00000000
00000000
00000000
00000000
00000000
00000000
00000000
00000000
00000000
00000000
00000000
10000000
00000000
00000000
00000000
00000000
00000000
00000000
00000000
00000000
00000000
00000000
00000000
00000000
00000000
00000000
00000000
00000000
00000000
00000000
00000000
00000000
00000000
00000000
00000000
00010000
00000000
00000000
00000000
00000000
00000000
00000000
00000000
00000000
00000000
00000000
00000000
00000000
00000000
00000000
00000000
00100000
00000000
00000000
00000000
00000000
00000000
00000000
00000000
00000000
00000000
00000000
00000000
00000000
00000000
00000000
00000000
01000000
00000000
00000000
00000000
00000000
00000000
00000000
00000000
00000000
00000000
00000000
00000000
00000000
00000000
00000000
00000000
,
10000000
00000000
00000000
00000000
00000000
00000000
10000000
00000000
00000000
00000000
00000000
00000000
01000000
00000000
00000000
00000000
00000000
00000000
00100000
01000000
00100000
00000000
00000000
00000000
00000000
00000000
00010000
10000000
00010000
00000000
00000000
00000000
00000000
00000000
10000000
00000000
00010000
00000000
00000000
00000000
00000000
00000000
01000000
00000000
00100000
00000000
00000000
00000000
,
00000000
00000000
00000000
00000000
00100000
00000000
01000000
00000000
00000000
00000000
00000000
00000000
00010000
00000000
00000000
00000000
00000000
00000000
00010000
00000000
00000000
00000000
00000000
00000000
00000000
00000000
00000000
00000000
00000000
00000000
10000000
00000000
00000000
00000000
00000000
00000000
00000000
00000000
00000000
00000000
00000000
00000000
00010000
00000000
00000000
01000000
00000000
00000000
,
00100000
10000000
01000000
00100000
01000000
10000000
00100000
01000000
00010000
10000000
00010000
01000000
10000000
01000000
00010000
01000000
,
00100000
00000000
00000000
00000000
00000000
00000000
00100000
00000000
00000000
00000000
00000000
00000000
10010000
00000000
00000000
00000000
00000000
00000000
10000000
00000000
00000000
00010000
00000000
00000000
00000000
00000000
00000000
00000000
00000000
00000000
10000000
00000000
00000000
00000000
00000000
00000000
00010000
00000000
00000000
00000000
00100000
00000000
00000000
00000000
01000000
00000000
00000000
00000000
,
10000000
00000000
10000000
00000000
00010000
10000000
00100000
01000000
00010000
00000000
10000000
00000000
00010000
10000000
00100000
00000000
,
01000000
00000000
00000000
00000000
00010000
00000000
00100000
00000000
01000000
00000000
10000000
00000000
00010000
00000000
10000000
00000000
00100000
00000000
01000000
00000000
00010000
00000000
10000000
00000000
01000000
00000000
00000000
10000000
00000000
00000000
01000000
00000000
,
00100000
00000000
00000000
01000000
00000000
00000000
00100000
00000000
00010000
00000000
00000000
10000000
00000000
00000000
00010000
00000000
00000000
10000000
00000000
00000000
00010000
00000000
01000000
00000000
00010000
00000000
10000000
00000000
00010000
00000000
00000000
00000000
,
01000000
00000000
00000000
00000000
00000000
00000000
00100000
00000000
00000000
00000000
00000000
00000000
10000000
00000000
00000000
00010000
00000000
00000000
00000000
00000000
00000000
10000000
00000000
00000000
00010000
00000000
00100000
00000000
01000000
00000000
10000000
00000000
00100000
00000000
01000000
00000000
00010000
00000000
00100000
00000000
01000000
00000000
10000000
00000000
00100000
00000000
01000000
00000000
,
00010000
00000000
00000000
10000000
00000000
00000000
00010000
00000000
00000000
00000000
00010000
00000000
00000000
00000000
10000000
00010000
00000000
00000000
10000000
00000000
00010000
00000000
00000000
00000000
01000000
00000000
00000000
00000000
00100000
00000000
00000000
00000000
,
10000000
00000000
00000000
00000000
00000000
00000000
00000000
00000000
00000000
00000000
00000000
00000000
00000000
00000000
00000000
00000000
00000000
00000000
01000000
00000000
00000000
00000000
00000000
00000000
00000000
00000000
00000000
00000000
00000000
00000000
00100000
00000000
00000000
00000000
00000000
00000000
00000000
00000000
00000000
00000000
00000000
00000000
00010000
00000000
00000000
00000000
00000000
00000000
00000000
00000000
00000000
00000000
00000000
00000000
10000000
00000000
00000000
00000000
00000000
00000000
00000000
00000000
00000000
00000000
00000000
00000000
00000000
00000000
00000000
00000000
00000000
00000000
00000000
00000000
00000000
00000000
00000000
00000000
00010000
00000000
00000000
00000000
00000000
00000000
00000000
00000000
00000000
00000000
00000000
00000000
00100000
00000000
00000000
00000000
00000000
00000000
00010000
00000000
00000000
00000000
00000000
00000000
00000000
00000000
00000000
00000000
00000000
00000000
00000000
00000000
00000000
00000000
01000000
00000000
00000000
00000000
00000000
00000000
00000000
00000000
00000000
00000000
00000000
00000000
00000000
00000000
00000000
00000000
00100000
00000000
00000000
00000000
00000000
00000000
00000000
00000000
00000000
00000000
00000000
00000000
00000000
00000000
00000000
00000000
10000000
00000000
00000000
00000000
00000000
00000000
00000000
00000000
00000000
00000000
00000000
00000000
00000000
00000000
00000000
00000000
00000000
00000000
00000000
00000000
00000000
00000000
00000000
00000000
00010000
00000000
00000000
00000000
00000000
00000000
00000000
00000000
00000000
00000000
00000000
00000000
00100000
00000000
00000000
00000000
00000000
00000000
00000000
00000000
00000000
00000000
00000000
00000000
,
01000000
00000000
10000000
00000000
00010000
00000000
10000000
00000000
01000000
00100000
00010000
00000000
01000000
00100000
10000000
00100000
,
01000000
00000000
00000000
00010000
00000000
00000000
00000000
00000000
00000000
00010000
00000000
00000000
00000000
00000000
00000000
00000000
00000000
00000000
10000000
00000000
00000000
00000000
00000000
00000000
00000000
00000000
00000000
00000000
00000000
00000000
00010000
00000000
00000000
00000000
00000000
00000000
10000000
00000000
00000000
00000000
00010000
00000000
00000000
00000000
01000000
00000000
00000000
00000000
,
00010000
00000000
10000000
00000000
00010000
10000000
00010000
10000000
00010000
10000000
00010000
10000000
00010000
10000000
00010000
10000000
00010000
10000000
00010000
10000000
00010000
00000000
10000000
00000000
00000000
00100000
00000000
01000000
00100000
01000000
00100000
01000000
,
00100000
01000000
00100000
01000000
00100000
01000000
00100000
01000000
00100000
01000000
00100000
01000000
00100000
01000000
00100000
10000000
00010000
10000000
00010000
10000000
00010000
10000000
00010000
10000000
00010000
10000000
00010000
10000000
00010000
10000000
00010000
10000000
,
00010000
01000000
10000000
01000000
00010000
00000000
10000000
00000000
00020000
00000000
00000000
00000000
01030000
00010000
10000000
00010000
,
10000000
00000000
00000000
00000000
00010000
00000000
00100000
00000000
00000000
00000000
00000000
00000000
01000000
00000000
00000000
00000000
10000000
00000000
00000000
00000000
00010000
00000000
00000000
00000000
00000000
00000000
00000000
00000000
00000000
00000000
00000000
00000000
00000000
00000000
00000000
00000000
00000000
00000000
00000000
10000000
00000000
00000000
00100000
00000000
00000000
01000000
00000000
00000000
,
00010000
00000000
00000000
00000000
00010000
00000000
00100000
00000000
00000000
00000000
00100000
00000000
01000000
00000000
00000000
00000000
01000000
00000000
10000000
00000000
00000000
00000000
10000000
00000000
00000000
00000000
00000000
00000000
00000000
00000000
00000000
00000000
00000000
00000000
00000000
00000000
10000000
00000000
00000000
01000000
00000000
00000000
10000000
00000000
00000000
00010000
00000000
00000000
,
00100000
00010000
00000000
00000000
00000000
00000000
10000000
00000000
00000000
00000000
00010000
10000000
00010000
00000000
00000000
01000000
00000000
00000000
00010000
00000000
00000000
00000000
00000000
00000000
10000000
00010000
10000000
00000000
00000000
00000000
01000000
00000000
00000000
00100000
00000000
00000000
00000000
00000000
00010000
10000000
00010000
00000000
00000000
00000000
00000000
00100000
00000000
00000000
,
01000000
00000000
00000000
00100000
00000000
00000000
00010000
10000000
00010000
00000000
00000000
00000000
10000000
00000000
00000000
00000000
00000000
00000000
00010000
00000000
00000000
00000000
00000000
00000000
01000000
00000000
00000000
00000000
00000000
00000000
00010000
00000000
00000000
00000000
00000000
00000000
10000000
00000000
00000000
01000000
00000000
00000000
00100000
00000000
00000000
00010000
00000000
00000000
,
10000000
00000000
00000000
00010000
00000000
00000000
10000000
00000000
00000000
00000000
00000000
00000000
00100000
00000000
00000000
01000000
00000000
00000000
00100000
00000000
00000000
00000000
00000000
00000000
10000000
00000000
00000000
00000000
00100000
00000000
00000000
00000000
00100000
00000000
00000000
00000000
01000000
00000000
00000000
00000000
00010000
00000000
00000000
00000000
00010000
00000000
00000000
00000000
,
10000000
00000000
01000000
00100000
00000000
00100000
00010000
10000000
00010000
01000000
00100000
10000000
00010000
01000000
00100000
10000000
,
01000000
00100000
00020000
00000000
01030000
00010000
01000000
00100000
,
10000000
00000000
10000000
00000000
00100000
00000000
01000000
00000000
00000000
00000000
00100000
01000000
00010000
00000000
00000000
00000000
,
00100000
00100000
01000000
10000000
00000000
10010000
00000000
10000000
,
00100000
00100000
01000000
00010000
00000000
10010000
00000000
00010000
,
00100000
00100000
01000000
10000000
00000000
10010000
00000000
10000000
,
00100000
00100000
01000000
00010000
00000000
10010000
00000000
00010000
,
10000000
00000000
00000000
10000000
00000000
00000000
01000000
00000000
00000000
00100000
00000000
00000000
00000000
00000000
00000000
00110000
00000000
00000000
00010000
00000000
00100000
00000000
01000000
00000000
,
20000000
00000000
30000000
00000000
;

//---------------dance-double - Copied from Copied f----------------
#NOTES:
     dance-double:
     Copied from Copied f:
     Edit:
     9:
     0.489,1.000,0.088,0.088,0.533:
00000000
00000000
00000000
00000000
,
00000000
00000000
00000000
00000000
,
00000000
00000000
00000000
00000000
,
00000000
00000000
00000000
00000000
,
00000000
00000000
00000000
00000000
,
10000000
10000000
01000000
00100000
00000000
01000000
00000000
10000000
,
00100000
00100000
01000000
00010000
00000000
10000000
00000000
00010000
,
00100000
00100000
01000000
10000000
00000000
00010000
00000000
10000000
,
00100000
00100000
01000000
00010000
00000000
10000000
00000000
00010000
,
20010000
00000000
00000000
00010000
00000000
00000000
01000000
00000000
00000000
00100000
00000000
00000000
00000000
00000000
00000000
31000000
00000000
00000000
10000000
00000000
00100000
00000000
01000000
00000000
,
00010000
00010000
10000000
01000000
00000000
00100000
00000000
00010000
,
10000000
10000000
00010000
01000000
00000000
00100000
00000000
10000000
,
00100000
00100000
01000000
00010000
00000000
10000000
00000000
00010000
,
00100000
00000000
00000000
00100000
00000000
00000000
01000000
00000000
00000000
10000000
00000000
00000000
00010000
00100000
00010000
10000000
00100000
10000000
00010000
01000000
00010000
10000000
01000000
10000000
,
00010000
00010000
01000000
00100000
00000000
10000000
00000000
10000000
,
00100000
00100000
01000000
01100000
00010000
10000000
01000000
00100000
,
00010000
00000000
00100000
00000000
01000000
00000000
10000000
00000000
00000000
00000000
00010000
10000000
01000000
00000000
00000000
00000000
,
11000000
10000000
01000000
00100000
01000000
10000000
00000000
00100000
,
10100000
10000000
00100000
01000000
00000000
01000000
00000000
00010000
,
00110000
00000000
00100000
00000000
01000000
00000000
10000000
00000000
00000000
00000000
10000000
00000000
00000000
00000000
00010000
10000000
,
00010000
00100000
01000000
10000000
01000000
00010000
01000000
10000000
,
00010000
01000000
00010000
10000000
01000000
10000000
00000000
00100000
,
01010000
00010000
01000000
00100000
00000000
10000000
00000000
01000000
,
00110000
00010000
01000000
00100000
00000000
10000000
00000000
00010000
,
10000000
10000000
01000000
10000000
00010000
00010000
00000000
00010000
,
10000000
00100000
00010000
00100000
10000000
00010000
00000000
00100000
,
00000000
01000000
00100000
02200000
00000000
00000000
00000000
03300000
,
01000000
10000000
01000000
00010000
01000000
10000000
00000000
00010000
,
00000000
10000000
00010000
20020000
00000000
00000000
00000000
30030000
,
10000000
01000000
00100000
01000000
10000000
00010000
00000000
00100000
,
00000000
00000000
01000000
00000000
10000000
00000000
00010000
00000000
00000000
00000000
10010000
00000000
10000000
00000000
01000000
10000000
,
00010000
00100000
00010000
01000000
00100000
10000000
00000000
10010000
,
00000000
00000000
00000000
00010000
00000000
00000000
01000000
00000000
00000000
00100000
00000000
00000000
10000000
01000000
10000000
00010000
01000000
00010000
10000000
01000000
00100000
00010000
01000000
00100000
,
10000000
00000000
00000000
00010000
00000000
00000000
10000000
00000000
00000000
01000000
10000000
00100000
01000000
00010000
10000000
00010000
00100000
01000000
10000000
00010000
01000000
00100000
10000000
00010000
,
10000000
00010000
01000000
10000000
01000000
00010000
10000000
00010000
,
00100000
01000000
10000000
00010000
00000000
10000000
00000000
10010000
,
00000000
10000000
00020000
00000000
00200000
00000000
00300000
00000000
02000000
00000000
00000000
00000000
00000000
00000000
03030000
00000000
,
00010000
00010000
01000000
00100000
10000000
00010000
00000000
10000000
,
00000000
00100000
02000000
00000000
00020000
00000000
00030000
00000000
13000000
00000000
01000000
00000000
00010000
00000000
10000000
00000000
,
01000000
10000000
00020000
00000000
00130000
00010000
10000000
00010000
,
10000000
00000000
00000000
01000000
00000000
00000000
00010000
00000000
00000000
01000000
00000000
00000000
10000000
00100000
01000000
00010000
10000000
01000000
00100000
00010000
10000000
00010000
00100000
01000000
,
10000000
00000000
00000000
00010000
00000000
00000000
01000000
00000000
00000000
00100000
10000000
00100000
01000000
00010000
00100000
01000000
00100000
00010000
01000000
00100000
10000000
01000000
10000000
00010000
,
10000000
01000000
00100000
00010000
00000000
10000000
00010000
10000000
,
00100000
00000000
00100000
00000000
01000000
00000000
00010000
00000000
01000000
00000000
10000000
00000000
01000000
00010000
10000000
00010000
,
10000000
00000000
00000000
01000000
00000000
00000000
00100000
00000000
00000000
00000000
00000000
00010000
10000000
00000000
00000000
00100000
00000000
00000000
01000000
00000000
00000000
00010000
00000000
00000000
,
00100000
00100000
00010000
10000000
00010000
10010000
00000000
10000000
,
00100000
00000000
00000000
00000000
00000000
00000000
01000000
00000000
00000000
00000000
00000000
00000000
00010000
00000000
00000000
00000000
00000000
00000000
00000000
00000000
00000000
10000000
00000000
00000000
00010000
00000000
00000000
00000000
00000000
00000000
01000000
00000000
00000000
00000000
00000000
00000000
00100000
00000000
00000000
00000000
00000000
00000000
00000000
00000000
10000000
00000000
00000000
00000000
,
00000000
00010000
10000000
00000000
00100000
10000000
00010000
00100000
,
00010000
00010000
01000000
00100000
00000000
10000000
00010000
10000000
,
01000000
00000000
20000000
00000000
00010000
00000000
00000000
00000000
01000000
00000000
00000000
00000000
30010000
00000000
01000000
00100000
,
10000000
00000000
00000000
00010000
10000000
01000000
10000000
00010000
01000000
00010000
10000000
01000000
10000000
00010000
01000000
00100000
10000000
00010000
00100000
01000000
10000000
00010000
01000000
00100000
,
10000000
00000000
00000000
00010000
00000000
00000000
10000000
00000000
00000000
00100000
01000000
00010000
10000000
01000000
00100000
01000000
10000000
00100000
01000000
00010000
10000000
00010000
00100000
01000000
,
10000000
00010000
01000000
01010000
00000000
01000000
00010000
01000000
,
00100000
00100000
10000000
00010000
00000000
10010000
10000000
10100000
,
00000000
10000000
00100000
00000000
02000000
00000000
00010000
00000000
03020000
00000000
10000000
00000000
00030000
00000000
00010000
00000000
,
10000000
01000000
00100000
01000000
10000000
00010000
00000000
10010000
,
00000000
00010000
10000000
00000000
00200000
00000000
01300000
00000000
02000000
00000000
03010000
00000000
01000000
00000000
00010000
00000000
,
00100000
01000000
10000000
00000000
00010000
10000000
00100000
01000000
,
00010000
00000000
00000000
00000000
00000000
00000000
10000000
00000000
00000000
00000000
00000000
00000000
01000000
00000000
00000000
10000000
00000000
00000000
00100000
00000000
00000000
01000000
00000000
00000000
00010000
00000000
01000000
00000000
00010000
00000000
10000000
00000000
01000000
00000000
10000000
00000000
00100000
00000000
01000000
00000000
00010000
00000000
10000000
00000000
00010000
00000000
01000000
00000000
,
00100000
00000000
00000000
10000000
00000000
00000000
00010000
00000000
00000000
10000000
00100000
10000000
00010000
00100000
00010000
10000000
01000000
10000000
00010000
01000000
00100000
10000000
00010000
01000000
,
00010000
00000000
10000000
00000000
01000000
00000000
10000000
00000000
00000000
00000000
01000000
00000000
10000000
00000000
01000000
00100000
,
00010000
00100000
00010000
10000000
00000000
00010000
10000000
00100000
,
01000000
00010000
10000000
10000000
01000000
01000000
00100000
01000000
,
10000000
10000000
00010000
10000000
00000000
00100000
00000000
10000000
,
00000000
00010000
10000000
00000000
00020000
00000000
00000000
00000000
01030000
00000000
00010000
00000000
10000000
00000000
00000000
00000000
,
10010000
10000000
00010000
00000000
00110000
00010000
10000000
01000000
,
10000000
00000000
00100000
00000000
01000000
00000000
00010000
00000000
10000000
00000000
00010000
00000000
01000000
00100000
01000000
00000000
,
00010000
00000000
00000000
00000000
20000000
00000000
00000000
00000000
32000000
00000000
00000000
00000000
00010000
03000000
01000000
00100000
,
00010000
00000000
00000000
00000000
00100000
00000000
01000000
10000000
00020000
00000000
00000000
00000000
20030000
00000000
00000000
00000000
,
30010000
00000000
00000000
00000000
00000000
00000000
00000000
00000000
00000000
00000000
00000000
00000000
00000000
00000000
00000000
00000000
00000000
00000000
00000000
00000000
00000000
00000000
00000000
00000000
01000000
00000000
00000000
00000000
00000000
00000000
00000000
00000000
00000000
00000000
00000000
00000000
00000000
00000000
00000000
00000000
00000000
00000000
00000000
00000000
00000000
00000000
00000000
00000000
00200000
00000000
00000000
00000000
00000000
00000000
00000000
00000000
00000000
00000000
00000000
00000000
00000000
00000000
00000000
00000000
00000000
00000000
00000000
00000000
00000000
00000000
00000000
00000000
00000000
00000000
00000000
00000000
00000000
00000000
00000000
00000000
00000000
00000000
00000000
00000000
01300000
00000000
00000000
00000000
00000000
00000000
00100000
00000000
00000000
00000000
00000000
00000000
01000000
00000000
00000000
00000000
00000000
00000000
00000000
00000000
00000000
00000000
00000000
00000000
00000000
00000000
00000000
00000000
00000000
00000000
00000000
00000000
00000000
00000000
00000000
00000000
00010000
00000000
00000000
00000000
00000000
00000000
00000000
00000000
00000000
00000000
00000000
00000000
00000000
00000000
00000000
00000000
00000000
00000000
00000000
00000000
00000000
00000000
00000000
00000000
10000000
00000000
00000000
00000000
00000000
00000000
00000000
00000000
00000000
00000000
00000000
00000000
00000000
00000000
00000000
00000000
00010000
00000000
00000000
00000000
00000000
00000000
00000000
00000000
00000000
00000000
00000000
00000000
00000000
00000000
00000000
00000000
01000000
00000000
00000000
00000000
00000000
00000000
00000000
00000000
00000000
00000000
00000000
00000000
00000000
00000000
00000000
00000000
,
00010000
00000000
00000000
00000000
10000000
00000000
00000000
00000000
00010000
00000000
00100000
00000000
00000000
00000000
01000000
00000000
00000000
10000000
00000000
00000000
00010000
00000000
10000000
00000000
00000000
00000000
00010000
10000000
00000000
00000000
00010000
00000000
,
10000000
00000000
10000000
00000000
01000000
00100000
00010000
10000000
00000000
00010000
00000000
00010000
00000000
00000000
10000000
00000000
,
00100000
00000000
00000000
00000000
00000000
00000000
00000000
00000000
00000000
00000000
00000000
00000000
00000000
00000000
00000000
00000000
00000000
00000000
00000000
00000000
00000000
00000000
00000000
00000000
00100000
00000000
00000000
00000000
00000000
00000000
00000000
00000000
00000000
00000000
00000000
00000000
00000000
00000000
00000000
00000000
00000000
00000000
00000000
00000000
00000000
00000000
00000000
00000000
01000000
00000000
00000000
00000000
00000000
00000000
00000000
00000000
00000000
00000000
00000000
00000000
00010000
00000000
00000000
00000000
00000000
00000000
00000000
00000000
00000000
00000000
00000000
00000000
10000000
00000000
00000000
00000000
00000000
00000000
00000000
00000000
00000000
00000000
00000000
00000000
01000000
00000000
00000000
00000000
00000000
00000000
00000000
00000000
00000000
00000000
00000000
00000000
10000000
00000000
00000000
00000000
00000000
00000000
00010000
00000000
00000000
00000000
00000000
00000000
00000000
00000000
00000000
00000000
10000000
00000000
00000000
00000000
00000000
00000000
00000000
00000000
00000000
00000000
00000000
00000000
00000000
00000000
00000000
00000000
00100000
00000000
00000000
00000000
00000000
00000000
00000000
00000000
00000000
00000000
00000000
00000000
00000000
00000000
00000000
00000000
01000000
00000000
00000000
00000000
00000000
00000000
00000000
00000000
00000000
00000000
00000000
00000000
00000000
00000000
00000000
00000000
00000000
00000000
00010000
00000000
00000000
00000000
00000000
00000000
10000000
00000000
00000000
00000000
00000000
00000000
00000000
00000000
00000000
00000000
00000000
00000000
00010000
00000000
00000000
00000000
00000000
00000000
00000000
00000000
00000000
00000000
00000000
00000000
,
10000000
00000000
00000000
00000000
00000000
00000000
00100000
00000000
00000000
00000000
00000000
00000000
00000000
00000000
00000000
00000000
00000000
00000000
00000000
00000000
00000000
00000000
00000000
00000000
01000000
00000000
00000000
00000000
00000000
00000000
00000000
00000000
00000000
00000000
00000000
00000000
00000000
00000000
00000000
00000000
00000000
00000000
00010000
00000000
00000000
00000000
00000000
00000000
00000000
00000000
00000000
00000000
00000000
00000000
00000000
00000000
00000000
00000000
00000000
00000000
00010000
00000000
00000000
00000000
00000000
00000000
00000000
00000000
00000000
00000000
00000000
00000000
00000000
00000000
00000000
00000000
00000000
00000000
00000000
00000000
00000000
00000000
00000000
00000000
10000000
00000000
00000000
00000000
00000000
00000000
00000000
00000000
00000000
00000000
00000000
00000000
00010000
00000000
00000000
00000000
00000000
00000000
10000000
00000000
00000000
00000000
00000000
00000000
00000000
00000000
00000000
00000000
00000000
00000000
00000000
00000000
00000000
00000000
00000000
00000000
10000000
00000000
00000000
00000000
00000000
00000000
00000000
00000000
00000000
00000000
00000000
00000000
00000000
00000000
00000000
00000000
00000000
00000000
00000000
00000000
00000000
00000000
00000000
00000000
00010000
00000000
00000000
00000000
00000000
00000000
00000000
00000000
00000000
00000000
00000000
00000000
00000000
00000000
00000000
00000000
00100000
00000000
00000000
00000000
00000000
00000000
00000000
00000000
00000000
00000000
00000000
00000000
00000000
00000000
00000000
00000000
01000000
00000000
00000000
00000000
00000000
00000000
00000000
00000000
00000000
00000000
00000000
00000000
00000000
00000000
00000000
00000000
,
10000000
00000000
00000000
00000000
00000000
00000000
10000000
00000000
00000000
00000000
00000000
00000000
01000000
00000000
00000000
00000000
00000000
00100000
01000000
00100000
01000000
00000000
00000000
00000000
00000000
10000000
00010000
10000000
00010000
00000000
00000000
00000000
00000000
10000000
00010000
10000000
00000000
00000000
00000000
00000000
00000000
00000000
00000000
00000000
00000000
01000000
00100000
00000000
,
00000000
00000000
00000000
00000000
00000000
00000000
00100000
01000000
10000000
00000000
00000000
00000000
00010000
00000000
00000000
00000000
00000000
00000000
00010000
00000000
00000000
00000000
00000000
00000000
00000000
00000000
00000000
00000000
00000000
00000000
10000000
00000000
00000000
00000000
00000000
00000000
00000000
00000000
00000000
00000000
00000000
00000000
00010000
00000000
00000000
01000000
00000000
00000000
,
00100000
10000000
01000000
00100000
01000000
10000000
00100000
01000000
00010000
10000000
00010000
01000000
10000000
01000000
00010000
01000000
,
00100000
00000000
00000000
00000000
00000000
00000000
00100000
00000000
00000000
00000000
00000000
00000000
10010000
00000000
00000000
00000000
00000000
00000000
10000000
00000000
00000000
00010000
00000000
00000000
00000000
00000000
00000000
00000000
00000000
00000000
10000000
00000000
00000000
00000000
00000000
00000000
00010000
00000000
00000000
00000000
00100000
00000000
00000000
00000000
01000000
00000000
00000000
00000000
,
10000000
00000000
10000000
00000000
00010000
10000000
00100000
01000000
00010000
00000000
10000000
00000000
00010000
10000000
00100000
00000000
,
01000000
00000000
00000000
00000000
00010000
00000000
00100000
00000000
01000000
00000000
10000000
00000000
00010000
00000000
10000000
00000000
00100000
00000000
01000000
00000000
00010000
00000000
10000000
00000000
01000000
00000000
00000000
10000000
00000000
00000000
01000000
00000000
,
00100000
00000000
00000000
01000000
00000000
00000000
00100000
00000000
00010000
00000000
00000000
10000000
00000000
00000000
00010000
00000000
00000000
10000000
00000000
00000000
00010000
00000000
01000000
00000000
00010000
00000000
10000000
00000000
00010000
00000000
00000000
00000000
,
01000000
00000000
00000000
00000000
00000000
00000000
00100000
00000000
00000000
00000000
00000000
00000000
10000000
00000000
00000000
00010000
00000000
00000000
00000000
00000000
00000000
10000000
00000000
00000000
00010000
00000000
00100000
00000000
01000000
00000000
10000000
00000000
00100000
00000000
01000000
00000000
00010000
00000000
00100000
00000000
01000000
00000000
10000000
00000000
00100000
00000000
01000000
00000000
,
00010000
00000000
00000000
00000000
00000000
00000000
00000000
00000000
00000000
00000000
00000000
00000000
00000000
00000000
00000000
00000000
00000000
00000000
00000000
00000000
00000000
00000000
00000000
00000000
10000000
00000000
00000000
00000000
00000000
00000000
00000000
00000000
00000000
00000000
00000000
00000000
00000000
00000000
00000000
00000000
00000000
00000000
00000000
00000000
00000000
00000000
00000000
00000000
00010000
00000000
00000000
00000000
10000000
00000000
00000000
00000000
00000000
00000000
00000000
00000000
00000000
00000000
00000000
00000000
00000000
00000000
00000000
00000000
00010000
00000000
00000000
00000000
10000000
00000000
00000000
00000000
00000000
00000000
00000000
00000000
00000000
00000000
00000000
00000000
00000000
00000000
00000000
00000000
00000000
00000000
00010000
00000000
00000000
00000000
00000000
00000000
00000000
00000000
00000000
00000000
00000000
00000000
00000000
00000000
00000000
00000000
00000000
00000000
10000000
00000000
00000000
00000000
00000000
00000000
00000000
00000000
00000000
00000000
00000000
00000000
00010000
00000000
00000000
00000000
00000000
00000000
00000000
00000000
00000000
00000000
00000000
00000000
00000000
00000000
00000000
00000000
00000000
00000000
00000000
00000000
00000000
00000000
00000000
00000000
01000000
00000000
00000000
00000000
00000000
00000000
00000000
00000000
00000000
00000000
00000000
00000000
00000000
00000000
00000000
00000000
00000000
00000000
00000000
00000000
00000000
00000000
00000000
00000000
00100000
00000000
00000000
00000000
00000000
00000000
00000000
00000000
00000000
00000000
00000000
00000000
00000000
00000000
00000000
00000000
00000000
00000000
00000000
00000000
00000000
00000000
00000000
00000000
,
10000000
00000000
00000000
00000000
00000000
00000000
00000000
00000000
00000000
00000000
00000000
00000000
00000000
00000000
00000000
00000000
00000000
00000000
00000000
00000000
00000000
00000000
00000000
00000000
01000000
00000000
00000000
00000000
00000000
00000000
00100000
00000000
00000000
00000000
00000000
00000000
00000000
00000000
00000000
00000000
00000000
00000000
00010000
00000000
00000000
00000000
00000000
00000000
00000000
00000000
00000000
00000000
00000000
00000000
10000000
00000000
00000000
00000000
00000000
00000000
00000000
00000000
00000000
00000000
00000000
00000000
00000000
00000000
00000000
00000000
00000000
00000000
00000000
00000000
00000000
00000000
00000000
00000000
00010000
00000000
00000000
00000000
00000000
00000000
00000000
00000000
00000000
00000000
00000000
00000000
00100000
00000000
00000000
00000000
00000000
00000000
00010000
00000000
00000000
00000000
00000000
00000000
00000000
00000000
00000000
00000000
00000000
00000000
00000000
00000000
00000000
00000000
01000000
00000000
00000000
00000000
00000000
00000000
00000000
00000000
00000000
00000000
00000000
00000000
00000000
00000000
00000000
00000000
00100000
00000000
00000000
00000000
00000000
00000000
00000000
00000000
00000000
00000000
00000000
00000000
00000000
00000000
00000000
00000000
10000000
00000000
00000000
00000000
00000000
00000000
00000000
00000000
00000000
00000000
00000000
00000000
00000000
00000000
00000000
00000000
00000000
00000000
00000000
00000000
00000000
00000000
00000000
00000000
00010000
00000000
00000000
00000000
00000000
00000000
00000000
00000000
00000000
00000000
00000000
00000000
00100000
00000000
00000000
00000000
00000000
00000000
00000000
00000000
00000000
00000000
00000000
00000000
,
01000000
00000000
00000000
00000000
00000000
00000000
10000000
00000000
00000000
00000000
00000000
00000000
00010000
00000000
00000000
00000000
00000000
00000000
10000000
00000000
00000000
00000000
00000000
00000000
01000000
00000000
00000000
00100000
00000000
00000000
00010000
00000000
00000000
00000000
00000000
00000000
01000000
00000000
00000000
00100000
00000000
00000000
00000000
10000000
00000000
00000000
00000000
00100000
,
00000000
00000000
01000000
00000000
00000000
00010000
00000000
00000000
00000000
00000000
00000000
00010000
00000000
00000000
00000000
00000000
00000000
00000000
10000000
00000000
00000000
00000000
00000000
00000000
00000000
00000000
00000000
00000000
00000000
00000000
00010000
00000000
00000000
00000000
00000000
00000000
10000000
00000000
00000000
00000000
00010000
00000000
00000000
00000000
01000000
00000000
00000000
00000000
,
00010000
00000000
10000000
00000000
00010000
10000000
00010000
10000000
00010000
10000000
00010000
10000000
00010000
10000000
00010000
10000000
00010000
10000000
00010000
10000000
00010000
00000000
10000000
00000000
00000000
00000000
00100000
01000000
00100000
01000000
00100000
01000000
,
00100000
01000000
00100000
01000000
00100000
01000000
00100000
01000000
00100000
01000000
00100000
01000000
00100000
01000000
00100000
10000000
00010000
10000000
00010000
10000000
00010000
10000000
00010000
10000000
00010000
10000000
00010000
10000000
00010000
10000000
00010000
10000000
,
00010000
01000000
10000000
01000000
00010000
00000000
10000000
00000000
00020000
00000000
00000000
00000000
01030000
00010000
10000000
00010000
,
10000000
00000000
00000000
00000000
00010000
00000000
00100000
00000000
00000000
00000000
00000000
00000000
01000000
00000000
00000000
00000000
10000000
00000000
00000000
00000000
00010000
00000000
00000000
00000000
00000000
00000000
00000000
00000000
00000000
00000000
00000000
00000000
00000000
00000000
00000000
00000000
00000000
00000000
00000000
10000000
00000000
00000000
00100000
00000000
00000000
01000000
00000000
00000000
,
00010000
00000000
00000000
00000000
00010000
00000000
00100000
00000000
00000000
00000000
00100000
00000000
01000000
00000000
00000000
00000000
01000000
00000000
10000000
00000000
00000000
00000000
10000000
00000000
00000000
00000000
00000000
00000000
00000000
00000000
00000000
00000000
00000000
00000000
00000000
00000000
10000000
00000000
00000000
01000000
00000000
00000000
10000000
00000000
00000000
00010000
00000000
00000000
,
00100000
00010000
00000000
00000000
00000000
00000000
10000000
00000000
00000000
00000000
00010000
10000000
00010000
00000000
00000000
01000000
00000000
00000000
00010000
00000000
00000000
00000000
00000000
00000000
10000000
00010000
10000000
00000000
00000000
00000000
01000000
00000000
00000000
00100000
00000000
00000000
00000000
00000000
00010000
10000000
00010000
00000000
00000000
00000000
00000000
00100000
00000000
00000000
,
01000000
00000000
00000000
00100000
00000000
00000000
00010000
10000000
00010000
00000000
00000000
00000000
10000000
00000000
00000000
00000000
00000000
00000000
00010000
00000000
00000000
00000000
00000000
00000000
01000000
00000000
00000000
00000000
00000000
00000000
00010000
00000000
00000000
00000000
00000000
00000000
10000000
00000000
00000000
01000000
00000000
00000000
00100000
00000000
00000000
00010000
00000000
00000000
,
10000000
00000000
00000000
00010000
00000000
00000000
10000000
00000000
00000000
00000000
00000000
00000000
00100000
00000000
00000000
01000000
00000000
00000000
00100000
00000000
00000000
00000000
00000000
00000000
10000000
00000000
00000000
00000000
00100000
00000000
00000000
00000000
00100000
00000000
00000000
00000000
01000000
00000000
00000000
00000000
00010000
00000000
00000000
00000000
00010000
00000000
00000000
00000000
,
10000000
00000000
00000000
00000000
00000000
00000000
01000000
00000000
00000000
00100000
00000000
00000000
00000000
00000000
00000000
00000000
00010000
00000000
10000000
00000000
00000000
00000000
10000000
00000000
00100000
00000000
00000000
00000000
00100000
00000000
01000000
00000000
00000000
00000000
01000000
00000000
00000000
00010000
00000000
00000000
00000000
00010000
00000000
00100000
00000000
00000000
00000000
00100000
,
00000000
01000000
00000000
00000000
00000000
00000000
00100000
00000000
00000000
00000000
00000000
00000000
00020000
00000000
00000000
00000000
00000000
00000000
00000000
00000000
00000000
00000000
00000000
00000000
01030000
00000000
00000000
00000000
00000000
00000000
00010000
00000000
00000000
00000000
00000000
00000000
01000000
00000000
00000000
00000000
00000000
00000000
00100000
00000000
00000000
00000000
00000000
00000000
,
10000000
00000000
10000000
00000000
00100000
00000000
01000000
00000000
00000000
00000000
00100000
01000000
00010000
00000000
00000000
00000000
,
00100000
00100000
01000000
10000000
00000000
10010000
00000000
10000000
,
00100000
00100000
01000000
00010000
00000000
10010000
00000000
00010000
,
00100000
00100000
01000000
10000000
00000000
10010000
00000000
10000000
,
00100000
00100000
01000000
00010000
00000000
10010000
00000000
00010000
,
10000000
00000000
00000000
10000000
00000000
00000000
01000000
00000000
00000000
00100000
00000000
00000000
00000000
00000000
00000000
00110000
00000000
00000000
00010000
00000000
00100000
00000000
01000000
00000000
,
20000000
00000000
30000000
00000000
;

//---------------dance-single - ----------------
#NOTES:
     dance-single:
     :
     Medium:
     6:
     0.362,0.378,0.154,0.130,0.114:
0000
0000
0000
0000
,
0000
0000
0000
0000
,
0000
0000
0000
0000
,
0000
0000
0000
0000
,
0000
0000
0000
0000
,
1000
1000
0001
0100
0000
0001
0000
1000
,
0010
0010
0100
0001
0000
1000
0000
0001
,
0010
0010
0100
1000
0000
0001
0000
1000
,
0010
0010
0100
0010
0000
1000
0000
0001
,
1000
0000
0000
1000
0000
0000
0100
0000
0000
0010
0000
0000
0000
0000
0000
0001
0000
0000
1000
0000
0001
0000
1000
0000
,
0001
0001
0100
0001
0000
1000
0000
0001
,
1000
1000
0100
1000
0000
0001
0000
1000
,
0010
0010
0100
0001
0000
1000
0000
0001
,
0010
0010
0100
1000
0100
0001
0010
1000
,
0100
0100
0001
0100
0000
1000
0000
0001
,
0100
0100
1000
0100
0001
0100
1000
0100
,
0010
0000
0010
0000
0100
0000
0001
0000
0000
0000
1000
0001
1000
0000
0000
0000
,
0001
0100
1000
0100
0001
1000
0000
2010
,
0000
0001
0000
0100
0000
3001
0000
0012
,
0000
1000
0000
0100
0000
1003
0000
1001
,
0000
0001
2000
0100
0000
0001
0000
3010
,
1000
0010
0001
0010
1000
0001
0000
0012
,
0000
1000
0000
0100
0000
1003
0000
2010
,
0000
0001
0000
0100
0000
3001
0000
0001
,
2000
0100
0000
0001
0000
0010
0000
3001
,
1000
0100
0010
0100
1000
0010
0000
0110
,
0000
0101
0000
2002
0000
0000
0000
3003
,
0001
0100
0010
0100
0001
0010
0000
0110
,
0000
1100
0000
2002
0000
0000
0000
3003
,
1000
0100
0010
0100
1000
0001
0000
0011
,
0000
1001
0000
2100
0000
3001
0000
1000
,
0001
0100
0010
1000
0100
0010
0000
0011
,
0000
0001
0100
0010
1000
0001
1000
0100
,
0020
0000
0031
1000
0010
0001
0100
1000
,
0001
0100
0001
1000
0000
0001
1000
0001
,
0010
0010
0001
1000
0000
0100
0000
1000
,
0000
0001
2000
0000
0020
0000
0030
0000
0200
0000
0000
0000
0000
0000
0300
0000
,
3100
0100
1000
0001
0000
0100
0000
0001
,
0000
1000
0002
0000
0020
0000
0030
0000
2003
0000
3001
0000
1000
0000
0000
0000
,
0010
0100
0001
0000
1000
0001
0010
0100
,
0000
0100
0000
1000
0001
0100
0001
1000
,
0001
0000
0010
0100
1000
0010
0001
0100
,
1000
0001
0000
1000
0000
0001
1000
0001
,
0010
0010
0001
2000
0000
0000
3100
2000
,
0000
0000
0000
3001
0000
0000
0020
0000
0000
0000
0000
0130
0010
0000
0000
0001
0000
0000
1000
0000
0000
0001
0000
0000
,
0010
0010
0100
1000
0000
0001
0000
1000
,
0000
0000
0000
0010
0000
0000
0100
0000
0000
0000
0000
0001
1000
0000
0000
0001
0000
0000
0100
0000
0000
0000
0010
0000
,
0000
0100
0002
0000
1003
0010
1000
0001
,
0100
0010
0100
0101
0000
0001
1000
0000
,
1001
0000
0000
0000
1000
0000
0000
0000
0100
0000
0000
0000
0010
0000
0001
1000
,
0001
0100
0001
0010
1000
0100
0001
1000
,
1001
0000
0001
1000
0010
0001
0100
1000
,
0001
1000
0100
0001
0000
0001
0100
1000
,
0001
0001
1000
0100
0010
0001
0000
1000
,
0010
0000
0000
0100
0000
0000
0001
0000
0000
0000
0000
1000
0002
0000
0000
0000
0000
0000
0000
0000
0000
1003
0000
0000
,
0001
1000
0100
0010
0001
1000
0000
0001
,
0100
0000
0000
0010
0000
0000
1000
0000
0000
0000
0000
0001
1000
0000
0000
0100
0000
0000
1000
0000
0000
0000
0000
0000
,
0002
0100
2003
0000
3001
1000
0100
0010
,
0100
1000
0010
0100
0001
0010
0100
1000
,
0002
0000
0103
1000
0010
0001
0100
0010
,
1000
0001
1000
0100
0000
0100
0001
0100
,
0010
0010
0001
0100
0010
1000
0000
1000
,
0001
0000
0000
1000
0000
0000
0010
0000
0000
0000
0000
0010
0100
0000
0000
0001
0000
0000
1000
0000
0000
0001
0000
0000
,
0010
0100
1000
0001
0100
1000
0000
1000
,
0100
0000
0000
0001
0000
0000
0010
0000
0000
0000
0000
0010
0100
0000
0000
1000
0000
0000
0001
0000
0000
0000
0000
0000
,
1001
0001
1000
0000
0010
1000
0100
0001
,
0000
0000
0001
0000
0100
0000
1000
0000
0000
0000
1000
0000
0001
1000
0001
0000
,
1000
0002
0203
0300
,
0000
0000
0000
0000
0010
0000
1000
0001
2000
0000
0001
0000
3002
0000
0000
0000
,
1003
0000
0000
0001
0000
0000
1000
0000
0000
0001
0000
0000
0100
0000
0000
0000
0000
0000
0100
0000
0001
0000
1000
0000
,
0001
0000
0000
0000
0100
0000
0000
0000
0020
0000
0030
0000
0000
0000
1000
0000
0000
0001
0000
0000
0000
0000
0000
0000
0000
0000
1001
0000
0000
0000
0000
0000
,
1000
0000
0001
0000
0200
0000
0000
1000
0000
0301
0000
0000
0000
0000
0001
0000
,
1000
1000
0100
0010
0001
1000
0010
0100
,
0001
0000
1000
0000
0001
0000
0001
0000
1000
0000
0100
1000
0000
1000
0001
0000
,
0100
0000
0000
0010
0000
0000
1000
0000
0000
0000
0100
0000
0000
0000
0010
0000
0000
0000
0000
0000
0000
0000
0000
0000
,
0001
1000
0000
1001
0000
1100
0000
1000
,
0100
1000
0010
0100
0001
0010
0100
0010
,
0001
0000
0000
0001
0000
0000
1001
0000
0000
1001
0000
0000
0000
0000
0000
0000
0000
0000
1000
0000
0010
0000
0100
0000
,
0001
0000
1000
0100
0010
0100
1000
0100
,
0001
0000
0000
0000
0100
0000
0000
0000
1000
0000
0000
0000
0010
0000
0000
0000
0100
0000
0000
0000
0001
0000
0000
0000
1000
0000
0000
0100
0000
0000
0001
0000
,
0000
1000
0000
0000
0010
0000
0001
0000
1000
0000
0000
0010
0000
0000
0100
0000
0000
1000
0000
0000
0100
0000
0000
0000
0001
0000
0000
0000
1000
0000
0000
0000
,
0001
0010
0010
0000
0010
1000
0100
0001
,
1000
0001
0010
0010
0100
1000
0000
0000
,
0001
0000
0000
0100
0000
0000
0010
0000
0000
0100
0000
0000
0001
0000
0100
0000
0010
0000
0001
0000
0000
0010
0000
0000
,
1000
0000
0010
0000
1000
0000
0001
0000
0100
0000
0010
1000
0020
0000
0000
0000
,
0130
0000
0000
0100
0000
0000
0000
0000
0000
0101
0000
0000
0000
0000
0000
1100
0000
0000
1000
0000
0100
0000
0010
0000
,
0001
0000
0100
0000
0010
0000
1000
0000
0001
0000
1000
0001
1000
0000
0001
0000
,
1000
0010
0100
0001
1000
0100
1000
0010
,
0100
0001
1000
0001
1000
0000
0000
0000
0002
0000
0000
0000
1003
0000
0100
1000
,
0001
0000
0000
0001
0000
0000
0010
0000
0100
0000
1000
0000
0000
0000
0000
0000
0000
0000
1000
0000
0010
0000
0100
0000
,
0001
1000
0001
0100
0000
0000
0100
0010
,
1010
0000
1000
0000
1001
0000
0001
0000
0011
0000
0010
0000
0000
0110
0000
0000
,
0100
1000
0001
1000
0010
0100
0001
1000
,
0001
0100
0100
0100
0010
0010
0010
1000
1000
0010
0100
0001
,
1000
0000
0000
0001
0000
1000
0000
0000
0000
1000
0000
0010
0000
0000
0000
0010
0000
0100
0000
0000
0000
0000
0000
0000
,
0002
0000
0000
0000
0103
0001
1000
0100
,
1000
0000
0010
0000
0100
0000
0001
0000
0000
0000
1000
0001
1000
0000
0000
0000
,
1001
0000
0000
1001
0000
0000
0000
0000
0000
1000
0000
0000
0000
0000
0000
0010
0000
0000
0100
0000
0001
0000
1000
0000
,
0010
0010
0100
0110
0000
0101
0000
1001
,
1000
1000
0100
0010
0000
0011
0000
1001
,
1000
0010
0100
0001
0000
1001
0000
1100
,
1001
0000
0000
1001
0000
0000
0000
0000
0000
0101
0000
0000
0000
0000
0000
1100
0000
0000
1000
0000
0100
0000
0010
0000
,
2002
0000
3003
0000
;

//---------------dance-single - ----------------
#NOTES:
     dance-single:
     :
     Easy:
     4:
     0.183,0.198,0.039,0.158,0.005:
0000
0000
0000
0000
,
0000
0000
0000
0000
,
0000
0000
0000
0000
,
0000
0000
0000
0000
,
0000
0000
0000
0000
,
1000
0000
0000
0001
0000
0000
0000
0000
,
0001
0000
0000
1000
0000
0100
0000
0000
,
1000
0000
0000
0001
0000
0100
0000
0000
,
0001
0000
0000
1000
0000
0010
0000
0000
,
1000
0000
0000
0001
0000
0001
0000
0000
,
0001
0000
0000
1000
0000
1000
0000
0000
,
0100
0000
0000
0010
0000
0010
0000
0000
,
0010
0000
0000
0100
0000
0100
0000
0000
,
1000
0000
0000
0001
0000
0010
0000
0000
,
0001
0000
0000
1000
0000
0010
0000
0000
,
1000
0000
0000
0001
0000
0100
0000
0000
,
0001
0000
0000
1000
0000
0100
0000
0000
,
1000
0000
0001
0000
1000
0000
0000
0100
,
0000
0100
0000
0100
0000
0000
0000
0010
,
0000
0010
0000
0010
0000
0000
0000
0002
,
0000
2000
0000
3003
,
0001
0000
1000
0000
0001
0000
0000
0100
,
0000
0100
0000
0100
0000
0000
0000
0010
,
0000
0010
0000
0010
0000
2000
0000
0002
,
0000
0000
0000
0000
0000
3003
0000
0000
,
1000
0000
0001
0000
0100
0000
0000
0010
,
0000
0010
0000
2002
0000
0000
3003
0000
,
1000
0000
0001
0000
0100
0000
0000
0001
,
0000
1000
0000
0220
0000
0000
0330
0000
,
0001
0000
0100
0000
0010
0000
0000
1000
,
0000
0010
0000
0100
0000
0001
0000
0000
,
0001
0000
0100
0000
0010
1000
0000
2002
,
0000
0000
0000
0000
0000
0000
0000
3003
,
1001
0000
0001
0000
0100
0000
0000
0010
,
0000
2000
0000
3001
0000
0000
0001
0000
,
0100
0000
0010
1000
0000
0001
0000
1000
,
0000
0200
0020
0330
,
0001
0000
0100
0010
0000
1000
0000
0001
,
0000
2000
0002
3003
,
0000
1001
1010
1000
,
0010
0000
0100
0000
0001
0000
1000
0002
,
0000
0003
1000
0000
0100
0000
0000
0010
,
0000
0010
0000
0001
0000
0000
1000
0000
,
0010
1000
0001
1000
,
0100
0010
0002
0000
,
1003
0010
0000
0100
0000
0001
0000
1000
,
0000
0020
0200
0330
,
0000
0100
0020
0000
1030
0000
0001
0000
,
1000
0100
0001
0100
,
1000
0002
2000
3003
,
0001
0000
2000
0000
0002
0000
0000
3003
,
1001
0000
1000
0000
0100
0000
0000
0010
,
0000
0001
0000
1000
0000
0000
0001
0000
,
0010
0000
0000
0010
0000
0100
0000
1000
,
0000
0000
0020
0000
0200
0000
0000
0330
,
0001
0000
0000
0100
0000
1000
0000
0100
,
0000
0002
2000
0000
,
3003
1000
0001
0010
,
0000
0100
0000
1000
0000
0001
0000
1000
,
0000
0000
1000
0000
0100
0000
0000
0010
,
0000
0001
0000
1000
0000
0000
0001
0000
,
0010
0000
0100
1000
0000
0001
0000
0010
,
0000
0002
2000
3003
,
1000
0010
0000
0100
0000
0001
0000
1000
,
0000
0002
2000
3003
,
0000
1000
0001
0000
0010
0000
0100
0000
,
2000
0000
3000
0002
0000
0000
0013
0000
,
0001
0100
0010
0010
,
1000
0010
0100
0001
,
1000
0000
0010
0000
1000
2000
3000
0000
,
0000
0001
0100
0100
,
0000
0001
1000
0000
,
0000
1000
0100
0010
,
0001
0002
0003
1000
,
0001
0000
0000
1000
0000
1000
0000
1000
0000
0000
0000
0000
,
0001
0000
0100
0010
,
1000
0100
0001
0100
,
1000
1001
0001
0010
,
0100
1000
0100
0010
,
0100
1000
0010
0100
,
0001
1000
0100
0100
,
0010
0001
0001
0000
0001
0000
1000
0000
,
1001
0000
0000
0000
,
1000
0010
0100
0000
,
0001
0010
0100
1000
,
0001
1000
0100
0010
,
0002
0000
0000
0000
0000
0000
0000
0000
0000
0000
0000
0003
0000
2000
0000
0000
,
0000
0000
0000
0000
,
3001
1000
0200
0000
,
0310
0001
1000
0010
,
0200
0000
0000
0000
,
0302
0100
1000
0100
,
1000
0010
1000
0103
,
0001
0100
0010
1000
,
0002
0000
0000
0000
,
2003
0000
0000
0000
,
3100
1000
0001
0100
,
0001
0000
0000
0001
0000
1000
0000
0000
,
1000
0000
0000
1000
0000
0001
0000
0000
,
0010
0000
0000
0010
0000
0100
0000
0000
,
0100
0000
0000
0100
0000
0010
0000
0000
,
0001
0000
0000
1001
0000
1001
0000
0002
,
2000
0000
3003
0000
;

//---------------dance-double - ----------------
#NOTES:
     dance-double:
     :
     Medium:
     5:
     0.135,0.152,0.032,0.053,0.005: // measure 1
00000000
00000000
00000000
00000000
,  // measure 2
00000000
00000000
00000000
00000000
,  // measure 3
00000000
00000000
00000000
00000000
,  // measure 4
00000000
00000000
00000000
00000000
,  // measure 5
00000000
00000000
00000000
00000000
,  // measure 6
00001000
00001000
00010000
01000000
00000000
10000000
00000000
01000000
,  // measure 7
00100000
00100000
00010000
10000000
00000000
00010000
00000000
01000000
,  // measure 8
00100000
00100000
00010000
00001000
00000000
00000100
00000000
00000001
,  // measure 9
00000010
00000010
00000001
00001000
00000000
00000010
00000000
00010000
,  // measure 10
00001000
00000000
00000000
00001000
00000000
00000000
01000000
00000000
00000000
00010000
00000000
00000000
00000000
00000000
00000000
10000000
00000000
00000000
00100000
00000000
10000000
00000000
00010000
00000000
,  // measure 11
01000000
01000000
00001000
00010000
00000000
00001000
00000000
00010000
,  // measure 12
00000010
00000010
00000100
00000001
00000000
00001000
00000000
00000001
,  // measure 13
00000010
00000010
00000100
00010000
00000000
00001000
00000000
01000000
,  // measure 14
00010000
00010000
10000000
00010000
00100000
01000000
10000000
00010000
,  // measure 15
10000000
10000000
01000000
00100000
00000000
00001000
00000000
00010000
,  // measure 16
00000100
00000100
00001000
00000001
00000100
00000010
00010000
00001000
,  // measure 17
00100000
00000000
00010000
00000000
10000000
00000000
00010000
00000000
00000000
00000000
10000000
00010000
10000000
00000000
00000000
00000000
,  // measure 18
10000000
01000000
00010000
01000000
10000000
01000000
00000000
00100000
,  // measure 19
00000000
00001000
00000000
00010000
00000000
00001000
00000000
00000010
,  // measure 20
00000000
00001000
00000000
00010000
00000000
00001000
00000000
00000010
,  // measure 21
00000000
00000001
00002000
00000000
00000000
00000000
00000000
00000000
,  // measure 22
00003001
00000100
00001000
00000100
00000001
00000100
00000000
00001000
,  // measure 23
00000000
00010000
00000000
01000000
00000000
00010000
00000000
00001000
,  // measure 24
00000000
00000100
00000000
00000010
00000000
00010000
00000000
00002000
,  // measure 25
00000000
00000000
00000000
00003000
,  // measure 26
00100000
00010000
10000000
00010000
00100000
00010000
00000000
10000000
,  // measure 27
00000000
00100000
00000000
00010000
00000000
00000000
00000000
00000000
,  // measure 28
00001000
00000100
00000001
00001000
00000001
00000100
00000000
00001000
,  // measure 29
00000000
00010000
00000000
00011000
00000000
00000000
00000000
00000000
,  // measure 30
00010000
00001000
00100000
00010000
10000000
00010000
00000000
00100000
,  // measure 31
00000000
00001000
00000000
00010000
00000000
00001000
00000000
00000000
,  // measure 32
00010000
00000100
00000001
00000100
00001000
00000001
00000000
00001001
,  // measure 33
00000000
00001000
00000100
00000010
00000001
00000100
00001000
00010000
,  // measure 34
01000000
00000000
10000000
01000000
00100000
00001000
00000000
00010000
,  // measure 35
00000000
00000100
00000000
00001000
00000000
00000100
00001000
00000100
,  // measure 36
00000010
00000010
00000001
00001000
00000000
00000001
00000000
00000100
,  // measure 37
00000000
00000010
00020000
00000000
00032000
00000000
00000000
00000000
,  // measure 38
01003000
00010000
10000000
01000000
00000000
00100000
00000000
00001000
,  // measure 39
00000000
00010000
00000200
00000000
00002300
00003001
00000100
00000000
,  // measure 40
00000010
00010000
00001000
00000000
00100000
00010000
10000000
00100000
,  // measure 41
00000000
01000000
00000000
00001000
00000000
00010000
00001000
00000000
,  // measure 42
00011000
00000000
00010000
00000100
00001000
00000100
00000000
00000010
,  // measure 43
00000000
00000001
00000000
00001000
00000000
00000001
00000100
00000001
,  // measure 44
00000010
00000010
00000100
00010000
00000000
00000000
00001000
10000000
,  // measure 45
00000000
10000000
00200000
00000000
02300000
00000000
00000000
00000000
,  // measure 46
03010000
01000000
10000000
01000000
00000000
00001000
00000000
00010000
,  // measure 47
00000000
00001000
00020000
00000000
00030200
00000000
00001300
00000100
,  // measure 48
00000000
00000010
00000001
00000000
00001000
00000001
00000100
00000010
,  // measure 49
00020000
00001000
00000000
00031000
01000000
00010000
10000000
01000000
,  // measure 50
10000000
10010000
00022000
00033000
,  // measure 51
00001100
00000101
00001001
00022000
,  // measure 52
00033000
00000000
00000000
00000000
;
