#TITLE:Zzz;
#SUBTITLE:(Nichijou 1st Ending Theme);
#ARTIST:Sayaka Sasaki;
#TITLETRANSLIT:;
#SUBTITLETRANSLIT:;
#ARTISTTRANSLIT:;
#GENRE:;
#CREDIT:;
#BANNER:ZZZ - Sayaka Sasaki-bn.png;
#BACKGROUND:ZZZ - Sayaka Sasaki-bg.png;
#LYRICSPATH:;
#CDTITLE:;
#MUSIC:ZZZ - Sayaka Sasaki.mp3;
#OFFSET:-9.960;
#SAMPLESTART:10.880;
#SAMPLELENGTH:12.500;
#SELECTABLE:YES;
#BPMS:0.000=154.000
;
#STOPS:
;
#BGCHANGES:;
#KEYSOUNDS:;
#ATTACKS:;

//---------------dance-single - ----------------
#NOTES:
     dance-single:
     :
     Hard:
     7:
     0.464,0.390,0.223,0.122,0.000,261.000,20.000,11.000,0.000,0.000,0.000,0.464,0.390,0.223,0.122,0.000,261.000,20.000,11.000,0.000,0.000,0.000: // measure 0
1000
0100
0010
0002
0000
1003
0000
0000
,  // measure 1
0001
0010
0100
2000
0000
3001
0000
0000
,  // measure 2
1000
0100
1000
0020
0000
0130
0000
1000
,  // measure 3
0010
0001
1000
0200
0000
0000
0300
0000
,  // measure 4
1000
0100
0001
0100
0000
1100
0000
0000
,  // measure 5
0001
0100
1000
0100
0000
0101
0000
0000
,  // measure 6
0001
0010
1000
1010
0000
0010
1000
0001
,  // measure 7
0000
0000
0001
0022
0000
0000
0033
0000
,  // measure 8
1000
0100
0001
0100
,  // measure 9
1000
1000
0100
0100
0001
0001
0100
0000
,  // measure 10
1000
0010
0001
0010
,  // measure 11
1000
1000
0010
0010
0001
0000
0001
0000
,  // measure 12
1000
0100
1000
0001
0000
1001
0000
0000
,  // measure 13
0100
0001
0100
0220
0000
0000
0330
0000
,  // measure 14
1000
0100
0010
0001
0000
0010
0100
2000
,  // measure 15
0000
0001
0001
3001
,  // measure 16
0100
1000
0100
1000
0001
0010
0001
0000
,  // measure 17
1000
0001
1000
0001
0100
0001
0010
0000
,  // measure 18
0100
0010
0100
1000
0100
0010
0001
0000
,  // measure 19
0001
0010
0100
1000
0001
1000
0001
0000
,  // measure 20
1000
0100
0001
0000
0001
0100
1000
0000
,  // measure 21
1000
0010
0001
0000
0001
0010
1000
0000
,  // measure 22
1000
1000
0100
0100
0001
0001
0001
0000
,  // measure 23
1000
0010
0001
0010
,  // measure 24
1000
0100
0001
0100
0000
0000
0000
0000
,  // measure 25
1000
0010
0001
0010
0000
0000
0000
0000
,  // measure 26
0001
0010
1000
0010
0000
1100
0000
0101
,  // measure 27
0000
1100
0000
0101
0000
0000
0000
1000
,  // measure 28
0100
0001
0100
1000
0000
1000
0000
1010
,  // measure 29
0000
0011
0000
1010
0000
1000
0001
0000
,  // measure 30
1000
0100
0010
0001
0010
0000
0001
1000
,  // measure 31
0000
0100
0000
1000
0000
0001
0000
0100
,  // measure 32
0001
0000
1000
0010
0000
1000
0100
0000
,  // measure 33
1001
0000
0001
0010
0000
0010
0100
0000
,  // measure 34
1000
0100
0010
0001
0010
0100
1000
0000
,  // measure 35
1000
0100
0001
0100
1000
0010
0001
0000
,  // measure 36
1000
0100
0001
0100
0000
1010
0000
0000
,  // measure 37
0001
0100
0001
0010
0000
0011
0000
0000
,  // measure 38
0100
0001
0010
1000
0000
0100
0000
1100
,  // measure 39
0000
0100
0001
1000
0000
0001
1000
0000
,  // measure 40
0100
1000
0001
0100
0000
0110
0000
0000
,  // measure 41
1000
0100
0010
0001
0000
0010
0100
0000
,  // measure 42
0100
0001
0100
1000
0000
1000
0100
0101
,  // measure 43
0000
0000
1000
0010
1000
0100
0010
0000
,  // measure 44
0001
0100
1000
0100
0000
0101
0000
0000
,  // measure 45
1000
0100
0001
0100
1000
0100
0001
0100
,  // measure 46
1000
1000
0001
0001
,  // measure 47
1000
0100
0010
0001
0000
0010
0100
2000
,  // measure 48
0000
0000
0000
0000
,  // measure 49
3002
0000
0000
0000
,  // measure 50
0000
0003
0000
0000
0000
0000
0000
0000
;

//---------------dance-single - ----------------
#NOTES:
     dance-single:
     :
     Medium:
     5:
     0.331,0.390,0.045,0.178,0.000,188.000,4.000,16.000,0.000,0.000,0.000,0.331,0.390,0.045,0.178,0.000,188.000,4.000,16.000,0.000,0.000,0.000:
1000
0100
0002
1003
,
0001
0100
2000
3001
,
0010
0100
0020
0130
,
0001
1000
0002
1003
,
0100
0001
2000
3001
,
0010
0100
0200
0310
,
0001
0100
1000
0100
,
2000
0001
0001
3001
,
0001
0100
0001
0100
,
1000
0010
1000
0010
,
1000
0100
1000
0100
,
0010
0001
0010
0001
,
1000
0000
0001
1000
0000
1000
0000
0100
,
0000
0100
0000
0001
0000
0001
0000
0000
,
1000
0100
0010
0001
0000
0001
0010
0200
,
0000
0000
0000
0300
,
0001
0001
0100
0100
,
0001
0100
0101
0000
,
1000
1000
0010
0010
,
1000
0010
1010
0000
,
0001
0000
0000
0010
0001
0000
0000
0010
,
0000
1000
0000
0100
0000
0000
0000
0000
,
1001
0000
0000
1000
0100
0000
0000
0001
,
0100
1000
0100
0001
,
1000
0000
0001
2000
0000
0000
3000
0000
,
0001
0000
1000
0002
0000
0000
0003
0000
,
1000
0100
0001
0100
,
1000
0010
0001
0010
,
0100
0100
0001
0001
,
0010
0010
0100
1000
,
0200
0000
0000
0000
,
0302
0000
0000
0003
,
1000
1000
0100
0100
,
0001
0001
0100
0100
,
1000
1000
0010
0010
,
0001
0010
1000
0010
,
0001
0000
1000
0100
0000
0001
0010
0000
,
0100
0000
1000
0001
0000
0100
0001
0000
,
1000
0000
0010
0001
0000
0100
0000
0010
,
0000
0100
0000
1000
0000
0001
1000
0000
,
0001
0000
0100
0001
0000
1000
0010
0000
,
1000
0100
0010
0002
0000
0000
0003
0000
,
1000
0100
0001
0100
0000
1000
0010
0020
,
0000
0000
0000
0030
,
1000
0100
0001
0100
0000
1000
0000
0000
,
0001
0100
1000
0100
0000
0001
0100
0000
,
1000
0100
0001
1001
,
1000
0100
0001
0001
0000
0100
0002
0200
,
0000
0000
0000
0000
,
0000
0000
0000
0000
,
0000
0303
0000
0000
0000
0000
0000
0000
;

//---------------dance-single - ----------------
#NOTES:
     dance-single:
     :
     Easy:
     3:
     0.277,0.250,0.089,0.256,0.000,143.000,8.000,23.000,0.000,0.000,0.000,0.277,0.250,0.089,0.256,0.000,143.000,8.000,23.000,0.000,0.000,0.000:
1000
0100
1000
0000
,
0001
0100
0001
0000
,
1000
0010
1000
0000
,
0001
0010
0001
0000
,
1000
1000
1000
0000
,
0001
0001
0001
0000
,
0010
0010
0010
0000
,
0100
0100
0200
0300
,
1000
0100
1000
0100
,
0001
0100
0001
0100
,
1000
0010
1000
0010
,
0001
0010
0001
0010
,
1000
1000
2000
3000
,
0001
0001
0002
0003
,
0010
0010
0100
0100
,
0220
0000
0000
0330
,
0100
0010
0001
0100
,
0010
1000
0100
0001
,
1000
0100
0001
0100
,
0010
0001
1000
0001
,
2000
0000
3200
0000
,
0302
0000
0203
0000
,
2300
0000
3020
0000
,
0032
0000
0000
0003
,
0001
0001
0101
0000
,
1000
1000
1010
0000
,
1000
1000
1100
0000
,
0010
0010
0011
0000
,
1000
0001
1001
0000
,
0001
1000
1001
0000
,
0020
0000
0230
0000
,
0320
0000
0230
0000
,
0302
0000
0000
0000
,
0203
0000
0000
0000
,
2300
0000
0000
0000
,
3200
0000
0000
0300
,
0001
0001
0010
0010
,
1000
1000
0010
0010
,
0100
0100
0001
0001
,
0100
0100
2000
3000
,
0001
0010
1000
0010
,
0001
0100
1000
0001
,
1000
0000
0001
0000
,
1001
0000
0000
0000
,
1000
0100
0001
0100
,
1000
0010
0001
0010
,
2000
0001
0001
3001
,
0100
0001
1000
0100
,
0002
0000
0000
0000
,
0000
0000
0000
0000
,
0003
0000
0000
0000
;

//---------------dance-single - ----------------
#NOTES:
     dance-single:
     :
     Beginner:
     1:
     0.108,0.111,0.056,0.145,0.000,50.000,5.000,13.000,0.000,0.000,0.000,0.108,0.111,0.056,0.145,0.000,50.000,5.000,13.000,0.000,0.000,0.000:
1000
0000
0000
0000
,
0001
0000
0000
0000
,
1000
0000
0000
0000
,
0001
0000
0000
0000
,
0010
0000
0000
0000
,
0100
0000
0000
0000
,
0010
0000
0000
0000
,
0100
0000
0000
0000
,
2000
0000
0000
3000
,
0002
0000
0000
0003
,
2000
0000
0000
3000
,
0002
0000
0000
0003
,
0020
0000
0000
0030
,
0200
0000
0000
0300
,
0020
0000
0000
0030
,
0200
0000
0000
0300
,
0110
0000
0000
0000
,
0000
0000
0000
0000
,
1001
0000
0000
0000
,
0000
0000
0000
0000
,
0110
0000
0000
0000
,
0000
0000
0000
0000
,
1001
0000
0000
0000
,
0000
0000
0000
0000
,
1000
0000
1000
0000
,
1000
0000
0000
0000
,
0001
0000
0001
0000
,
0001
0000
0000
0000
,
0010
0000
0010
0000
,
0010
0000
0000
0000
,
0100
0000
0100
0000
,
0100
0000
0000
0000
,
0002
0000
0003
0000
,
0200
0000
0300
0000
,
2000
0000
3000
0000
,
0020
0000
0030
0000
,
0001
0000
0000
0000
,
0100
0000
0000
0000
,
1000
0000
0000
0000
,
0010
0000
0000
0000
,
0001
0000
0000
0000
,
0010
0000
0000
0000
,
1000
0000
0000
0000
,
0100
0000
0000
0000
,
0001
0000
0000
0000
,
1000
0000
0000
0000
,
1001
0000
0000
0000
,
0010
0000
0100
0000
,
0020
0000
0000
0000
,
0000
0000
0000
0000
,
0030
0000
0000
0000
;
