#TITLE:Spear Of Justice;
#SUBTITLE:(Sayonara Maxwell Remix);
#ARTIST:Toby Fox;
#TITLETRANSLIT:;
#SUBTITLETRANSLIT:;
#ARTISTTRANSLIT:;
#CREDIT:;
#BANNER:Spear Of Justice (Sayonara Maxwell Remix).png;
#BACKGROUND:Spear Of Justice (Sayonara Maxwell Remix) - bg.png;
#LYRICSPATH:;
#CDTITLE:cdtitle.png;
#MUSIC:Spear Of Justice (Sayonara Maxwell Remix).ogg;
#OFFSET:-0.964;
#SAMPLESTART:20.520;
#SAMPLELENGTH:14.900;
#SELECTABLE:YES;
#DISPLAYBPM:71.000:141.000;
#BPMS:0.000=70.500,11.000=141.000,89.000=282.000,93.000=141.000,118.500=70.500,119.000=141.000,124.000=70.500,124.500=141.000,129.500=70.500,130.000=141.000,135.000=70.500,135.500=141.000,164.500=70.500,165.000=141.000,170.000=70.500,170.500=141.000,175.500=70.500,176.000=141.000,181.000=70.500,181.500=141.000,233.000=70.500;
#STOPS:89.000=0.110
,89.500=0.110
,90.000=0.110
,90.500=0.110
;
#BGCHANGES:;

//---------------dance-single - ----------------
#NOTES:
     dance-single:
     :
     Medium:
     7:
     0.412,0.391,0.253,0.366,0.000:
0000
0000
0000
0000
,
0000
0000
1000
0100
0010
0001
0100
0010
,
1000
0100
0010
0001
0010
0100
220M
0000
,
0000
0000
3300
1000
2002
0000
0000
0000
,
3003
0000
0202
0000
0000
0000
0303
0001
,
0021
0000
0030
0002
0000
0003
0202
0000
,
0000
0000
0303
0001
2002
0000
0000
0000
,
3003
0000
2200
0000
0000
0000
3300
1000
,
1020
0000
0030
2000
0000
3000
1001
0000
,
1000
0000
1000
0100
0010
0000
0001
0000
,
0001
0100
0010
0000
1000
0000
1000
0100
,
0010
0001
0100
0001
0100
0001
0100
0000
,
0010
0000
0010
1000
0001
0000
1000
0000
,
1000
0001
0010
0000
0100
0000
0100
0010
,
0001
1000
0001
1000
0001
1000
1010
0000
,
1000
0000
1000
0010
0100
0000
0001
0000
,
0001
0010
0100
0000
1000
0000
1000
0010
,
0100
0001
0010
0001
0010
0001
0010
0000
,
0100
0000
0100
1000
0001
0000
1000
0000
,
1000
0001
0100
0000
0010
0000
0010
0100
,
0001
1000
0001
1000
0000
1000
0010
0100
,
0010
0100
0000
0100
0010
1000
0010
1000
,
0000
1000
0001
1000
0001
10M0
0000
0000
,
0000
0000
10M1
0000
1000
0000
1000
0010
,
0100
0000
0100
0000
0100
0010
1000
0000
,
1000
0000
1000
0100
0010
0000
0100
0000
,
0110
0000
0010
0000
0001
0000
0001
0010
,
0100
0000
0100
0000
0100
0010
0001
0000
,
0001
0000
0001
0100
0010
0000
0100
0000
,
0110
0000
0020
0000
0030
101M
000M
2000
,
0000
0000
3002
0000
0000
0023
0000
0030
,
0M11
0M00
2000
0000
0000
3020
0000
0000
,
0230
0000
0300
M101
M000
0002
0000
0000
,
2003
0000
0000
3200
0000
0300
11M0
00M0
,
0002
0000
0000
0203
0000
0300
0101
0000
,
0100
0000
0010
0100
0010
0000
0100
0000
,
0001
1000
0001
0000
0100
0000
0010
0000
,
1000
0100
0110
0010
,
0001
0000
0010
0100
0010
0000
0100
0000
,
1000
0001
1000
0000
0001
0000
1000
0000
,
0010
0100
0110
0200
,
0300
M101
M000
0002
0000
0000
2003
0000
,
0000
3200
0000
0300
11M0
00M0
0002
0000
,
0000
0203
0000
0000
0320
0000
003M
101M
,
0000
2000
0000
0000
3002
0000
0000
0023
,
0000
0030
0M11
0M00
2000
0000
0000
3020
,
0000
0030
1010
0000
0001
0000
0001
0100
,
0010
0000
0010
0000
0010
0100
0001
0000
,
0001
0000
0001
0010
0100
0000
0010
0000
,
0110
0000
0100
0000
1000
0000
1000
0100
,
0010
0000
0010
0000
0010
0100
1000
0000
,
1000
0000
1000
0010
0100
0000
0010
0000
,
0110
0000
0110
0000
0100
0000
0001
0010
,
0100
0000
1000
0000
0001
0010
0100
0000
,
1000
1000
0010
0100
,
0001
0000
1000
0000
0001
0000
1000
0010
,
0100
0000
0001
0000
1000
0010
0100
0000
,
0001
0001
0010
0100
,
1000
2002
0000
0000
,
0000
0000
0000
3003
;

//---------------dance-single - ----------------
#NOTES:
     dance-single:
     :
     Challenge:
     11:
     0.749,0.808,0.305,0.471,0.871: // measure 1
0000
0000
0000
0000
,  // measure 2
0000
0000
0000
0000
0000
0000
0000
0000
0000
0000
0000
0000
0000
0000
0000
0000
2000
0000
0000
0000
0000
3000
0001
0000
0000
0000
0010
0000
0100
0000
0000
0000
0010
0000
0000
0000
0001
0000
0000
0000
2000
0000
0000
0000
0000
3000
0001
0000
0000
0000
0010
0000
0100
0000
0000
0000
0010
0000
0000
0000
0001
0000
0000
0000
,  // measure 3
2000
0000
0000
0000
0000
3000
0001
0000
0000
0000
1000
0000
0010
0000
0000
0000
0100
0000
0000
0000
0001
0000
0000
0000
0020
0000
0000
0000
0031
0000
0000
0000
1000
0000
0000
0000
0020
0000
0000
0000
0130
0000
0000
0000
0001
0000
0000
0000
20M2
0000
0000
0000
3003
0000
0000
0000
0000
0000
0000
0000
1000
0000
0000
0000
,  // measure 4
0000
0010
0100
0000
0001
0000
0011
0000
0011
0000
0000
0001
0000
0010
0100
0000
,  // measure 5
1000
0000
0010
0000
0110
0000
0000
0010
0000
1000
0001
0000
0100
0000
0101
0000
,  // measure 6
0101
0000
0001
0000
1000
0000
0001
0000
0010
0000
0100
0000
1100
0000
0000
1000
,  // measure 7
0000
0100
0010
0000
0001
0000
0101
0000
0101
0000
0000
0001
0000
0100
0010
0000
,  // measure 8
1000
0000
0100
0000
0110
0000
0000
0100
0000
1000
0001
0000
0010
0000
0011
0000
,  // measure 9
0011
0000
0001
0000
1000
0000
0001
0000
0100
0000
0010
0000
2020
3030
0000
1000
,  // measure 10
0000
0001
1000
0000
0100
0000
1000
0000
1001
0000
0000
0001
0000
1000
0001
0000
,  // measure 11
0100
0000
0001
0000
1001
0000
0000
1000
0000
0100
1000
0000
0010
0000
0100
0000
,  // measure 12
0010
0000
1000
0000
0001
0000
0010
0000
0100
0000
1000
0000
1001
0000
0000
0001
,  // measure 13
0000
1000
0001
0000
0100
0000
0001
0000
1001
0000
0000
1000
0000
0001
1000
0000
,  // measure 14
0100
0000
1000
0000
1001
0000
0000
0001
0000
0100
0001
0000
0010
0000
0100
0000
,  // measure 15
0010
0000
0001
0000
1000
0000
0010
0000
0100
0000
0001
0000
0022
0033
0000
0001
,  // measure 16
0000
0100
1000
0000
0100
0000
0001
0000
0101
0000
0000
1000
0000
0010
0001
0000
,  // measure 17
0010
0000
1000
0000
1010
0000
0000
0001
0000
0100
1000
0000
0100
0000
0001
0000
,  // measure 18
1000
0000
0010
0000
0100
0000
0001
0000
0010
0000
0100
0000
0110
0000
0000
0100
,  // measure 19
0000
1000
0010
0000
1000
0000
0100
0000
1100
0000
0000
0010
0000
0001
0100
0000
,  // measure 20
0001
0000
0010
0000
0011
0000
0000
0100
0000
1000
0010
0000
1000
0000
0100
0000
,  // measure 21
0010
0001
0010
0100
1000
0010
0100
0010
,  // measure 22
1000
0100
0010
0100
1000
0010
0100
0001
,  // measure 23
0010
0001
0101
0101
0110
M110
0000
0000
,  // measure 24
0000
0000
0000
0000
20M2
3003
0000
0001
0000
1000
0100
0000
1000
0100
0010
0001
,  // measure 25
0010
0000
0000
0001
0000
1000
0100
0000
1000
0010
0100
0001
0100
0000
0000
0001
,  // measure 26
0000
0010
0100
0000
0010
0000
0001
0000
1000
0001
1000
0001
0000
0010
0100
0000
,  // measure 27
0100
0010
0000
0000
0011
0000
0000
1000
0000
0001
0100
0000
0001
0100
0010
1000
,  // measure 28
0010
0000
0000
1000
0000
0001
0100
0000
0001
0010
0100
1000
0100
0000
0000
1000
,  // measure 29
0000
0010
0100
0000
0010
0000
1000
0000
0001
1000
0001
1000
0000
0001
0100
0000
,  // measure 30
0100
0001
0000
0000
0010
0001
0010
0001
0010
0001
M010
0000
M000
0000
0002
0000
,  // measure 31
0000
2003
0000
0000
3200
0000
0000
0000
0300
0000
1000
0010
1000
0010
1000
0010
,  // measure 32
1M00
0000
0M00
0000
0002
0000
0000
0023
0000
0000
0032
0000
0000
2003
0000
0000
,  // measure 33
3010
0100
0010
0100
0010
0100
001M
0000
000M
0000
2000
0000
0000
3002
0000
0000
,  // measure 34
0203
0000
0000
0000
0300
0000
0001
0010
0001
0010
0001
0010
0M01
0000
0M00
0000
,  // measure 35
2000
0000
0000
3020
0000
0000
0230
0000
0000
0000
0300
0010
1000
0000
0000
1000
,  // measure 36
0000
0001
0100
0000
0001
0100
0010
1000
0010
0000
0000
1000
0000
0001
0100
0000
,  // measure 37
0001
0010
0100
1000
0100
0000
0000
1000
0000
0010
0100
0000
0010
0000
1000
0000
,  // measure 38
0001
1000
0001
1000
0000
0010
0100
0000
0100
0010
0000
0000
1010
0000
0000
0001
,  // measure 39
0000
1000
0100
0000
1000
0100
0010
0001
0010
0000
0000
0001
0000
1000
0100
0000
,  // measure 40
1000
0010
0100
0001
0100
0000
0000
0001
0000
0010
0100
0000
0010
0000
0001
0000
,  // measure 41
1000
0001
1000
0001
0000
1000
0100
0000
0100
1000
0000
0000
0010
1000
0010
1000
,  // measure 42
0010
1000
001M
0000
000M
0000
2000
0000
0000
3002
0000
0000
0203
0000
0000
0000
,  // measure 43
0300
0000
0001
0010
0001
0010
0001
0010
0M01
0000
0M00
0000
2000
0000
0000
3020
,  // measure 44
0000
0000
2030
0000
0000
3002
0000
0000
0013
0100
0010
0100
0010
0100
M010
0000
,  // measure 45
M000
0000
0002
0000
0000
2003
0000
0000
3200
0000
0000
0000
0300
0000
1000
0010
,  // measure 46
1000
0010
1000
0010
1M00
0000
0M00
0000
0002
0000
0000
0023
0000
0000
0230
0000
,  // measure 47
0000
0000
0300
0000
0220
0330
0000
0010
0000
0001
0100
0000
0001
1000
0001
1000
,  // measure 48
0100
0000
0000
1000
0000
0001
0100
0000
0001
0010
0001
0010
0100
0000
0000
0100
,  // measure 49
0000
1000
0010
0000
0100
0000
0001
0000
0010
0001
0010
0001
0000
0100
0001
0000
,  // measure 50
0001
0100
0000
0000
0110
0000
0000
0010
0000
1000
0100
0000
1000
0001
1000
0001
,  // measure 51
0100
0000
0000
0001
0000
1000
0100
0000
1000
0010
1000
0010
0100
0000
0000
0100
,  // measure 52
0000
0001
0010
0000
0100
0000
1000
0000
0010
1000
0010
1000
0000
0100
1000
0000
,  // measure 53
1000
0100
0000
0000
2001
0000
0000
3001
0000
1000
0010
0000
1000
0010
0100
0001
,  // measure 54
0200
0000
0000
0301
0000
1000
0010
0000
1000
0100
0010
0001
0020
0000
0000
0031
,  // measure 55
0000
0100
0010
0000
0100
0000
0001
0000
1000
0001
1000
0001
0000
0100
0010
0000
,  // measure 56
0010
0100
0000
0000
0002
0000
0000
1003
0000
0001
0010
0000
0001
0010
0100
1000
,  // measure 57
0200
0000
0000
1300
0000
0001
0010
0000
0001
0100
0010
1000
0020
0000
0000
1030
,  // measure 58
0000
0100
0010
0000
0100
0000
1000
0000
0001
1000
0001
1000
0000
0001
0200
0000
,  // measure 59
0000
0000
0300
0000
0120
0000
0000
0000
0000
1000
2030
0000
0000
0000
0000
0000
,  // measure 60
3002
0000
0000
0000
0000
0010
0023
0000
0000
0032
0000
0000
0200
0303
0000
0000
;

//---------------dance-single - ----------------
#NOTES:
     dance-single:
     :
     Hard:
     9:
     0.570,0.521,0.244,0.296,0.414:
0000
0000
0000
0000
,
0000
0000
0000
0000
1000
0000
0001
0000
0010
0100
0010
0000
0001
0000
0100
0010
,
0100
0000
0001
0000
0010
0100
0010
0000
0100
0000
1000
0000
201M
0000
0000
0010
,
0000
0000
0010
0000
3010
0000
0010
0000
0120
0000
0000
0100
0000
0000
0100
0000
,
0130
0000
0100
0000
0201
0000
0000
0001
0000
0000
0001
0000
0301
0000
0001
0000
,
1000
0000
0001
0000
1000
0000
0001
0000
0100
0000
0001
0000
0012
0000
0000
0010
,
0000
0000
0010
0000
0013
0000
0010
0000
0120
0000
0000
0100
0000
0000
0100
0000
,
0130
0000
0100
0000
1200
0000
0000
1000
0000
0000
1000
0000
1300
0000
1000
0000
,
0001
0000
1000
0000
0001
0000
1000
0000
0100
0000
1000
0000
1010
0000
0000
1000
,
0000
0000
0001
0000
0100
0000
0010
0000
0100
0000
0000
0001
0000
0000
1000
0000
,
0100
0000
0010
0000
0100
0000
0000
1000
0000
0000
0001
0000
0100
0000
0010
0000
,
0100
0000
0010
0000
0100
0000
0001
0000
0100
0000
0010
0000
1000
0000
0000
0001
,
0000
0000
1000
0000
0100
0000
0010
0000
0100
0000
0000
1000
0000
0000
0001
0000
,
0100
0000
0010
0000
0100
0000
0000
0001
0000
0000
1000
0000
0010
0000
0100
0000
,
0010
0000
0100
0000
0010
0000
1000
0000
0010
0000
0100
0000
0102
0000
0000
0103
,
0000
0000
0001
0000
0100
0000
1000
0000
0200
0000
0000
0301
0000
0000
0010
0000
,
1000
0000
0010
0000
0002
0000
0000
1003
0000
0000
0010
0000
1000
0000
0100
0000
,
1000
0000
0001
0000
1000
0000
0001
0000
0010
0000
0001
0000
0020
0000
0000
0130
,
0000
0000
1000
0000
0100
0000
0001
0000
0200
0000
0000
1300
0000
0000
0010
0000
,
0001
0000
0010
0000
2000
0000
0000
3001
0000
0000
0010
0000
0001
0000
0100
0000
,
0001
1000
0001
1000
0010
1000
0010
0100
,
0001
0100
0001
0010
0100
1000
0100
1000
,
0100
0010
0001
0001
0100
M100
0000
0000
,
0000
0000
0000
0000
10M1
0000
0000
0001
0000
0000
1000
0000
0001
0000
0010
0000
,
0100
0000
0000
0010
0000
0000
0001
0000
1000
0000
0010
0000
0100
0000
0000
0010
,
0000
0000
1000
0000
0001
0000
1000
0000
0100
0000
0000
0010
0000
0000
0110
0000
,
0000
0011
0000
0000
0001
0000
0000
1000
0000
0000
0001
0000
1000
0000
0010
0000
,
0100
0000
0000
0010
0000
0000
1000
0000
0001
0000
0010
0000
0100
0000
0000
0010
,
0000
0000
0001
0000
1000
0000
0001
0000
0100
0000
0000
0010
0000
0000
0110
0000
,
0000
1010
0000
0000
1000
0001
1000
0001
1000
0001
10M0
0000
00M0
0000
1000
0000
,
0000
0010
0000
0000
0200
0000
0000
0000
0300
0000
0001
1000
0001
1000
0001
1000
,
0M01
0000
0M00
0000
0001
0000
0000
0010
0000
0000
0002
0000
0000
1003
0000
0000
,
1000
0001
1000
0001
1000
0001
10M0
0000
00M0
0000
1000
0000
0000
0010
0000
0000
,
0200
0000
0000
0000
0300
0000
0001
1000
0001
1000
0001
1000
0M01
0000
0M00
0000
,
0001
0000
0000
0010
0000
0000
0002
0000
0000
0000
0003
0000
1001
0000
0000
1000
,
0000
0000
0010
0000
1000
0000
0100
0000
1000
0000
0000
0010
0000
0000
0100
0000
,
0001
0000
0010
0000
0001
0000
0000
0100
0000
0000
0001
0000
0010
0000
0100
0000
,
1000
0000
0000
0010
0000
0000
1010
0000
0000
1100
0000
0000
1000
0000
0000
0001
,
0000
0000
0010
0000
0001
0000
0100
0000
0001
0000
0000
0010
0000
0000
0100
0000
,
1000
0000
0010
0000
1000
0000
0000
0100
0000
0000
1000
0000
0010
0000
0100
0000
,
0001
0000
0000
0010
0000
0000
0011
0000
0000
0101
0000
0000
0001
1000
0001
1000
,
0001
1000
0M01
0000
0M00
0000
0001
0000
0000
0010
0000
0000
0200
0000
0000
0000
,
0300
0000
1000
0001
1000
0001
1000
0001
1M00
0000
0M00
0000
1000
0000
0000
0010
,
0000
0000
2000
0000
0000
3001
0000
0000
0001
1000
0001
1000
0001
1000
00M1
0000
,
00M0
0000
0001
0000
0000
0010
0000
0000
0200
0000
0000
0000
0300
0000
1000
0001
,
1000
0001
1000
0001
1M00
0000
0M00
0000
1000
0000
0000
0010
0000
0000
2000
0000
,
0000
0000
3000
0000
1100
0000
0000
1000
0000
0000
0010
0000
1000
0000
0001
0000
,
0010
0000
0000
0001
0000
0000
1000
0000
0010
0000
1000
0000
0001
0000
0000
1000
,
0000
0000
0010
0000
0100
0000
0001
0000
0010
0000
0000
0010
0000
0000
0011
0000
,
0000
1100
0000
0000
1000
0000
0000
0001
0000
0000
0010
0000
0001
0000
1000
0000
,
0010
0000
0000
1000
0000
0000
0001
0000
0010
0000
0001
0000
1000
0000
0000
0001
,
0000
0000
0010
0000
0100
0000
1000
0000
0010
0000
0000
0010
0000
0000
1010
0000
,
0000
0101
0000
0000
2001
0000
0000
3001
0000
0000
0100
0000
1000
0000
0100
0000
,
0002
0000
0000
1003
0000
0000
0100
0000
0001
0000
0100
0000
2000
0000
0000
3001
,
0000
0000
0010
0000
0001
0000
0100
0000
0010
0000
0000
0010
0000
0000
1010
0000
,
0000
0101
0000
0000
0002
0000
0000
1003
0000
0000
0010
0000
0001
0000
0010
0000
,
2000
0000
0000
3001
0000
0000
0010
0000
1000
0000
0010
0000
0002
0000
0000
1003
,
0000
0000
0010
0000
1000
0000
0100
0000
0010
0000
0000
0100
0000
0000
0220
0000
,
0000
0330
M021
0000
0000
0032
0000
0000
,
2003
0000
0000
0000
0000
0000
3002
0000
0000
0023
0000
0000
0200
0330
0000
0000
;

//---------------dance-single - ----------------
#NOTES:
     dance-single:
     :
     Easy:
     5:
     0.305,0.308,0.105,0.401,0.000:
0000
0000
0000
0000
,
0000
0000
2000
0000
3000
0020
0000
0030
,
2000
0000
3000
0002
0000
0003
20M2
0000
,
0000
3003
0022
0000
,
0033
0202
0000
0303
,
2000
0000
0000
0002
3003
0000
0202
0000
,
0000
0303
2020
0000
,
3030
2200
0000
3300
,
0002
0000
0000
2000
3003
0000
1001
0000
,
1000
0100
1000
0001
,
0100
0001
1000
0100
,
1000
0100
0010
0001
,
0100
0001
1000
0100
,
1000
0001
0100
0001
,
0100
0010
1000
1001
,
1000
0010
1000
0001
,
0010
0001
1000
0010
,
1000
0010
0100
0001
,
0010
0001
1000
0010
,
1000
0001
0010
0001
,
0010
0100
1000
0010
,
0100
0001
0010
0100
,
1000
0000
0001
0000
0000
100M
0000
0000
,
0000
10M1
1000
0010
,
0100
0100
0001
1000
,
0100
0100
0010
0001
,
1000
0001
0001
0010
,
0100
0100
1000
0001
,
0100
0100
0010
1000
,
0001
0000
2000
0000
0000
310M
000M
2000
,
0000
0000
0000
0000
3000
0002
0000
0000
,
M103
M000
0020
0000
0000
0000
0000
0030
,
0200
0000
0000
M301
M000
0200
0000
0000
,
0000
0000
0300
0002
0000
0000
M013
M000
,
0002
0000
0003
1001
,
0001
0100
0010
0010
,
1000
0001
0010
0010
,
0100
1000
0001
1000
,
1000
0100
0010
0010
,
0001
1000
0010
0010
,
0100
0001
1000
0002
,
0000
M013
M000
0002
0000
0000
0000
0000
,
0003
2000
0000
0000
301M
000M
0200
0000
,
0000
0000
0000
0300
0020
0000
0000
103M
,
000M
0020
0000
0000
0000
0000
0030
2000
,
0000
3100
2000
0000
,
3000
1001
0001
0100
,
0010
0100
0001
0010
,
0100
0010
0001
1000
,
0001
1000
0100
0010
,
0100
1000
0010
0100
,
0010
1000
0001
0000
,
0000
2000
0001
3001
,
0002
0010
0013
0002
,
1000
1003
0002
0100
,
0103
2000
0001
3001
,
0002
0010
0013
0002
,
1000
1003
0002
0000
,
0003
2002
0000
0000
,
3003
0000
0000
0000
;
