#TITLE:RAIN;
#SUBTITLE:;
#ARTIST:dj TAKA;
#TITLETRANSLIT:;
#SUBTITLETRANSLIT:;
#ARTISTTRANSLIT:;
#CREDIT:;
#BANNER:;
#BACKGROUND:;
#LYRICSPATH:;
#CDTITLE:;
#MUSIC:RAIN - dj TAKA.mp3;
#OFFSET:-6.160;
#SAMPLESTART:28.580;
#SAMPLELENGTH:12.000;
#SELECTABLE:YES;
#BPMS:0.000=159.000;
#STOPS:;
#BGCHANGES:;

//---------------dance-single - ----------------
#NOTES:
     dance-single:
     :
     Hard:
     8:
     0.587,0.608,0.254,0.363,0.163:
0100
1000
0100
0001
0100
1000
0100
0000
,
0001
0010
1000
0010
0001
0010
1000
0000
,
1000
1000
1000
0100
0001
0001
0001
0000
,
0001
0001
0001
0010
1000
1000
1000
0000
,
1000
0100
0001
0000
0001
0100
1000
0000
,
1000
0010
0001
0000
0001
0010
1000
0000
,
1000
0001
1000
0000
0001
1000
0001
0000
,
0010
0100
0010
0000
0100
0010
0100
0000
,
0001
0000
0100
0000
0001
0000
0100
0001
0000
0000
0010
0000
0001
0000
0010
0100
,
0000
0000
1000
0000
0100
0000
0010
0001
0000
0000
0001
0000
0100
0000
0001
0100
,
0000
0000
0010
0000
1000
0000
0010
0100
0000
0000
0001
0000
1000
0000
0100
0010
,
0000
0000
0001
0000
1000
0000
0001
0010
0000
0000
0100
0000
1000
0000
0001
0000
,
0202
0000
0000
0000
,
0000
0000
0000
0000
,
0000
0000
0000
0000
,
0000
0000
0303
0000
,
0002
0203
2300
3020
,
2030
3200
0302
0023
,
0032
0203
2300
3200
,
0302
0023
2030
3020
,
0031
0001
0001
0000
0100
0000
0010
0000
,
1000
1000
1000
0000
0010
0000
0100
0000
,
0100
0100
0100
0000
0001
0000
1000
0000
,
0010
0010
0010
0000
1000
0000
0001
0000
,
1000
0100
0010
0001
0010
0100
0000
1000
,
0001
0100
0000
0001
0100
0000
0100
0001
0000
0001
0100
0000
1000
0000
0100
0000
,
0010
0001
0010
0100
1000
0001
1000
0000
,
0001
0100
1000
0100
0001
0100
1000
0000
,
1000
0100
0010
0001
0010
0100
1000
0100
,
1000
0001
0100
0001
0010
0100
1000
0000
,
0001
0000
0001
0000
1000
0000
0100
0000
1000
0000
0100
0000
0010
0100
0010
0100
,
0010
0001
1000
0010
0100
1000
0001
0000
,
2200
0000
0000
3300
,
0220
0000
0000
0330
,
0022
0000
0000
0033
,
2002
0000
0000
3003
,
0202
0303
2200
3300
,
2020
3030
0022
0033
,
0001
0100
1000
0100
0001
0100
1000
0000
,
0001
0100
0001
0100
0001
0000
0000
0000
1000
0100
1000
0100
1000
0000
0000
0000
,
0100
0100
0010
0000
0010
0010
0100
0000
,
1000
0100
0000
0010
0001
0000
0010
0100
0000
1000
0001
0000
0100
0000
0001
0000
,
1000
0100
0010
0100
0001
1000
0100
0000
,
1000
0100
1000
0100
0010
0001
0010
0000
,
0001
0100
1000
0100
0001
0100
1000
0000
,
1000
0010
0001
0010
1000
0010
0001
0000
,
1000
1000
0000
0100
0001
0001
0000
0001
,
0010
0010
0000
0010
1000
1000
0000
0000
,
1000
0100
1000
0100
0010
0000
0001
0010
,
1000
0010
0000
0010
1000
0000
0001
0100
0000
0100
0001
0000
0100
0000
0001
0000
,
0100
0010
0100
0000
1000
0100
0010
0000
,
0001
0010
0100
0010
0100
1000
0001
0000
,
1000
0100
1100
0000
0000
0001
0101
0000
,
0001
0010
0011
0000
0000
1000
1010
0000
,
0010
0000
0100
0000
0001
0000
1000
0000
0001
0000
0100
0000
0010
0100
0010
0100
,
0010
0001
1000
0100
0001
0100
1000
0001
,
0220
0000
0000
0330
0000
1000
0100
0001
,
2002
0000
0000
3003
0000
0001
0100
1000
,
1001
0000
1000
0100
0010
0001
0010
0100
,
1000
0000
1000
1100
0000
0001
0101
0000
,
0010
0001
0010
0100
1000
0001
1000
0000
,
0010
0100
1000
0100
1000
0001
0100
0000
,
1100
0000
0000
1000
0100
0000
0000
0000
0101
0000
0000
0100
0001
0000
0000
0000
,
0011
0000
0000
0001
0010
0000
0000
0000
1010
0000
0000
1000
0010
0000
0000
0000
,
1001
0000
0000
0001
1000
0000
0000
0000
1001
0000
0000
1000
0001
0000
0000
0000
,
0110
0000
0000
0100
0010
0000
0000
0000
0110
0000
0000
0010
0100
0000
0000
0000
,
2002
0000
0000
0000
3003
0000
0000
0000
1000
0000
0000
0100
0000
0000
0010
0000
,
1001
0000
0000
0000
;

//---------------dance-single - ----------------
#NOTES:
     dance-single:
     :
     Medium:
     5:
     0.365,0.425,0.082,0.181,0.000:
1000
1000
0100
0100
,
0001
0001
0100
0100
,
1000
1000
1000
0000
0100
0000
0001
0000
,
0100
0100
0100
0000
0001
0000
0010
0000
,
1000
0100
1000
0001
,
1000
0100
0010
0001
,
1000
0100
0001
0100
,
0010
0100
1000
0001
,
0100
0000
0010
0000
0001
0001
0001
0000
,
1000
0100
0001
0100
,
1000
0000
0001
0000
0010
0010
0010
0000
,
1000
0100
0001
0010
,
2002
0000
0000
0000
,
0000
0000
0000
0000
,
0000
0000
0000
0000
,
0000
3003
0000
0000
,
0100
0001
0100
1000
,
0010
0010
0010
0000
0001
0000
0100
0000
,
1000
0001
0100
1000
,
0100
0100
0100
0000
0001
0000
0100
0000
,
1000
0010
1000
0100
,
0001
0001
0001
0000
1000
0000
0001
0000
,
0100
0010
0100
0100
,
1000
1000
1000
0000
0001
0000
0100
0000
,
1000
0000
0001
0000
1000
0100
0000
0000
,
0010
0000
0001
1000
0000
1000
0001
0000
,
0100
1000
0100
0001
,
0010
0001
0010
1000
,
1000
0100
0010
0000
0001
0000
1000
0000
,
0001
0100
0010
0000
1000
0000
0001
0000
,
0100
0000
0001
0000
1000
0100
1000
0000
,
0001
0000
0100
0000
0001
0000
0010
0001
,
0020
0000
0000
0030
,
0002
0000
0000
0003
,
0200
0000
0000
0300
,
2000
0000
0000
3000
,
0010
0010
0001
0001
,
0100
0100
1000
1000
,
2002
0000
0000
3003
,
2200
0000
0000
3300
,
0001
0001
0100
1000
,
0100
1000
0100
1000
0100
1000
0100
0000
,
0001
0100
1000
0100
,
0001
0010
0100
1000
,
0010
0010
0100
0100
,
1000
0100
1000
0100
,
0001
0001
0100
1000
,
0100
0001
0010
0001
,
1000
0100
0001
0000
0010
0000
0100
0000
,
1000
0001
1000
0100
,
0001
0100
0001
0000
0010
0000
0001
0000
,
1000
0000
0100
0000
0010
0000
0100
0010
,
0100
0100
1000
0001
,
1000
0010
0001
1000
,
0100
0000
0010
0000
0001
0010
0001
0010
,
0001
0000
1000
0000
0100
0001
0100
0000
,
2002
0000
0000
3003
,
0202
0000
0000
0303
,
0022
0000
0000
0033
,
0220
0000
0000
0330
,
1000
0100
1000
0000
0001
0000
0001
0000
,
0100
0010
0100
0000
0010
0000
0100
0000
,
1000
0100
0010
0000
0001
0010
0100
0000
,
1000
0100
0010
0000
0001
0010
0100
0000
,
1000
0100
0001
0000
0001
0100
1000
0000
,
1000
0010
0001
0000
0001
0010
1000
0000
,
2002
0000
0000
3003
,
1001
0000
0000
0000
;

//---------------dance-single - ----------------
#NOTES:
     dance-single:
     :
     Easy:
     4:
     0.332,0.517,0.136,0.290,0.000:
1000
1000
0100
0100
,
1000
0100
1000
0100
,
0001
0001
0100
0100
,
0001
0100
0001
0100
,
1000
1000
0010
0010
,
1000
0010
1000
0010
,
0001
0001
0010
0010
,
0001
0010
0001
0010
,
1000
1000
0100
0100
,
0001
0001
0010
0010
,
1000
1000
0100
0100
,
0001
0001
0010
0010
,
0220
0000
0000
0000
,
0000
0000
0000
0000
,
0000
0000
0000
0000
,
0000
0000
0330
0000
,
2000
0000
0001
0000
,
3200
0000
0010
0000
,
0320
0000
1000
0000
,
0032
0000
0100
0000
,
2003
0000
0010
0000
,
3020
0000
0001
0000
,
0032
0000
0100
0000
,
0203
0000
1000
0000
,
1300
1000
0100
0100
,
0001
0001
0100
0100
,
1000
1000
0010
0010
,
0001
0001
0010
0010
,
1000
1000
1000
1100
,
0100
0100
0100
0101
,
0001
0001
0001
0011
,
0010
0010
0010
1010
,
1000
0200
0301
0000
,
0001
0200
1300
0000
,
1000
0020
0031
0000
,
0001
0020
1030
0000
,
1000
2000
3001
0002
,
1003
2000
3001
0002
,
0013
0020
0130
0100
,
0220
0000
0000
0330
,
1000
0100
0001
0100
,
1000
0010
0001
0010
,
1000
1000
0100
0100
,
0001
0001
0100
0100
,
0010
0010
0001
0001
,
0100
0100
1000
1000
,
0100
0100
0001
0001
,
0010
1000
0100
0001
,
1000
1000
0001
0001
,
1000
0001
1000
0001
,
0100
1000
0100
0001
,
0010
1000
0010
0001
,
1000
0100
1100
0000
,
0001
0100
0101
0000
,
1000
0010
1010
0000
,
0001
0010
0001
0010
,
0011
0000
0000
0000
,
1001
0000
0000
0000
,
1100
0000
0000
0000
,
0110
0000
0000
0000
,
1000
0100
0001
0100
,
1000
0010
0001
0010
,
2000
3000
0002
0003
,
2000
3000
0002
0003
,
0020
0230
0320
0230
,
0320
0230
0320
0130
,
1001
0000
0000
0000
,
1001
0000
0000
0000
;

//---------------dance-single - ----------------
#NOTES:
     dance-single:
     :
     Beginner:
     3:
     0.198,0.304,0.100,0.363,0.000: // measure 1
0001
0001
0000
0000
,  // measure 2
1000
1000
0000
0000
,  // measure 3
0010
0010
0000
0000
,  // measure 4
0100
0100
0000
0000
,  // measure 5
2000
3000
0002
0003
,  // measure 6
2000
3000
0002
0003
,  // measure 7
2000
3000
0002
0003
,  // measure 8
2000
3000
0002
0003
,  // measure 9
0010
0010
0010
0000
,  // measure 10
0100
0100
0100
0000
,  // measure 11
0020
0000
0000
0030
,  // measure 12
0200
0000
0000
0300
,  // measure 13
0220
0000
0000
0000
,  // measure 14
0000
0000
0000
0000
,  // measure 15
0000
0000
0000
0000
,  // measure 16
0000
0000
0330
0000
,  // measure 17
2000
0000
0000
3000
,  // measure 18
0200
0000
0000
0300
,  // measure 19
0020
0000
0000
0030
,  // measure 20
0002
0000
0000
0003
,  // measure 21
2000
0000
0000
3000
,  // measure 22
0200
0000
0000
0300
,  // measure 23
0002
0000
0000
0003
,  // measure 24
0020
0000
0000
0030
,  // measure 25
1000
1000
1000
0000
,  // measure 26
0001
0001
0001
0000
,  // measure 27
1000
0000
0001
0000
,  // measure 28
1000
0000
0001
0000
,  // measure 29
0010
0010
0010
0000
,  // measure 30
0100
0100
0100
0000
,  // measure 31
0010
0000
0100
0000
,  // measure 32
0010
0000
0100
0000
,  // measure 33
2000
0000
0000
3000
,  // measure 34
0002
0000
0000
0003
,  // measure 35
0020
0000
0000
0030
,  // measure 36
0200
0000
0000
0300
,  // measure 37
2000
0000
0000
0000
,  // measure 38
0000
0000
0000
3000
,  // measure 39
0002
0000
0000
0000
,  // measure 40
0000
0000
0000
0003
,  // measure 41
1100
0000
0000
0000
,  // measure 42
0101
0000
0000
0000
,  // measure 43
1010
0000
0000
0000
,  // measure 44
0011
0000
0000
0000
,  // measure 45
2000
0000
0000
3000
,  // measure 46
0002
0000
0000
0003
,  // measure 47
2000
0000
0000
3000
,  // measure 48
0002
0000
0000
0003
,  // measure 49
1000
1000
1000
0000
,  // measure 50
0001
0001
0001
0000
,  // measure 51
1000
0000
0001
0000
,  // measure 52
1000
0000
0001
0000
,  // measure 53
0010
0010
0010
0000
,  // measure 54
0100
0100
0100
0000
,  // measure 55
0010
0000
0100
0000
,  // measure 56
0010
0000
0000
0000
,  // measure 57
1001
0000
0000
0000
,  // measure 58
0110
0000
0000
0000
,  // measure 59
1001
0000
0000
0000
,  // measure 60
0110
0000
0000
0000
,  // measure 61
2000
0000
3000
0000
,  // measure 62
0200
0000
0300
0000
,  // measure 63
0002
0003
2000
3000
,  // measure 64
0002
0003
2000
3000
,  // measure 65
0002
0003
2000
3000
,  // measure 66
0002
0003
2000
3000
,  // measure 67
1001
0000
0000
0000
,  // measure 68
1001
0000
0000
0000
;
