#TITLE:Nothing's Over;
#SUBTITLE:;
#ARTIST:Infinite;
#TITLETRANSLIT:;
#SUBTITLETRANSLIT:;
#ARTISTTRANSLIT:;
#GENRE:K-Pop;
#CREDIT:;
#BANNER:nothing's over-bn.png;
#BACKGROUND:nothing's over-bg.png;
#LYRICSPATH:;
#CDTITLE:cdtitle.png;
#MUSIC:nothing's over.mp3;
#OFFSET:0.000000;
#SAMPLESTART:45.000000;
#SAMPLELENGTH:15.000000;
#SELECTABLE:YES;
#BPMS:0.000000=128.000000
;
#STOPS:
;
#BGCHANGES:0.000=nothing's over.avi=1.000=1=0=0=StretchNoLoop==CrossFade==,
99999=-nosongbg-=1.000=0=0=0 // don't automatically add -songbackground-
;
#KEYSOUNDS:;
#ATTACKS:;

//---------------dance-single - ----------------
#NOTES:
     dance-single:
     :
     Medium:
     6:
     0.374841,0.440267,0.333949,0.197643,0.006815,385.000000,336.000000,49.000000,29.000000,0.000000,0.000000,0.374841,0.440267,0.333949,0.197643,0.006815,385.000000,336.000000,49.000000,29.000000,0.000000,0.000000:
// measure 0
0000
0000
0000
0000
,  // measure 1
0000
0000
0000
0000
,  // measure 2
0000
0000
0000
0000
,  // measure 3
0000
0000
0000
0000
,  // measure 4
0000
0000
0000
0000
,  // measure 5
0000
0000
0000
0000
,  // measure 6
0000
0000
0000
0000
,  // measure 7
0000
0000
1000
0100
0010
0100
0010
0000
,  // measure 8
0110
0100
0010
0100
,  // measure 9
0001
0000
0010
0100
0001
0100
1000
0000
,  // measure 10
1100
0100
0010
0010
,  // measure 11
0001
0000
0010
0100
1000
0100
0001
0000
,  // measure 12
0002
0000
0000
0000
0100
0000
0000
0003
,  // measure 13
0101
0000
0100
0000
0100
1000
0100
0010
,  // measure 14
0110
0000
0010
0200
0000
0300
1000
0020
,  // measure 15
0000
0030
0010
1000
0010
0100
1000
0000
,  // measure 16
1010
0000
0000
0000
0100
0000
0000
0000
0010
0000
0000
0010
0010
0000
0100
0000
,  // measure 17
0100
0100
0010
0100
0010
1000
0001
0000
,  // measure 18
0012
0000
0000
0000
0000
0000
0000
0000
0000
0000
0000
0000
1000
0000
0000
0000
0000
0000
0000
0000
0000
0000
0000
0000
1000
0000
0000
0000
0000
0000
0000
0000
0003
1000
0000
0000
1000
0000
0000
0000
0000
0000
0100
0000
0000
0000
0000
0000
,  // measure 19
1100
0000
1000
0010
0100
0010
0001
0010
,  // measure 20
0110
0100
1100
1000
,  // measure 21
1010
0000
0100
0010
0100
0001
0010
0001
,  // measure 22
0011
0010
1010
1000
,  // measure 23
1000
0010
0100
0001
,  // measure 24
0011
0001
0010
0100
,  // measure 25
1000
0100
0010
0001
,  // measure 26
0011
0001
0010
0100
,  // measure 27
1000
0100
0010
0001
,  // measure 28
1001
1000
0100
0010
,  // measure 29
0001
0000
0010
0100
0100
0010
0010
0001
,  // measure 30
0002
0000
0000
0003
2000
0000
0000
3000
,  // measure 31
1001
0000
0010
1000
0100
1000
0010
0100
,  // measure 32
0110
0000
0100
1000
0000
1000
0100
0010
,  // measure 33
0100
0000
0010
0001
0100
0001
0010
0001
,  // measure 34
0101
0000
1000
0100
0000
0100
0100
0010
,  // measure 35
0001
0001
0010
0001
1000
0001
0100
0010
,  // measure 36
0000
0100
0000
0001
0000
1000
0100
0010
,  // measure 37
0000
0001
0000
1000
0000
0100
0010
0001
,  // measure 38
0020
0000
0000
0030
0100
0000
1000
0000
,  // measure 39
1020
0000
0000
0030
0102
0000
0003
0010
,  // measure 40
1010
0000
0000
0020
0000
0000
0030
1000
,  // measure 41
2010
0000
0000
3000
0012
0000
0003
1000
,  // measure 42
1100
0000
0010
0200
0000
0000
0300
0010
,  // measure 43
0120
0000
0000
0030
1002
0000
0003
0100
,  // measure 44
0101
0000
0100
0100
0000
0010
0010
0000
,  // measure 45
1010
0000
0010
0010
0000
0001
0001
0000
,  // measure 46
0101
0000
0100
0100
0000
1000
1000
0000
,  // measure 47
1010
0000
0010
0010
0000
0010
0100
1000
,  // measure 48
1010
0000
0010
0000
0010
0001
0010
0000
,  // measure 49
1000
0000
0010
0000
0010
0100
0010
0000
,  // measure 50
1010
0000
0010
0000
1000
0010
1000
0000
,  // measure 51
0100
0000
0010
0000
0010
0001
0010
0000
,  // measure 52
1010
0000
0010
0000
1000
0000
0100
0010
,  // measure 53
0100
0000
0010
0000
0001
0010
1000
0100
,  // measure 54
1100
1000
0100
0010
,  // measure 55
0100
0000
1000
0010
0001
0010
0100
0010
,  // measure 56
0011
0000
0001
0100
0000
0100
0010
0000
,  // measure 57
1000
0000
0010
0100
0010
1000
0010
0100
,  // measure 58
0010
0000
1000
0010
0000
0010
0100
0000
,  // measure 59
0001
0100
1000
0100
0010
0010
0100
1000
,  // measure 60
0001
0000
0101
0100
0000
0100
0101
0000
,  // measure 61
0001
0000
1010
0010
0000
0010
1010
1000
,  // measure 62
2010
0000
0000
3000
0010
0000
0100
0010
,  // measure 63
2100
0000
0000
3000
0120
0000
0030
0010
,  // measure 64
0011
0000
0010
0100
0000
0100
0001
0000
,  // measure 65
0100
0000
0100
1000
0100
0100
0010
0001
,  // measure 66
0011
0000
0001
0010
0000
0010
0100
0000
,  // measure 67
0001
0010
0100
0010
1000
0010
0100
0100
,  // measure 68
0000
1000
0000
0100
0000
0010
0010
0001
,  // measure 69
0000
0010
0000
0100
0000
1000
0100
0001
,  // measure 70
0102
0000
0000
0003
0010
0000
1000
0000
,  // measure 71
1020
0000
0000
0030
0012
0000
0003
0001
,  // measure 72
0201
0000
0000
0000
0000
0000
0000
0000
0020
0000
0000
0000
0000
0000
0000
0030
,  // measure 73
0320
0000
0000
0030
0200
0000
0300
1000
,  // measure 74
1020
0000
0000
0000
0000
0000
0000
0000
0200
0000
0000
0000
0000
0000
0000
0300
,  // measure 75
2030
0000
0020
0000
,  // measure 76
3030
0000
0000
0000
;

//---------------dance-single - ----------------
#NOTES:
     dance-single:
     :
     Easy:
     3:
     0.276506,0.388471,0.258981,0.184013,0.000000,284.000000,246.000000,38.000000,27.000000,0.000000,0.000000,0.276506,0.388471,0.258981,0.184013,0.000000,284.000000,246.000000,38.000000,27.000000,0.000000,0.000000:
// measure 0
0000
0000
0000
0000
,  // measure 1
0000
0000
0000
0000
,  // measure 2
0000
0000
0000
0000
,  // measure 3
0000
0000
0000
0000
,  // measure 4
0000
0000
0000
0000
,  // measure 5
0000
0000
0000
0000
,  // measure 6
0000
0000
0000
0000
,  // measure 7
0000
1000
0100
0010
,  // measure 8
0011
0000
0010
0000
,  // measure 9
0001
0010
0100
1000
,  // measure 10
1010
0000
0001
0000
,  // measure 11
1000
0100
0010
0001
,  // measure 12
0002
0000
0000
0000
0000
0000
0000
0003
,  // measure 13
0101
0000
0100
0000
1000
0100
0001
0100
,  // measure 14
0101
0000
0001
0002
0000
0003
0100
0200
,  // measure 15
0000
0300
0010
0000
0100
0000
0010
0000
,  // measure 16
1010
0000
0010
0100
,  // measure 17
1000
0100
0010
0001
,  // measure 18
0012
0000
0000
0000
0000
0000
0100
0000
0003
1000
0000
0000
,  // measure 19
1100
1000
0100
0001
,  // measure 20
0010
0010
0100
0100
,  // measure 21
1000
0100
0010
0001
,  // measure 22
1000
1000
0010
0010
,  // measure 23
1000
0100
0010
0001
,  // measure 24
0101
0000
0100
0000
,  // measure 25
0010
0010
0100
0100
,  // measure 26
0110
0000
0010
0000
,  // measure 27
0001
0010
1000
0100
,  // measure 28
1100
0000
1000
1000
,  // measure 29
0100
0010
1000
0100
,  // measure 30
0020
0000
0000
0030
0002
0000
0000
0003
,  // measure 31
0101
0000
0100
0010
,  // measure 32
0011
0000
0010
0001
0000
0001
0000
0000
,  // measure 33
0010
0100
1000
0100
,  // measure 34
0110
0000
0010
0100
0000
0100
0000
0000
,  // measure 35
0010
0000
0001
0000
0010
0000
0100
0100
,  // measure 36
0000
0100
0000
1000
0000
1000
0100
0010
,  // measure 37
0000
0001
0000
0001
0000
0001
0000
0000
,  // measure 38
0020
0000
0000
0030
0100
0000
0000
0000
,  // measure 39
0020
0000
0000
0030
2000
0000
3000
0010
,  // measure 40
1010
0000
0000
0002
0000
0000
0003
0001
,  // measure 41
0012
0000
0000
0003
0210
0000
0300
1000
,  // measure 42
1100
0000
0000
2000
0000
0000
3000
1000
,  // measure 43
1020
0000
0000
0030
0012
0000
0003
0001
,  // measure 44
0101
0000
0100
0000
0010
0000
0001
0100
,  // measure 45
0101
0001
0010
1000
,  // measure 46
0110
0010
0100
1000
,  // measure 47
2100
0000
0000
0000
0000
0010
0000
0010
,  // measure 48
3010
0000
0010
0100
,  // measure 49
1000
0100
0010
0100
,  // measure 50
0110
0000
0001
0100
,  // measure 51
0010
0001
0010
1000
,  // measure 52
1010
0010
1000
0100
,  // measure 53
0010
0001
0010
1000
,  // measure 54
1010
1000
0100
0010
,  // measure 55
1000
0000
1000
0100
0010
0100
0001
0100
,  // measure 56
0101
0000
1000
0100
0000
0100
0000
0000
,  // measure 57
0100
0000
0010
0100
0010
1000
0001
0010
,  // measure 58
0001
0000
0100
0010
0000
0010
0000
0000
,  // measure 59
0001
0000
0010
0000
0100
0000
0100
0100
,  // measure 60
1000
1100
0100
0101
,  // measure 61
0001
0000
0101
0000
0100
0000
0110
0010
,  // measure 62
2010
0000
0000
3000
0010
0000
0000
0000
,  // measure 63
2001
0000
0000
3000
0120
0000
0030
0100
,  // measure 64
0101
0010
0100
0001
,  // measure 65
0100
0010
0100
0010
,  // measure 66
0011
0000
0100
0000
0010
0000
1000
0010
,  // measure 67
0001
0000
0010
0000
1000
0000
0100
0100
,  // measure 68
0000
1000
0000
0100
0000
0100
0010
0010
,  // measure 69
0000
0010
0000
0001
0000
0001
0000
0000
,  // measure 70
0201
0000
0000
0300
0001
0000
0000
0000
,  // measure 71
0201
0000
0000
0300
2000
0000
3000
1000
,  // measure 72
2000
0000
0000
0000
,  // measure 73
3200
0000
0000
0300
0200
0000
0300
0010
,  // measure 74
0002
0000
0000
0000
,  // measure 75
0023
0000
0000
0000
,  // measure 76
0030
0000
0000
0000
;

//---------------dance-single - ----------------
#NOTES:
     dance-single:
     :
     Hard:
     9:
     0.437152,0.466165,0.374841,0.163567,0.047707,449.000000,394.000000,55.000000,24.000000,0.000000,0.000000,0.437152,0.466165,0.374841,0.163567,0.047707,449.000000,394.000000,55.000000,24.000000,0.000000,0.000000:
// measure 0
0000
0000
0000
0000
,  // measure 1
0000
0000
0000
0000
,  // measure 2
0000
0000
0000
0000
,  // measure 3
0000
0000
0000
0000
,  // measure 4
0000
0000
0000
0000
,  // measure 5
0000
0000
0000
0000
,  // measure 6
0000
0000
0000
0000
,  // measure 7
0000
0000
1000
0100
0010
0100
0010
0000
,  // measure 8
0011
0000
0000
0001
1000
0000
0010
0000
0000
0000
0100
0000
0100
0000
0010
0000
,  // measure 9
0001
0000
1000
0010
0100
0010
0001
0000
,  // measure 10
1010
0000
0000
0010
0100
0000
0010
0000
0000
0000
0100
0000
0010
0000
0100
0000
,  // measure 11
1000
0000
0100
0010
1000
0100
0001
0000
,  // measure 12
2000
0000
0000
0000
0000
0000
0010
0000
0000
0001
0000
0000
0000
0000
0000
0000
0000
0000
0001
0000
3000
0010
0000
0000
,  // measure 13
1010
0000
0100
0000
0010
1000
0010
0100
,  // measure 14
1100
0000
0000
0100
0010
0000
0001
0000
0000
0000
0010
0000
1000
0000
0100
0000
,  // measure 15
0100
0000
0010
0001
0100
0010
1000
0000
,  // measure 16
1010
0000
0000
0000
0100
0000
0000
0000
0001
0000
0000
0010
0010
0000
0100
0000
,  // measure 17
1000
0100
0010
0100
0010
1000
0001
0000
,  // measure 18
0012
0000
0000
0000
0000
0000
0000
0000
0000
0000
0000
0000
1000
0000
0000
0000
0000
0000
0000
0000
0000
0000
0000
0000
1000
0000
0000
0000
0000
0000
0000
0000
0003
0100
0000
0000
0010
0000
0000
0000
0000
0000
0100
0000
0000
0000
0000
0000
,  // measure 19
1100
0000
1000
0010
0100
0010
0001
0010
,  // measure 20
1010
0101
1100
0011
,  // measure 21
1001
0000
0100
0010
0100
0001
0010
0001
,  // measure 22
1010
0110
0101
0011
,  // measure 23
1000
0000
0010
0000
0100
0010
0001
0100
,  // measure 24
0011
1000
0100
0010
,  // measure 25
1000
0000
0001
0000
0100
1000
0010
0100
,  // measure 26
0011
1000
0010
0100
,  // measure 27
0001
0000
0010
0000
1000
0100
0010
0100
,  // measure 28
0101
0010
1000
0010
,  // measure 29
0100
0000
0010
0100
1000
0010
0100
0001
,  // measure 30
0020
0000
1000
0030
2000
0000
0001
3000
,  // measure 31
0101
0000
0010
1000
0100
1000
0010
0100
,  // measure 32
0011
0000
0000
0001
0010
0000
0100
0000
0010
0000
0100
0000
0001
0000
0010
0000
,  // measure 33
0100
0000
0010
0100
1000
0010
0001
0010
,  // measure 34
0110
0000
0000
0100
1000
0000
0100
0000
0010
0000
0100
0000
0001
0000
0010
0000
,  // measure 35
0001
0100
0010
1000
0010
0100
0001
0010
,  // measure 36
0000
0100
0000
0001
0000
1000
0100
0010
,  // measure 37
0000
0001
0000
1000
0000
0100
0010
0001
,  // measure 38
0020
0000
1000
0030
0100
0000
1000
0100
,  // measure 39
1020
0000
0000
0030
0102
0000
0003
0010
,  // measure 40
1010
0000
0000
0004
0000
0000
0003
0001
,  // measure 41
2010
0000
0000
3000
0012
0000
0003
1000
,  // measure 42
1100
0000
0010
4000
0000
0000
3000
1000
,  // measure 43
0120
0000
0000
0030
1002
0000
0003
0100
,  // measure 44
0101
0000
0000
0100
0100
0000
0100
0000
0000
0000
0010
0000
0001
0000
0010
0000
,  // measure 45
1010
0000
0000
0010
0010
0000
0010
0000
0000
0000
0001
0000
0010
0000
0100
0000
,  // measure 46
1010
0000
0000
1000
1000
0000
1000
0000
0000
0000
0100
0000
0010
0000
1000
0000
,  // measure 47
1010
0000
0000
0100
0010
0000
0100
0000
0000
0000
0010
0000
0100
0000
1000
0000
,  // measure 48
1010
0100
0100
0000
0010
0001
0010
0000
,  // measure 49
1000
0000
0010
0000
0010
0001
0100
0000
,  // measure 50
0101
0000
0010
0100
0001
0010
0001
0000
,  // measure 51
0001
0000
0100
0010
0100
0001
0010
0000
,  // measure 52
1010
0000
0100
0010
0001
0010
0001
0100
,  // measure 53
0010
0000
0100
0000
0100
0010
1000
0100
,  // measure 54
0101
0000
0001
0000
0100
0001
0010
0100
,  // measure 55
1000
1000
0000
0100
0100
0000
0010
0000
0100
0000
1000
0000
0100
0000
0001
0000
,  // measure 56
0101
0000
1000
1000
0010
1000
0100
0010
,  // measure 57
0100
0000
0010
0100
0010
1000
0001
0010
,  // measure 58
0000
0100
1000
0100
0010
0100
0100
0010
,  // measure 59
1000
0100
1000
0100
0010
0010
0100
1000
,  // measure 60
0000
0010
0110
0100
0000
0001
0101
0010
,  // measure 61
0000
0100
1100
0010
0000
0100
0110
1000
,  // measure 62
2010
0000
0001
3000
0010
0000
1000
0100
,  // measure 63
2010
0000
0010
3000
0120
0000
0130
0100
,  // measure 64
1100
0000
0010
0100
0001
0100
0010
0100
,  // measure 65
1000
0000
0010
1000
0100
0001
0010
1000
,  // measure 66
0011
0000
0000
0010
0100
0000
0010
0000
0000
0000
0010
0000
0100
0000
1000
0000
,  // measure 67
0001
0010
0100
0001
1000
0010
0100
0001
,  // measure 68
0000
1000
0000
0100
0000
0100
0010
0001
,  // measure 69
0000
1000
0000
0100
0000
0001
0010
0001
,  // measure 70
2100
0000
0001
3000
0010
0100
1000
0100
,  // measure 71
0120
0000
1000
0030
0012
0000
0013
1000
,  // measure 72
2010
0000
0000
0000
0000
0000
0020
0000
0000
0000
0000
3030
,  // measure 73
0201
0000
0000
0300
0020
0000
0030
0100
,  // measure 74
0102
0000
0000
0000
0000
0000
0000
0000
0000
0000
0000
0003
,  // measure 75
2010
0000
0020
0000
,  // measure 76
3030
0000
0000
0000
;

//---------------dance-single - ----------------
#NOTES:
     dance-single:
     :
     Beginner:
     1:
     0.158699,0.258981,0.184013,0.204459,0.000000,163.000000,136.000000,27.000000,30.000000,0.000000,0.000000,0.158699,0.258981,0.184013,0.204459,0.000000,163.000000,136.000000,27.000000,30.000000,0.000000,0.000000:
// measure 0
0000
0000
0000
0000
,  // measure 1
0000
0000
0000
0000
,  // measure 2
0000
0000
0000
0000
,  // measure 3
0000
0000
0000
0000
,  // measure 4
0000
0000
0000
0000
,  // measure 5
0000
0000
0000
0000
,  // measure 6
0000
0000
0000
0000
,  // measure 7
0000
0001
0000
0100
,  // measure 8
0101
0000
0001
0000
,  // measure 9
0010
0000
0100
0000
,  // measure 10
1100
0000
0100
0000
,  // measure 11
0010
0000
0100
0000
,  // measure 12
2000
0000
0000
0000
0000
0000
0000
0000
0000
0000
3000
0000
,  // measure 13
1010
0000
0010
0000
,  // measure 14
1100
0000
0010
0020
0000
0030
0100
0200
,  // measure 15
0000
0300
0000
0000
0000
0000
0100
0000
,  // measure 16
1100
0000
0001
0000
,  // measure 17
0100
0000
0010
0000
,  // measure 18
0002
0000
0000
0000
0000
0000
0000
0000
0003
0000
0000
0000
,  // measure 19
0101
0000
0100
0000
,  // measure 20
0100
0100
0010
0010
,  // measure 21
0110
0000
0100
0000
,  // measure 22
1000
1000
0001
0001
,  // measure 23
1000
0000
0100
0000
,  // measure 24
0011
0000
0100
0000
,  // measure 25
0001
0010
0100
0200
,  // measure 26
0000
0000
0000
0000
0000
0300
0000
0000
,  // measure 27
1000
0100
0010
0020
,  // measure 28
0000
0000
0000
0000
0000
0030
0000
0000
,  // measure 29
0100
0000
1000
0000
,  // measure 30
0020
0000
0000
0030
2000
0000
0000
3000
,  // measure 31
0020
0000
0000
0000
0000
0000
0000
0030
,  // measure 32
0110
0000
1000
0000
,  // measure 33
0010
0000
1000
0000
,  // measure 34
0220
0000
0000
0000
,  // measure 35
0000
0000
0000
0000
0000
0330
0000
0000
,  // measure 36
0110
0000
0000
0100
0000
0100
0000
0000
,  // measure 37
0101
0000
0000
0001
0000
0001
0000
0000
,  // measure 38
0020
0000
0000
0030
0100
0000
0000
0000
,  // measure 39
0020
0000
0000
0030
0200
0000
0300
0000
,  // measure 40
0020
0000
0000
0000
,  // measure 41
0230
0000
0000
0000
,  // measure 42
2300
0000
0000
0000
,  // measure 43
3002
0000
0000
0000
,  // measure 44
0003
1000
0000
0010
,  // measure 45
1010
0010
0000
0010
,  // measure 46
0011
0001
0000
0010
,  // measure 47
0020
0000
0000
0000
,  // measure 48
0030
0000
0010
0000
,  // measure 49
1000
0000
0100
0000
,  // measure 50
0110
0000
0010
0000
,  // measure 51
0001
0000
0011
0000
,  // measure 52
0100
0000
1000
0000
,  // measure 53
0100
0000
0010
0000
,  // measure 54
0001
0000
0010
0000
,  // measure 55
0100
0000
0010
0000
,  // measure 56
0101
0000
0010
0000
,  // measure 57
0001
0000
0010
0000
,  // measure 58
0100
0000
1000
0000
,  // measure 59
0010
0000
0010
0000
,  // measure 60
0100
1100
0000
1100
,  // measure 61
0000
0011
0000
0011
,  // measure 62
0020
0000
0000
0030
0010
0000
0000
0000
,  // measure 63
0200
0000
0000
0300
0200
0000
0300
0000
,  // measure 64
1100
0000
0000
0100
0000
0100
0000
0000
,  // measure 65
0010
0000
0100
0000
,  // measure 66
0012
0000
0000
0010
0000
0010
0000
0000
,  // measure 67
0100
0000
0000
0003
,  // measure 68
0101
0000
0000
1000
0000
1000
0000
0000
,  // measure 69
0010
0000
0000
0001
0000
0001
0000
0000
,  // measure 70
2001
0000
0000
3000
0010
0000
0000
0000
,  // measure 71
0120
0000
0000
0030
0012
0000
0003
0000
,  // measure 72
2000
0000
0000
0000
,  // measure 73
3200
0000
0000
0000
,  // measure 74
0302
0000
0000
0000
,  // measure 75
2003
0000
0000
0000
,  // measure 76
3000
0000
0000
0000
;

//---------------dance-single - ----------------
#NOTES:
     dance-single:
     :
     Challenge:
     10:
     0.498489,0.543860,0.313503,0.102229,0.204459,512.000000,466.000000,46.000000,15.000000,21.000000,0.000000,0.498489,0.543860,0.313503,0.102229,0.204459,512.000000,466.000000,46.000000,15.000000,21.000000,0.000000:
0000
0000
0000
0000
,
0000
0000
0000
0000
,
0000
0000
0000
0000
,
0000
0000
0000
0000
,
0000
0000
0000
0000
,
0000
0000
0000
0000
,
0000
0000
0000
0000
,
0000
0000
1000
0100
0010
0100
0010
0000
,
0011
0000
0000
0010
0100
0000
0010
0000
1000
0000
0010
0000
0100
0000
0010
0000
,
0001
0000
0000
1000
1000
0000
0100
0000
0100
0000
0010
0000
0001
0000
0010
0000
,
0110
0000
0000
0100
0100
0000
0010
0000
0100
0000
1000
0000
0010
0000
0100
0000
,
0001
0000
0100
0010
1000
0010
0001
0000
,
0100
0000
0000
0100
0010
0000
0001
0000
0000
0000
0010
0000
0001
0000
0010
0000
,
1010
0000
0100
0000
0010
1000
0001
0100
,
1100
0000
0010
0040
0000
0000
0030
0100
,
1100
0000
0010
0001
0100
0010
1000
0000
,
1010
0000
0000
0000
0100
0000
0000
0000
0001
0000
0000
0010
0010
0000
0100
0000
,
1000
0100
0010
0100
0010
1000
0001
0000
,
0011
0000
0110
0400
0000
0000
0300
0100
,
1100
0000
1000
0010
0100
0010
0001
0010
,
1010
0000
0000
0010
0100
0000
0010
0000
0010
0000
0100
0000
0010
0000
1000
0000
,
1010
0000
0100
0010
0100
0001
0010
0001
,
1010
0000
0000
0010
0010
0000
0100
0000
1000
0000
0100
0000
0010
0000
0100
0000
,
1MMM
0000
0000
0000
M1MM
0000
0000
0000
MM1M
0000
0010
0000
0100
0000
0010
0010
,
0110
0000
0000
0000
1000
0000
0100
0010
0100
0010
0100
0010
0000
0000
0100
0000
,
0001
0000
0010
0000
0100
1000
0010
1000
,
1010
0000
0000
0000
0010
0000
0100
0010
0100
0010
0100
0010
0000
0000
0010
0000
,
0001
0000
0010
0000
1000
0100
0010
0100
,
0101
0000
0000
0000
0010
0000
1000
0010
1000
0010
1000
0010
0000
0000
0100
0000
,
0010
0000
0010
0100
1000
0010
0100
0001
,
0010
0000
0000
1000
1000
0000
0100
0000
0100
0000
0010
0000
0001
0000
0100
0000
,
0110
0000
0000
0010
0010
0000
1000
0000
0100
0000
1000
0000
0010
0000
0100
0000
,
MM11
0000
0100
0100
0010
0100
0001
0010
,
0100
0000
0010
0100
1000
0010
0001
0010
,
M11M
0000
0000
0100
1000
0000
0100
0000
0010
0000
0100
0000
0001
0000
0010
0000
,
0001
0010
0100
1000
0100
0010
0001
0010
,
0011
0010
0000
0001
0000
1000
0100
0010
,
0000
0001
0000
0001
0000
0100
0010
0001
,
0020
0000
0000
0000
1000
0000
0030
0000
0100
0000
0000
1000
1000
0000
0100
0000
,
1020
0000
0000
0030
0102
0000
0003
0010
,
1010
0000
0000
0000
0000
0000
0010
1000
0010
1000
0010
1000
0000
0000
1000
0000
,
0100
0000
0000
0000
0000
0000
0100
0010
0100
0010
0100
0010
0000
0000
0010
0000
,
0110
0000
0000
0000
0010
0000
0001
0010
0001
0010
0001
0010
0000
0000
0010
0000
,
0100
0000
0000
0000
0100
0000
0010
1000
0010
1000
0010
1000
0000
0000
1000
0000
,
1100
0000
0000
1000
1000
0000
0100
0000
0000
0000
0001
0000
0010
0000
0100
0000
,
1010
0000
0000
0010
0010
0000
0100
0000
0000
0000
0001
0000
1000
0000
0000
0000
,
0101
0000
0000
0100
0100
0000
0010
0000
0000
0000
0100
0000
0010
0000
1000
0000
,
1010
0000
0000
0010
0010
0000
0100
0000
0010
0000
0100
0000
0010
0000
1000
0000
,
1010
0100
0100
0000
0010
0001
0010
0000
,
1000
0000
0100
0100
0100
0000
0100
0000
0010
0000
0001
0000
0100
0000
0000
0000
,
1010
0000
0010
0010
0010
0000
0001
0000
0100
0000
0010
0000
0100
0000
0000
0000
,
0010
0000
0001
0001
0001
0000
0010
0000
0100
0000
0001
0000
0010
0000
0000
0000
,
1010
0000
0100
0010
0100
0000
0100
0000
0001
0000
0100
0000
0010
0100
0000
0100
,
0000
0000
0100
0000
1000
0100
0000
0010
0000
0000
0010
0000
0001
0001
0000
0100
,
0000
0000
0010
0010
0010
0100
0000
0100
0000
0000
0001
0100
0001
0000
0100
0000
,
1000
1000
0000
0100
0100
0000
0010
0000
0100
0000
0100
0000
1000
0000
0100
0000
,
0101
0000
0000
0100
0001
0000
0100
0000
0001
0000
1000
0000
0100
0000
0010
0000
,
0100
0000
0010
0100
0010
1000
0001
0010
,
0110
0000
0000
0100
1000
0000
0100
0000
0010
0000
0100
0000
0100
0000
0010
0000
,
1000
0100
1000
0100
0010
0010
0100
0000
,
1000
0000
0000
1000
1000
0000
0100
0000
0100
0000
0010
0000
0110
0000
0000
0000
,
1010
0000
0000
0010
0010
0000
0100
0000
1000
0000
0100
0000
0010
0000
0100
0000
,
2100
0000
0010
3000
0010
0000
1000
0100
,
2100
0000
0000
3000
0120
0000
0130
0100
,
1100
0000
0000
0010
0010
0000
1000
0000
0100
0000
0001
0000
0100
0000
0100
0000
,
1000
0000
0010
1000
0100
0001
0010
1000
,
1010
0000
0000
1000
0100
0000
0010
0000
1000
0000
0100
0000
0100
0000
0010
0000
,
0100
0001
0010
0001
1000
0010
0100
0001
,
0000
1000
0000
0100
0000
0100
0010
0001
,
0000
1000
0000
0100
0000
0001
0010
0001
,
2100
0000
0000
0000
0001
0000
3000
0010
0010
0000
0100
0000
1000
0000
0100
0000
,
0120
0000
1000
0030
0012
0000
0013
1000
,
2M1M
0000
0000
0000
0000
0000
0000
0000
0000
0000
0000
3000
,
M2M1
0000
0000
0300
0020
0000
0030
1000
,
M1M2
0000
0000
0000
0000
0000
0000
0000
0000
0000
0000
0003
,
21MM
0000
0020
0000
,
3030
0000
0000
0000
;
