#VERSION:0.83;
#TITLE:Light Velocity;
#SUBTITLE:;
#ARTIST:いさむおひら;
#TITLETRANSLIT:;
#SUBTITLETRANSLIT:;
#ARTISTTRANSLIT:Isamu Ohira;
#GENRE:;
#ORIGIN:;
#CREDIT:;
#BANNER:light velocity.png;
#BACKGROUND:Light Velocity-bg.png;
#PREVIEWVID:;
#JACKET:;
#CDIMAGE:;
#DISCIMAGE:;
#LYRICSPATH:;
#CDTITLE:;
#MUSIC:Light Velocity.ogg;
#OFFSET:-0.570000;
#SAMPLESTART:102.387993;
#SAMPLELENGTH:14.999999;
#SELECTABLE:YES;
#BPMS:0.000=132.000;
#STOPS:;
#DELAYS:;
#WARPS:;
#TIMESIGNATURES:0.000=4=4;
#TICKCOUNTS:0.000=4;
#COMBOS:0.000=1;
#SPEEDS:0.000=1.000=0.000=0;
#SCROLLS:0.000=1.000;
#FAKES:;
#LABELS:0.000=Song Start;
#BGCHANGES:;
#KEYSOUNDS:;
#ATTACKS:
;

//---------------dance-single - ----------------
#NOTEDATA:;
#CHARTNAME:;
#STEPSTYPE:dance-single;
#DESCRIPTION:;
#CHARTSTYLE:;
#DIFFICULTY:Hard;
#METER:10;
#RADARVALUES:0.776682,0.862430,0.000000,0.266182,1.028129,817.000000,817.000000,0.000000,40.000000,0.000000,0.000000,0.000000,0.000000,0.000000,0.776682,0.862430,0.000000,0.266182,1.028129,817.000000,817.000000,0.000000,40.000000,0.000000,0.000000,0.000000,0.000000,0.000000;
#CREDIT:;
#NOTES:
// measure 0
0000
0000
0000
0000
,  // measure 1
0000
0000
0000
0000
,  // measure 2
0000
0000
0000
0000
,  // measure 3
0000
0000
0000
0000
,  // measure 4
1000
0000
0001
0000
0010
0000
0100
0010
0000
0001
1000
0000
0001
0000
0100
0000
,  // measure 5
0001
0100
0010
0000
0100
0010
1000
0100
0000
0100
0010
0100
1000
0001
0100
0010
,  // measure 6
0100
0000
0010
0000
1000
0100
0010
0001
0000
0001
0010
0000
0100
0000
0010
0000
,  // measure 7
0001
1000
0010
0000
1000
0010
0000
0100
0000
0010
1000
0100
0010
0000
0100
1000
,  // measure 8
0001
0000
0100
0000
0010
0000
0200
0302
0003
1000
0100
0000
0010
0000
0100
0000
,  // measure 9
1000
0010
0100
0000
0020
2030
3200
0320
0030
0001
0020
0030
0200
0300
0010
0001
,  // measure 10
1000
0000
0001
0000
0100
0000
0010
0100
0000
0010
1000
0000
0100
0000
0010
0000
,  // measure 11
0001
0010
0200
0320
0032
2003
3200
0320
0030
0100
1000
0002
0203
0320
0030
0020
,  // measure 12
0230
0300
0002
2003
3200
0300
0020
0230
2300
3000
0002
2003
3020
0030
0200
0320
,  // measure 13
2030
3001
1000
0000
0001
1000
0100
0010
0000
0010
0001
0000
0100
0001
0100
0010
,  // measure 14
0100
0000
0010
0000
1000
0000
0100
0010
0000
0100
1000
0000
0001
0000
0100
0000
,  // measure 15
0010
0000
0200
0320
2030
3002
0023
0230
2300
3020
0130
0000
0010
0000
0100
0001
,  // measure 16
1000
0000
0100
0000
0010
0000
0000
0100
0000
0000
0100
0000
0010
0000
0001
1000
,  // measure 17
0010
0100
0010
0000
0100
0000
0010
1000
0000
0000
0010
1000
0100
0010
0001
0100
,  // measure 18
0010
0000
0100
0010
0100
0001
0000
1000
0000
0000
1000
0000
0100
0000
0010
0100
,  // measure 19
1000
0100
1000
0000
0100
0000
0010
0001
1000
0000
0001
0100
0000
0100
0010
0100
,  // measure 20
0001
0010
0100
0000
0010
0000
0000
0100
0000
0000
0100
0000
0010
0000
0001
0000
,  // measure 21
1000
0000
0000
0001
0000
0000
0100
0000
0010
0000
0100
0000
0001
0000
1000
0100
,  // measure 22
0010
0100
1000
0100
0010
0001
0010
0100
0010
0001
1000
0100
0010
0000
0100
1000
,  // measure 23
0010
0100
0010
0100
0001
0000
0100
0001
1000
0000
0001
1000
0010
0100
0010
1000
,  // measure 24
0001
0000
0000
0000
0000
0000
0000
0000
1000
0000
0000
0000
0000
0000
0000
0000
0100
0000
0000
0000
0000
0000
0000
0000
0000
0000
0000
0000
0010
0000
0000
0000
0000
0000
0000
0000
0000
0000
0000
0000
0100
0000
0000
0000
0000
0000
0000
0000
1000
0100
0000
0000
0000
0000
0000
0000
1000
0000
0000
0000
0000
0000
0000
0000
,  // measure 25
0001
0000
0100
0001
0100
0010
0000
0010
0100
0000
0100
0001
0000
0001
1000
0000
,  // measure 26
0001
0000
1000
0000
0100
0000
0010
0100
0000
0010
0001
0000
0010
0000
0001
0000
,  // measure 27
0100
0000
0001
0100
0010
0000
0100
0000
0010
1000
0100
0000
0010
0000
0100
1000
,  // measure 28
0001
0000
1000
0001
0000
0000
0100
0000
0000
0000
0001
0000
0100
0000
0010
0000
,  // measure 29
0001
0000
0010
0000
1000
0000
0000
0100
0000
0000
0010
0000
0100
0000
1000
0000
,  // measure 30
0001
0000
0100
0000
0010
0000
0000
0100
0000
0000
0010
0000
1000
0000
0001
0000
,  // measure 31
1000
0000
0100
0000
0010
0000
0100
0000
1000
0000
0100
0000
0010
0001
1000
0010
,  // measure 32
0100
0000
0010
0000
1000
0000
0000
0001
0000
0000
1000
0000
0100
0000
0010
0000
,  // measure 33
0100
0000
0010
0001
0100
0010
1000
0000
0010
0000
0000
0100
0000
0000
0010
0000
,  // measure 34
1000
0000
1000
0000
0010
0000
0100
0010
1000
0000
0001
0000
0010
0000
0100
0010
,  // measure 35
0001
0010
0001
0100
0010
0000
0100
0010
1000
0000
0100
0010
0100
1000
0001
0100
,  // measure 36
0010
0000
0000
0100
0000
0000
0001
0000
0000
1000
0000
0000
0100
0000
0000
0000
0000
0000
0000
0000
0000
0000
0000
0000
0000
0000
0000
0000
0000
0000
1000
0000
0100
0000
1000
0000
0001
0000
0000
0000
0000
0000
1000
0000
0100
0000
0010
0000
,  // measure 37
0100
0000
0010
0000
0001
0000
0000
0100
0000
0000
0001
0000
0100
0010
0100
0001
,  // measure 38
0010
0000
0010
0100
1000
0010
0000
0010
0100
0010
1000
0100
1000
0001
0010
0001
,  // measure 39
0010
0000
0100
0000
1000
0000
0000
0100
0000
0000
0010
0000
0100
1000
0001
0100
,  // measure 40
0010
0000
0100
0000
0001
0000
1000
0100
0000
0010
0100
0000
1000
0000
0001
0000
,  // measure 41
0100
0001
1000
0000
0001
0100
0000
0010
0000
0100
0010
0100
0001
0010
0001
1000
,  // measure 42
0001
0000
0010
0000
0100
0000
0010
0100
0000
1000
0010
0000
0100
0000
0010
0000
,  // measure 43
1000
0100
0010
0000
0100
0000
1000
0001
0000
0001
0100
0001
0010
0001
1000
0010
,  // measure 44
1000
0000
0001
0000
0100
0000
0010
0100
0000
0010
1000
0000
0001
0000
0010
0000
,  // measure 45
0100
1000
0001
0000
0100
0001
0000
1000
0000
0010
0100
0010
1000
0100
1000
0100
,  // measure 46
0010
0000
0100
0000
1000
0000
0001
0100
0000
0010
0100
0000
0010
0000
1000
0000
,  // measure 47
0001
0010
0100
0000
1000
0000
0100
0010
0000
0100
1000
0100
0010
0100
1000
0001
,  // measure 48
1000
0000
0001
0000
0100
0000
0000
0010
0000
0100
0010
0100
0001
0010
0000
0100
,  // measure 49
0000
0100
0010
0000
0001
0100
0000
0100
0010
0100
0010
1000
0100
0000
0010
0001
,  // measure 50
1000
0000
0001
0100
0010
1000
0010
0100
0010
0000
0100
0010
1000
0100
0010
0001
,  // measure 51
0010
0000
0001
0010
0000
0100
0010
0000
0001
0100
0010
0100
0010
1000
0100
0010
,  // measure 52
0100
0000
0010
0000
0001
0000
0000
1000
0000
0000
0010
0000
0000
0100
0000
0000
,  // measure 53
0010
1000
0001
0000
1000
0000
0000
0100
0000
0000
0010
0000
0100
1000
0001
1000
,  // measure 54
0010
0000
0100
0000
0010
0000
1000
0100
0000
0010
0100
0000
1000
0000
0010
0000
,  // measure 55
1000
0100
0010
0100
1000
0000
0001
0100
0010
0100
0001
1000
0100
0010
0100
0010
,  // measure 56
0001
0000
0100
0000
0010
0000
0001
0010
0000
0100
0010
0000
0100
0000
0001
0000
,  // measure 57
0010
0000
0010
0000
0001
0010
0100
1000
0001
0000
0100
0001
0000
0001
1000
0000
,  // measure 58
0010
0000
0010
0000
0100
0000
0010
1000
0100
0010
1000
0010
0100
1000
0001
1000
,  // measure 59
0010
0000
0100
0000
0010
0000
1000
0100
0000
0100
0010
0000
0100
1000
0000
0001
,  // measure 60
0100
0000
0100
0010
0000
0001
0010
0100
0010
1000
0100
0010
1000
0010
0100
0010
,  // measure 61
0001
0000
0000
0000
0000
0000
0001
0000
0010
0000
0001
0000
0100
0000
0000
0010
0000
0000
0000
0000
0000
0100
0000
0000
0000
0000
0000
0010
0000
0000
1000
0000
0000
0100
0000
0000
0010
0000
0000
1000
0000
0000
0010
0000
0000
0100
0000
0000
,  // measure 62
1000
0000
0010
0000
0100
0000
1000
0100
0010
0100
0010
0000
0100
0010
0100
0001
,  // measure 63
0010
0100
0001
0100
1000
0010
0100
1000
0100
0000
0010
1000
0100
0001
0100
1000
,  // measure 64
0001
0000
0000
0000
1000
0010
0100
1000
0100
0010
0100
0010
1000
0010
1000
0100
,  // measure 65
0010
0100
0001
0100
0010
0001
0100
0010
0001
0010
0100
0010
1000
0100
0010
0001
,  // measure 66
0010
0000
0100
1000
0001
0010
0000
0010
0001
0100
0001
0100
0010
1000
0000
0000
,  // measure 67
0000
0000
0000
0000
0001
0000
0100
0000
1000
0000
0100
0001
0010
0000
0100
0010
,  // measure 68
0001
1000
0010
0001
0010
0100
0000
0000
0000
0100
1000
0100
,  // measure 69
0001
0010
0100
0000
0000
0000
0100
0001
0100
0010
0001
1000
,  // measure 70
0010
0000
1000
0000
0001
0000
0000
1000
0000
0000
0001
0000
0100
0000
0010
0000
,  // measure 71
1000
0000
0100
0000
0001
0000
0100
0000
1000
0010
0100
0000
0010
0000
0100
0001
,  // measure 72
1000
0000
0000
0000
0000
0000
0000
0000
0100
0000
0000
0000
0000
0000
0000
0000
0010
0000
0000
0000
0000
0000
0000
0000
0000
0000
0000
0000
0001
0000
0000
0000
0000
0000
0000
0000
0000
0000
0000
0000
1000
0000
0000
0000
0000
0000
0000
0000
0001
1000
0000
0000
0000
0000
0000
0000
0010
0000
0000
0000
0000
0000
0000
0000
,  // measure 73
0100
0000
0000
0000
0000
0000
0010
0000
0000
0000
0000
0000
1000
0000
0000
0000
0000
0000
0001
0000
0010
0000
0100
0000
0010
0000
0000
0000
0000
0000
0000
0000
0000
0100
0000
0000
0000
0000
0000
0000
0000
0000
0010
0000
0000
0000
0000
0000
,  // measure 74
0100
0000
1000
0000
0010
0000
0100
0010
0000
0100
0001
0000
1000
0000
0001
0010
,  // measure 75
0100
0000
0010
0001
1000
0010
0100
1000
0100
0010
0100
0000
0010
0000
1000
0000
,  // measure 76
0001
0000
0010
0100
0010
0001
1000
0100
0000
0000
0100
0000
0010
0000
0100
0000
,  // measure 77
1000
0000
0010
0000
1000
0000
0001
1000
0000
0000
0001
0000
0100
0000
0010
0000
,  // measure 78
0100
0000
0100
0000
0010
0000
0000
1000
0000
0000
0001
0000
1000
0001
0010
0100
,  // measure 79
0010
0000
1000
0010
0100
0010
0000
0010
0100
1000
0010
0100
1000
0100
0010
0100
,  // measure 80
0020
0000
0000
0000
,  // measure 81
0030
0000
0000
0000
;

//---------------dance-single - ----------------
#NOTEDATA:;
#CHARTNAME:;
#STEPSTYPE:dance-single;
#DESCRIPTION:;
#CHARTSTYLE:;
#DIFFICULTY:Medium;
#METER:8;
#RADARVALUES:0.499092,0.512068,0.000000,0.079855,0.222928,525.000000,525.000000,0.000000,12.000000,0.000000,0.000000,0.000000,0.000000,0.000000,0.499092,0.512068,0.000000,0.079855,0.222928,525.000000,525.000000,0.000000,12.000000,0.000000,0.000000,0.000000,0.000000,0.000000;
#CREDIT:;
#NOTES:
// measure 0
0000
0000
0000
0000
,  // measure 1
0000
0000
0000
0000
,  // measure 2
0000
0000
0000
0000
,  // measure 3
0000
0000
0000
0000
,  // measure 4
0001
0000
0100
0000
0010
0000
0000
0001
0000
0000
0010
0000
0100
0000
0010
0000
,  // measure 5
0001
0000
0010
0000
1000
0000
0000
0100
0000
0000
0010
0000
0100
0000
1000
0000
,  // measure 6
0100
0000
1000
0000
0001
0000
0000
0100
0000
0000
0010
0000
0100
0000
0001
0000
,  // measure 7
1000
0000
0100
0000
0010
0000
0000
1000
0000
0000
0010
0000
0100
0000
0010
0000
,  // measure 8
0002
0000
0000
0000
0010
0000
0000
1000
0000
0000
0000
0000
0100
0000
0000
0000
,  // measure 9
2003
0000
0000
0000
0001
0000
0000
0100
0000
0000
0001
0000
0001
0000
0000
0000
,  // measure 10
3020
0000
0000
0000
1000
0000
0000
0100
0000
0000
0000
0000
0001
0000
0000
0000
,  // measure 11
0230
0000
0000
0000
0010
0000
0000
1000
0000
0000
0010
0000
0010
0000
0000
0000
,  // measure 12
0301
0010
1000
0010
0001
0010
0100
0010
,  // measure 13
0001
0000
0001
0000
0100
0000
0000
0010
0000
0000
0100
0000
0001
0000
1000
0000
,  // measure 14
0001
0000
0010
0000
0100
0000
0000
0010
0000
0000
0001
0000
0100
0000
0010
0000
,  // measure 15
0001
0010
0100
0010
1000
0010
1000
0100
,  // measure 16
0010
0000
0001
0000
1000
0000
0000
0001
0000
0000
0100
0000
0010
0000
0100
0000
,  // measure 17
0001
0000
0010
0000
0100
0000
0000
0010
0000
0000
0001
0000
1000
0000
0010
0000
,  // measure 18
0100
0000
0010
0000
1000
0000
0000
0100
0000
0000
0010
0000
0100
0000
1000
0000
,  // measure 19
0100
0010
0001
0100
0010
0100
0001
0010
,  // measure 20
0100
0000
1000
0000
0100
0000
0000
0010
0000
0000
0100
0000
1000
0000
0001
0000
,  // measure 21
0100
0000
0000
0010
0000
0000
0100
0000
0001
0000
0000
0000
1000
0000
0000
0000
,  // measure 22
0001
0010
0100
1000
0001
0010
0100
0010
,  // measure 23
0001
0000
0100
0000
0010
0000
1000
0001
,  // measure 24
0100
0000
0010
0000
0100
0000
0000
0001
0000
0000
0100
0000
0010
0000
0100
0000
,  // measure 25
0001
0000
1000
0000
0100
0000
0010
0000
0100
0000
0000
1000
0000
0000
0001
0000
,  // measure 26
0100
0010
0100
0001
0000
0001
1000
0000
,  // measure 27
0100
0010
0100
1000
0001
1000
0010
0100
,  // measure 28
0010
0000
0000
1000
0000
0000
0100
0000
0000
0000
0100
0000
1000
0000
0001
0000
,  // measure 29
0010
0000
0100
0000
1000
0000
0000
0001
0000
0000
1000
0000
0100
0000
0010
0000
,  // measure 30
0100
0000
1000
0000
0001
0000
0000
0100
0000
0000
0010
0000
0100
0000
0010
0000
,  // measure 31
2000
0000
3200
0000
0302
0000
0103
1000
,  // measure 32
0001
0000
1000
0000
0010
0000
0000
0100
0000
0000
0010
0000
1000
0000
0100
0000
,  // measure 33
0010
0000
0100
0000
1000
0000
0001
0000
1000
0000
0000
0010
0000
0000
0100
0000
,  // measure 34
0010
0000
0010
0000
0100
0000
0000
0001
0000
0000
0001
0000
1000
0000
0100
0000
,  // measure 35
0010
0100
1000
0001
0100
0010
0100
0001
,  // measure 36
1000
0000
0100
0000
0010
0000
0000
0000
0000
0000
0001
0010
0001
0000
1000
0001
,  // measure 37
1000
0000
0001
0000
0100
0000
0000
0010
0000
0000
0100
0000
0010
0000
1000
0000
,  // measure 38
0010
0100
0010
1000
0001
0010
0100
0010
,  // measure 39
0001
0000
0000
0000
0100
0000
0000
0010
0000
0000
1000
0000
0001
0000
0100
0000
,  // measure 40
0010
0000
0100
0000
0001
0000
0000
1000
0000
0000
0001
0000
0010
0000
0100
0000
,  // measure 41
0010
0000
0010
0000
0100
0000
0000
1000
0000
0000
0100
0000
0010
0000
0100
0000
,  // measure 42
1000
0000
0001
0000
0100
0000
0000
0010
0000
0000
0100
0000
0010
0000
1000
0000
,  // measure 43
0001
0010
0000
0100
0000
0100
0000
0100
,  // measure 44
0010
0000
0001
0000
1000
0000
0000
0001
0000
0000
0100
0000
0010
0000
0100
0000
,  // measure 45
0001
0000
0001
0000
0010
0000
0000
0100
0000
0000
1000
0000
0100
0000
1000
0000
,  // measure 46
0001
0000
0010
0000
0100
0000
0000
1000
0000
0000
0001
0000
0010
0000
0100
0000
,  // measure 47
0010
0000
0001
0000
0100
0000
0000
1000
0000
0000
0100
0000
0001
0000
1000
0000
,  // measure 48
0010
0000
0100
0000
0010
0000
0000
1000
0000
0000
0100
0000
0010
0000
0000
0010
,  // measure 49
0000
0000
0100
0000
1000
0100
0000
0000
0100
0010
0000
0000
0001
0000
0100
0000
,  // measure 50
0010
0100
0001
1000
0100
0010
0100
1000
,  // measure 51
0010
0000
0000
0100
0000
0000
0010
0000
1000
0000
0000
0001
0000
0000
0010
0000
,  // measure 52
0100
0000
0010
0000
0001
0000
0000
1000
0000
0000
0010
0000
0000
0100
0000
0000
,  // measure 53
0010
0000
1000
0000
0001
0000
0000
0010
0000
0000
0100
0000
1000
0000
0100
0000
,  // measure 54
0010
0000
0100
0000
1000
0000
0000
0001
0000
0000
0100
0000
0010
0000
0100
0000
,  // measure 55
0001
0010
0100
1000
0100
0001
0100
0010
,  // measure 56
0001
0000
0001
0000
0100
0000
0000
1000
0000
0000
0100
0000
0010
0000
0001
0000
,  // measure 57
0010
0000
0010
0000
0001
0000
0010
0000
1000
0000
0000
0100
0000
0000
0010
0000
,  // measure 58
0100
0100
0000
1000
0010
0001
0010
0100
,  // measure 59
0010
0000
1000
0000
0100
0000
0000
0001
0000
0000
0100
0000
0010
0000
0000
0000
,  // measure 60
0001
0000
0000
0001
0000
0000
0100
0000
1000
0000
0100
0000
0010
0000
0100
0000
,  // measure 61
0001
0000
1000
0100
0010
0000
0100
0000
1000
0000
0001
0000
0100
0000
0000
0000
,  // measure 62
1000
0100
0001
1000
0010
0001
0010
1000
,  // measure 63
0100
0001
0100
0010
1000
0010
0100
1000
,  // measure 64
0001
0000
1000
0100
0001
0100
0010
0001
,  // measure 65
0100
0010
0001
0010
0100
1000
0100
0010
,  // measure 66
0001
0010
0100
0001
0010
0100
1000
0001
,  // measure 67
0000
0000
1000
0100
0001
0100
1000
0100
,  // measure 68
0010
0001
0010
0001
0010
0100
0000
0000
0000
0100
0010
0100
,  // measure 69
0010
0100
1000
0000
0000
0000
1000
0100
1000
0100
1000
0001
,  // measure 70
1000
0000
0010
0000
0000
0000
0100
0000
0000
0010
0000
0000
0001
0000
0010
0000
,  // measure 71
2000
3200
0302
0023
,  // measure 72
1030
0000
0100
0000
0010
0000
0000
1000
0000
0000
0010
0000
0100
0000
0010
0000
,  // measure 73
0001
0000
0100
0000
0010
0000
0001
0010
0001
0000
0000
0010
0000
0000
1000
0000
,  // measure 74
0001
0000
1000
0000
0100
0000
0000
0010
0000
0000
0010
0000
0100
0000
1000
0000
,  // measure 75
0001
0100
0010
0001
0010
1000
0100
0010
,  // measure 76
0001
0010
1000
0010
0100
1000
0010
0001
,  // measure 77
1000
0000
0001
0000
0010
0000
0000
1000
0000
0000
0100
0000
0010
0000
0100
0000
,  // measure 78
0001
0001
0000
0100
0000
1000
0000
0001
,  // measure 79
0100
1000
0100
0010
0001
0010
1000
0001
,  // measure 80
2000
0000
0000
0000
,  // measure 81
3000
0000
0000
0000
;

//---------------dance-single - ----------------
#NOTEDATA:;
#CHARTNAME:;
#STEPSTYPE:dance-single;
#DESCRIPTION:;
#CHARTSTYLE:;
#DIFFICULTY:Easy;
#METER:5;
#RADARVALUES:0.254774,0.323411,0.019964,0.372655,0.000000,268.000000,265.000000,3.000000,56.000000,0.000000,0.000000,0.000000,0.000000,0.000000,0.254774,0.323411,0.019964,0.372655,0.000000,268.000000,265.000000,3.000000,56.000000,0.000000,0.000000,0.000000,0.000000,0.000000;
#CREDIT:;
#NOTES:
// measure 0
0000
0000
0000
0000
,  // measure 1
0000
0000
0000
0000
,  // measure 2
0000
0000
0000
0000
,  // measure 3
0000
0000
0000
0000
,  // measure 4
0100
0010
0100
0001
,  // measure 5
1000
1000
0100
0010
,  // measure 6
0010
0100
0010
0001
,  // measure 7
0200
0300
0000
0110
,  // measure 8
0020
0000
0000
1000
,  // measure 9
2030
0000
0000
0001
,  // measure 10
3002
0000
0000
0010
,  // measure 11
0023
0000
0000
0100
,  // measure 12
0230
0320
0032
0203
,  // measure 13
0320
0130
0001
1000
,  // measure 14
2000
0000
0000
0010
,  // measure 15
3020
0000
0000
0030
,  // measure 16
0220
0000
0000
0000
,  // measure 17
0000
0000
0330
0010
,  // measure 18
1000
0100
0000
0100
,  // measure 19
0010
0001
0100
0010
,  // measure 20
0200
0001
0000
0310
,  // measure 21
0200
0302
0023
1000
,  // measure 22
0130
0010
0001
0100
,  // measure 23
0010
0100
0100
0200
,  // measure 24
0320
0000
0000
0000
0000
0130
0010
2000
,  // measure 25
0000
0000
3001
1000
,  // measure 26
0100
0000
0010
0200
0000
0000
0000
0000
,  // measure 27
0300
0010
0001
0100
,  // measure 28
0020
0000
0000
0000
0000
1030
0100
0020
,  // measure 29
0000
0000
0000
0000
0000
0130
0010
0100
,  // measure 30
2000
0000
0001
0010
,  // measure 31
3200
2300
3002
0203
,  // measure 32
0320
0000
0000
0000
0000
0130
0001
2000
,  // measure 33
0000
0000
0000
0000
3100
0000
0010
0100
,  // measure 34
1000
1000
0000
0000
0000
0000
0000
0000
,  // measure 35
0000
0001
1000
0001
,  // measure 36
0100
0020
0000
0230
,  // measure 37
0302
2003
0000
3001
,  // measure 38
0010
0100
0010
0001
,  // measure 39
0100
0020
0000
0130
,  // measure 40
0102
1000
0010
1000
,  // measure 41
0100
0010
0100
1000
,  // measure 42
1003
0001
0010
0100
,  // measure 43
0010
0100
0010
0000
0001
0000
0100
0000
,  // measure 44
0010
1000
0001
0100
,  // measure 45
0010
0100
0010
0000
0100
0000
0001
0000
,  // measure 46
1000
0100
0010
0100
,  // measure 47
1000
0001
1000
0000
0010
0000
0100
0000
,  // measure 48
0020
0000
0000
0000
,  // measure 49
0000
0130
0100
0100
,  // measure 50
0010
1000
0100
0100
,  // measure 51
1000
0001
0100
0010
,  // measure 52
0200
0001
0010
0302
,  // measure 53
1000
0013
0001
0010
,  // measure 54
0200
1000
0310
0100
,  // measure 55
1000
0000
0001
0000
0001
1000
0001
1000
,  // measure 56
0002
0100
0010
1000
,  // measure 57
1003
0001
1000
0000
0010
0000
0100
0000
,  // measure 58
0010
2000
0000
0000
3001
0000
0010
0000
,  // measure 59
1000
0100
0001
0001
,  // measure 60
1000
0001
1000
0100
,  // measure 61
0020
0230
0000
0001
,  // measure 62
0310
0000
0100
0010
0000
0000
0001
0000
,  // measure 63
0100
1000
0100
0001
,  // measure 64
2000
0001
0100
0100
,  // measure 65
0001
0010
0100
3001
,  // measure 66
1000
0000
0010
0000
0100
0000
0010
1000
,  // measure 67
0000
0001
0010
2000
,  // measure 68
0010
0010
3020
0100
,  // measure 69
0100
0230
0010
0010
,  // measure 70
0310
0001
0100
0010
,  // measure 71
0100
0100
0100
0100
,  // measure 72
0200
0000
0000
0000
0000
0310
0100
0002
,  // measure 73
0000
0000
1003
0100
,  // measure 74
0010
0100
0010
0200
0000
0000
0000
0000
,  // measure 75
0300
1000
0001
0100
,  // measure 76
0020
0000
0000
0000
0000
0130
0010
2000
,  // measure 77
0000
0000
0000
0000
0000
3001
0010
0100
,  // measure 78
0010
0020
0000
0000
0030
0000
0000
0000
,  // measure 79
0100
0000
0010
0000
0001
0000
1000
0001
,  // measure 80
0200
0000
0000
0000
,  // measure 81
0300
0000
0000
0000
;
