#TITLE:Karate;
#SUBTITLE:;
#ARTIST:BABYMETAL;
#TITLETRANSLIT:;
#SUBTITLETRANSLIT:;
#ARTISTTRANSLIT:;
#CREDIT:mf32892;
#BANNER:;
#BACKGROUND:;
#PREVIEWVID:;
#JACKET:Karate-jacket.png;
#LYRICSPATH:;
#CDTITLE:cdtitle.png;
#MUSIC:Karate.ogg;
#OFFSET:2.456920;
#SAMPLESTART:58.099998;
#SAMPLELENGTH:25.000000;
#SELECTABLE:YES;
#BPMS:0.000=90.000,
51.9948=45.000,
53.9948=180.000,
85.9948=90.000,
101.9948=44.900,
103.9948=90.000;
#STOPS:;
#DELAYS:;
#WARPS:;
#TIMESIGNATURES:0.000=4=4;
#TICKCOUNTS:0.000=4;
#COMBOS:0.000=1;
#SPEEDS:0.000=1.000=0.000=0;
#LABELS:0.000=Song Start;
#LASTSECONDHINT:130.866425;
#BGCHANGES:2.250=Karate.mp4=1.000=0=0=0=StretchNoLoop====,
99999=-nosongbg-=1.000=0=0=0 // don't automatically add -songbackground-
;
#KEYSOUNDS:;
#ATTACKS:
;

//---------------dance-single - ----------------
#NOTES:
     dance-single:
     :
     Hard:
     8:
     0.441788,0.517431,0.098055,0.437478,0.414850,339.000000,13.000000,58.000000,0.000000,0.000000,0.000000,0.441788,0.517431,0.098055,0.437478,0.414850,339.000000,13.000000,58.000000,0.000000,0.000000,0.000000:
// measure 0
0000
0000
0000
0000
,  // measure 1
0000
0000
0000
0000
,  // measure 2
0000
0000
0000
0000
,  // measure 3
0000
0000
0000
0000
,  // measure 4
0000
0000
0000
0000
,  // measure 5
0001
0000
0000
0001
1000
0000
0002
0000
0000
0100
0003
0100
0010
0000
0100
0000
,  // measure 6
0001
0000
0000
0001
1000
0000
0001
0000
1000
0100
1000
0001
0100
0001
1000
0100
,  // measure 7
1000
0000
0000
0100
0010
0000
0002
0000
0000
1000
0003
1000
0001
0000
0100
0000
,  // measure 8
0010
0000
0000
0000
0000
0000
0000
0000
0000
0010
0000
0000
1000
0000
0000
0000
0000
0000
0001
0000
0000
0000
0000
0000
0200
0000
0000
0000
0000
0000
0320
0000
0000
0000
0000
0000
1030
0000
0001
0000
1000
0000
0002
0000
0000
0000
0000
0000
,  // measure 9
0103
0000
0000
0100
0010
0000
2000
0000
0000
0001
3000
0001
0010
0000
0100
0000
,  // measure 10
0010
0000
0000
0010
0001
0000
1000
0000
0001
0100
0001
1000
0100
1000
0001
0100
,  // measure 11
0001
0011
0011
0100
1100
1100
0011
1010
,  // measure 12
0100
0000
0101
0000
1001
0000
0011
0000
0010
0100
0010
0001
0100
0001
1000
0001
,  // measure 13
0010
0100
0000
0100
1000
0000
1000
0001
0000
0001
0100
0010
1000
0000
0110
0000
1000
0000
0000
0000
0100
0000
0000
0000
0010
0000
0000
0000
0100
0000
0000
0000
,  // measure 14
1000
0000
0001
0100
0000
0101
0000
1100
,  // measure 15
0001
0010
0100
0000
0010
0000
0001
0100
,  // measure 16
0010
0000
1000
0100
0000
1100
0000
0101
,  // measure 17
1000
0010
0100
0000
0001
0000
1000
0100
,  // measure 18
0010
0000
0100
1000
0000
1100
0000
0101
,  // measure 19
0010
1000
0001
0000
0010
0000
0100
1000
,  // measure 20
0001
0000
1000
0010
0000
1010
0000
0011
,  // measure 21
0100
0000
1000
0000
0001
0000
0000
0000
1001
0001
1000
0000
0001
0000
0000
0000
,  // measure 22
0000
1000
0010
0000
1000
0000
0100
0000
0010
0000
0010
0000
0001
0000
0000
0000
,  // measure 23
0000
0100
0001
0000
1000
0000
0100
0000
0110
0010
0100
0000
1000
0000
0000
0000
,  // measure 24
0000
0001
0100
0000
0010
0000
1000
0000
0100
0000
0100
0000
0010
0000
0000
0000
,  // measure 25
0000
0000
0001
0000
1000
0000
1000
0000
0001
0000
0000
0000
0100
0000
0000
0000
0020
0000
0000
0000
0000
0000
0000
0000
2030
0000
0000
0000
3001
0010
0100
1000
,  // measure 26
0001
0000
0100
0010
0000
1000
0000
0001
1000
0100
0010
0000
0001
0000
0001
1000
,  // measure 27
0001
0100
0010
0000
1000
0000
1000
0001
1000
0100
0010
0000
0100
0000
0000
0000
,  // measure 28
1001
0000
0010
0100
0000
1000
0000
0001
1000
0100
0010
0000
0100
0000
1000
0020
,  // measure 29
0000
0000
0130
0002
0000
0000
1003
0200
0000
0000
0310
0000
0100
0010
0100
0010
,  // measure 30
1002
0000
0103
0010
0000
1000
0000
1000
0100
0010
0001
0000
1000
0000
1000
0001
,  // measure 31
0100
0010
1000
0000
0001
0000
0001
1000
0100
0010
0001
0000
1000
0000
0001
0000
,  // measure 32
2000
0000
0100
0000
3020
0000
0130
0010
2000
0000
0100
0000
3002
0000
0100
0000
,  // measure 33
1003
0010
1000
0000
0100
0010
0100
0010
0002
0000
1000
0000
2003
0000
0010
0000
,  // measure 34
3010
0100
0000
0010
1000
0100
0000
1000
0010
0100
0000
0001
0010
0100
0000
0010
,  // measure 35
0001
0100
0000
0001
1000
0100
0000
1000
0010
0100
0000
0010
1000
0100
0000
0010
,  // measure 36
0002
0000
0013
0200
0000
2300
0000
3001
1000
0010
0001
0000
0010
0000
0100
0020
,  // measure 37
1000
0030
0001
0020
0100
0030
0010
0002
0200
0003
0010
0000
0320
0000
1000
0000
,  // measure 38
1030
0100
1000
0100
0010
0100
1000
0000
0001
0100
0001
0100
0010
0100
0001
0000
,  // measure 39
0010
0100
0010
0100
1000
0001
0100
0020
0000
0000
1030
0200
0000
0000
0310
0001
,  // measure 40
1000
0000
0001
0100
0000
0010
0000
1000
0001
0010
0100
0000
0010
0000
0001
0100
,  // measure 41
0020
0100
0100
0130
0002
0010
2003
3010
,  // measure 42
0200
0000
0302
0000
,  // measure 43
2003
0000
3200
0000
,  // measure 44
0320
0000
0032
0000
,  // measure 45
0203
0000
0320
0000
,  // measure 46
2030
0000
3002
0000
,  // measure 47
0023
0000
0230
0000
,  // measure 48
2300
0000
3002
0000
,  // measure 49
0203
0000
0020
0000
,  // measure 50
0330
0000
0000
0000
;

//---------------dance-single - ----------------
#NOTES:
     dance-single:
     :
     Challenge:
     10:
     0.441788,0.517431,0.098055,0.437478,0.414850,339.000000,13.000000,58.000000,0.000000,0.000000,0.000000,0.441788,0.517431,0.098055,0.437478,0.414850,339.000000,13.000000,58.000000,0.000000,0.000000,0.000000:
// measure 0
0000
0000
0000
0000
,  // measure 1
0000
0000
0000
0000
,  // measure 2
0000
0000
0000
0000
,  // measure 3
0000
0000
0000
0000
,  // measure 4
0000
0000
0000
0000
,  // measure 5
1000
0100
0000
0020
0000
0000
0032
0000
0000
0103
0000
0001
2000
0000
3100
0010
,  // measure 6
0100
0000
1000
0000
0000
0000
0002
0000
0000
0000
0000
0000
0103
0000
0010
0000
1000
0100
1000
0000
0010
0000
0100
0001
0100
0000
0010
0000
1000
0001
1000
0000
,  // measure 7
0001
0100
0000
0020
0000
0000
1030
0000
0000
0100
0000
1000
0002
0000
0013
0100
,  // measure 8
0010
0000
0000
0001
0000
0000
0000
0000
0000
2000
0000
0000
0000
0000
0000
0000
0000
0000
3200
0000
0000
0000
0000
0000
0310
0000
0001
0000
0010
0000
0100
0000
1000
0000
0100
0000
0010
0000
0001
0000
0100
0000
0020
0000
0000
0000
0000
0000
,  // measure 9
1030
0100
0000
0002
0000
0000
0203
0000
0000
1300
0000
0010
0002
0000
0013
0100
,  // measure 10
0010
0000
1000
0000
0000
0000
0002
0000
0000
0000
0000
0000
0013
0000
0100
0000
1000
0001
1000
0000
0010
0000
0100
0001
0100
0000
0010
0000
1000
0100
1000
0000
,  // measure 11
0100
0000
0000
0000
1000
0000
0001
0000
1000
0000
0000
0000
0020
0000
0000
0000
0130
0000
0001
0000
1000
0000
0001
0010
0001
0000
0010
0000
0100
0000
1000
0001
,  // measure 12
1000
0100
1000
0100
0010
0100
0010
0100
0010
0001
0010
0001
1000
0001
1000
0001
0100
0010
0100
0000
0000
0000
0001
1000
0001
0000
0000
0000
0010
0100
0010
0100
,  // measure 13
2000
0000
0001
0000
0000
0000
0001
0000
0001
0000
0000
0000
0001
0000
0001
0000
0000
0000
0001
0000
3001
0000
1000
0001
1000
0000
0010
0000
0100
0001
0100
0001
1000
0000
0000
0000
0000
0000
0000
0000
0001
0000
0000
0000
0000
0000
0000
0000
1000
0000
0000
0000
0100
0000
0000
0000
1000
0000
0000
0000
0000
0000
0000
0000
,  // measure 14
0001
0000
1000
0000
0001
0100
0001
0000
0010
0000
0001
0000
1000
0100
1000
0000
,  // measure 15
0010
0000
1000
0000
0001
0100
0001
0100
0001
0000
1000
0000
0001
0010
0001
0000
,  // measure 16
1000
0000
0001
0000
1000
0010
1000
0000
0100
0000
0010
0000
0001
1000
0001
0000
,  // measure 17
0100
0000
0010
1000
0001
1000
0001
1000
0100
0000
0010
0000
0100
1000
0001
0000
,  // measure 18
0100
0000
0010
0000
0100
0001
1000
0000
0100
0000
0010
0000
0001
1000
0010
0000
,  // measure 19
0100
0000
0001
0000
1000
0001
1000
0001
0010
0000
0100
0000
0010
0001
0100
0000
,  // measure 20
0010
0000
0100
0000
0010
1000
0100
0000
0010
0000
0100
0000
1000
0001
0000
0100
,  // measure 21
0001
0000
0100
0000
0001
0000
0100
0000
0010
0000
1000
0000
0001
0000
0010
0000
0100
0000
0100
0000
1000
0001
1000
0000
0010
0000
0000
0000
0000
0000
0000
0000
,  // measure 22
0000
0000
0100
0001
0100
0000
0000
0000
0010
1000
0010
0000
0100
0000
0001
0000
1000
0100
1000
0000
0001
0100
0001
0000
1000
0000
0000
0000
0000
0000
0000
0000
,  // measure 23
0000
0000
0010
0100
0010
0000
0000
0000
1000
0000
0100
0010
0100
0010
0100
0010
0001
0000
0001
0000
1000
0001
1000
0000
0100
0000
0000
0000
0000
0000
0000
0000
,  // measure 24
0000
0000
0010
0001
0010
0000
0000
0000
0100
1000
0100
0000
1000
0000
0001
0000
1000
0010
1000
0000
0010
0100
0010
0000
1000
0000
0000
0000
0000
0000
0000
0000
,  // measure 25
0000
0000
0000
0000
0100
0000
1000
0000
0100
0000
0000
0000
0100
0000
0000
0000
0010
0000
0001
0000
0010
0000
0001
0000
1000
0000
0010
0000
1000
0000
0010
0000
0200
0000
0000
0000
0000
0000
0000
0000
0000
0000
0000
0000
0000
0000
0000
0000
0320
0000
0000
0000
0000
0000
1030
0001
1000
0000
0010
0000
0000
0000
0000
0000
,  // measure 26
1000
0100
0000
1000
0001
0100
0000
0001
1000
0100
0000
1000
0001
0010
0000
0001
,  // measure 27
1000
0000
0100
0000
0000
0000
1000
0000
0001
0000
0010
0000
0000
0000
0001
0000
1000
0000
0010
0000
0000
0000
1000
0000
0001
0000
0100
0001
0100
0000
0100
0000
,  // measure 28
0001
0010
0000
0001
1000
0010
0000
1000
0001
0100
0000
0001
1000
0100
0000
1000
,  // measure 29
0001
0000
0100
0000
0000
0000
0001
0000
1000
0000
0010
0000
0000
0000
1000
0000
0100
0000
0010
0000
0000
0000
0100
1000
0001
0000
1000
0000
0001
0000
0001
0000
,  // measure 30
0100
0010
0000
1000
0100
0010
0000
0100
1000
0010
0000
0100
0001
0010
0000
0100
,  // measure 31
0010
0001
0000
0100
0010
1000
0000
0100
0010
0100
0000
1000
0001
0100
0000
0010
,  // measure 32
1000
0000
0000
0000
1010
0000
0000
0000
0001
0000
0000
0000
0011
0000
0000
0000
1000
0000
0000
0000
1100
0000
0000
0000
0001
0000
0000
0000
0101
0000
1000
0001
,  // measure 33
1000
0000
0000
0000
0000
0000
0000
0000
0000
0000
0000
0000
0100
0000
0000
0000
0000
0000
0010
0000
0000
0000
0000
0000
0001
0000
0000
0000
0000
0000
0010
0000
0000
0000
0000
0000
0100
0000
0000
0000
0000
0000
0010
0000
0000
0000
0000
0000
0001
0000
0000
0000
0000
0000
0000
0000
0000
0000
0000
0000
0100
0000
0000
0000
0000
0000
0000
0000
0000
0000
0000
0000
0010
0000
0000
0000
0000
0000
0000
0000
0000
0000
0000
0000
0010
0000
0000
0000
0000
0000
0000
0000
0000
0000
0000
0000
1000
0000
0000
0000
0000
0000
0000
0000
0100
0000
0000
0000
0000
0000
0000
0000
1000
0000
0000
0000
0000
0000
0000
0000
0001
0000
0000
0000
0000
0000
0000
0000
0100
0000
0000
0000
0000
0000
0000
0000
0001
0000
0000
0000
0000
0000
0000
0000
0010
0000
0000
0000
0000
0000
0000
0000
0100
0000
0000
0000
0000
0000
0000
0000
1000
0000
0000
0000
0000
0000
0000
0000
0010
0000
0000
0000
0000
0000
0000
0000
0100
0000
0000
0000
0000
0000
0000
0000
0001
0000
0000
0000
0000
0000
0000
0000
,  // measure 34
1000
1000
0100
0100
0001
0100
1000
1000
0001
0001
0100
0100
1000
0100
0001
1000
,  // measure 35
0001
0001
0010
0010
1000
0010
0001
1000
0010
0010
0100
0100
1000
0100
0001
1000
,  // measure 36
0100
0100
0010
0010
0001
1000
0010
0001
0010
0010
0100
0100
0001
0010
1000
0010
,  // measure 37
0100
0000
0100
0000
1000
0000
1000
0000
0001
0000
0100
0000
1000
0000
0100
0000
0010
0000
0010
0000
1000
0000
0100
1000
0001
0000
0100
0000
0001
0000
0001
0000
,  // measure 38
0020
0100
0100
0130
1000
0001
1000
0010
0200
0001
0001
0301
1000
0001
0010
0100
,  // measure 39
2000
0010
0010
3010
0100
0001
2000
3002
0010
0013
0200
2300
0001
3001
2000
3020
,  // measure 40
0130
0001
0100
0000
0010
0000
1000
0000
0100
0000
0010
0000
0100
0000
1000
0000
0001
1000
0001
0000
0100
0000
0010
0000
0100
0000
0001
0000
0010
0000
0100
0000
,  // measure 41
1000
0001
1000
0000
0001
0000
0100
0000
1000
0000
0100
0000
0001
0000
1000
0000
0001
0100
0001
0100
0001
0100
0001
0100
0010
1000
0010
1000
0010
1000
0010
1000
,  // measure 42
0200
0000
0000
0000
0000
0000
0000
0000
0020
0000
0000
0000
0300
0000
0001
0002
,  // measure 43
0030
0000
1000
2000
0003
0000
0010
0020
3000
0000
0000
0000
0000
0000
0000
0000
,  // measure 44
0230
0000
0000
0000
0000
0000
0000
0000
0002
0000
0000
0000
0300
0000
1000
2000
,  // measure 45
0003
0000
0100
0200
3000
0000
0010
0020
0300
0000
0000
0000
0000
0000
0000
0000
,  // measure 46
0032
0000
0000
0000
0000
0000
0000
0000
0200
0000
0000
0000
0003
0000
0010
0020
,  // measure 47
0300
0000
1000
2000
0030
0000
0001
0002
3000
0000
0000
0000
0000
0000
0000
0000
,  // measure 48
0023
0000
0000
0000
0000
0000
0000
0000
0200
0000
0000
0000
0030
0000
1000
2300
,  // measure 49
0000
0000
0010
0020
3000
0000
0100
0200
0000
0000
0000
0000
0000
0000
0000
0000
,  // measure 50
0330
0000
0000
0000
;

//---------------dance-single - ----------------
#NOTES:
     dance-single:
     :
     Medium:
     6:
     0.441788,0.517431,0.098055,0.437478,0.414850,339.000000,13.000000,58.000000,0.000000,0.000000,0.000000,0.441788,0.517431,0.098055,0.437478,0.414850,339.000000,13.000000,58.000000,0.000000,0.000000,0.000000:
// measure 0
0000
0000
0000
0000
,  // measure 1
0000
0000
0000
0000
,  // measure 2
0000
0000
0000
0000
,  // measure 3
0000
0000
0000
0000
,  // measure 4
0000
0000
0000
0000
,  // measure 5
1000
0000
0000
0001
0000
0000
0010
0000
0000
0100
0000
0000
1000
0000
0001
0000
,  // measure 6
1000
0000
0000
0010
0000
0000
0100
0000
0001
0000
0000
0010
0000
0000
0110
0000
,  // measure 7
0001
0000
0000
0100
0000
0000
0010
0000
0000
1000
0000
0000
0001
0000
0010
0000
,  // measure 8
0100
0000
0000
1000
0000
0000
0001
0000
2000
0000
0000
0000
0002
0000
3000
0000
,  // measure 9
0013
0000
0000
0100
0000
0000
1000
0000
0000
0010
0000
0000
0100
0000
0001
0000
,  // measure 10
0010
0000
0000
0100
0000
0000
0010
0000
0001
0000
0000
0100
0000
0000
0110
0000
,  // measure 11
1000
0000
0000
0010
0000
0000
0001
0000
0000
0010
0000
0000
1000
0000
0001
0000
,  // measure 12
0010
0000
0000
0100
0000
0000
1000
0000
0001
0000
0000
0100
0000
0000
0010
0000
,  // measure 13
0200
0000
0000
0000
0000
0000
0310
1001
1000
0000
0000
0000
0002
0000
0000
0000
,  // measure 14
0013
0000
0000
0100
0000
0100
0000
0100
,  // measure 15
0020
0031
0000
0002
,  // measure 16
0103
0000
0000
0010
0000
0010
0000
0010
,  // measure 17
2000
3001
0000
0020
,  // measure 18
0130
0000
0000
1000
0000
1000
0000
1000
,  // measure 19
0002
0103
0000
0020
,  // measure 20
1030
0000
0000
0001
0000
0001
0000
0001
,  // measure 21
0020
0000
0130
0000
1002
0000
0103
0020
,  // measure 22
0000
2030
0000
3200
0000
0320
0000
0230
,  // measure 23
0000
2300
0000
3010
2001
0000
3100
0020
,  // measure 24
0000
0032
0000
0203
0000
0320
0000
2030
,  // measure 25
0000
3001
0020
0000
0230
0000
2300
3001
,  // measure 26
1000
0010
1000
0100
0010
0001
0100
0010
,  // measure 27
0100
0001
0010
0001
1000
0010
0100
0000
,  // measure 28
1001
0001
0010
0100
0010
0001
0100
0001
,  // measure 29
1000
0010
0100
0010
2000
0000
0001
3001
,  // measure 30
0010
0100
0010
0001
0100
0010
1000
0100
,  // measure 31
1000
0001
0010
1000
0010
0001
0100
0010
,  // measure 32
1000
1000
0010
0010
0100
0100
0001
1000
,  // measure 33
0001
0010
1000
0010
0002
0000
2003
0000
,  // measure 34
3002
0100
1000
0010
2003
0100
0001
0010
,  // measure 35
3002
0010
1000
0100
2003
0100
0001
3010
,  // measure 36
1000
0100
1000
0001
0010
0100
0010
0001
,  // measure 37
0100
0010
1000
0001
0020
0000
0230
0000
,  // measure 38
1300
0001
0100
0001
1000
0100
1000
0100
,  // measure 39
0010
0001
0010
0001
1000
0001
0100
0010
,  // measure 40
1000
0001
1000
0001
0010
0100
0010
0100
,  // measure 41
1000
0100
0010
0001
1000
1000
0010
0010
,  // measure 42
0200
0000
0320
0000
,  // measure 43
2030
0000
3002
0000
,  // measure 44
0023
0000
0230
0000
,  // measure 45
2300
0000
3002
0000
,  // measure 46
0203
0000
0320
0000
,  // measure 47
2030
0000
3002
0000
,  // measure 48
0023
0000
0230
0000
,  // measure 49
2300
0000
0002
0000
,  // measure 50
3003
0000
0000
0000
;

//---------------dance-single - ----------------
#NOTES:
     dance-single:
     :
     Easy:
     4:
     0.441788,0.517431,0.098055,0.437478,0.414850,339.000000,13.000000,58.000000,0.000000,0.000000,0.000000,0.441788,0.517431,0.098055,0.437478,0.414850,339.000000,13.000000,58.000000,0.000000,0.000000,0.000000:
0000
0000
0000
0000
,
0000
0000
0000
0000
,
0000
0000
0000
0000
,
0000
0000
0000
0000
,
0000
0000
0000
0000
,
1000
0100
1000
1001
,
0001
0100
0001
1001
,
1000
0010
1000
1001
,
0001
0010
0002
2003
,
3010
0000
1000
0000
0100
1000
0100
0000
,
0010
0000
0001
0000
0100
0001
0010
0000
,
0010
0001
0001
0000
1000
1000
0001
1000
,
0000
0000
0001
0000
0001
0000
0100
0000
0001
0000
0000
1000
0000
0000
0001
0000
,
0020
0030
0001
1000
,
0100
1000
0010
0010
,
0100
0100
0001
1000
,
0001
0100
0001
0001
,
0010
0010
0100
1000
,
0001
1000
0010
0010
,
0100
0100
0001
1000
,
0001
0010
0100
0100
,
0010
0100
1001
0100
,
0000
0101
1000
1100
,
0000
0011
0100
1001
,
0000
0101
0010
1010
,
0000
0000
0110
0000
2002
0000
0003
3000
,
1001
0000
0110
0000
0001
0010
0100
0000
,
1000
0001
0100
0000
0010
1000
0100
0000
,
0110
0000
1001
0000
1000
0100
0010
0000
,
0002
0000
2003
0000
3020
0000
0130
0010
,
1001
0000
0110
0000
1000
0100
0010
0000
,
0001
1000
0010
0000
0100
0001
0010
0000
,
0001
0001
1000
1000
0010
0010
0100
0100
,
0001
1000
0001
1000
0002
0000
0023
0000
,
0230
1000
0010
1300
,
2000
0100
0001
3010
,
0020
0100
1000
0130
,
2000
0001
3200
0320
,
0032
1000
2003
0010
,
3020
0100
0230
0001
,
0301
0000
0010
0000
0100
1000
0100
0000
,
0020
0100
0032
2003
,
3020
0000
0100
0000
,
1000
0000
0100
0000
,
1030
0000
0001
0000
,
0010
0000
0100
0000
,
1000
0000
0001
0000
,
0100
0000
0001
0000
,
0010
0000
0100
0000
,
1000
0000
0002
0000
,
0003
0000
0000
0000
;

//---------------dance-single - ----------------
#NOTES:
     dance-single:
     :
     Beginner:
     1:
     0.441788,0.517431,0.098055,0.437478,0.414850,339.000000,13.000000,58.000000,0.000000,0.000000,0.000000,0.441788,0.517431,0.098055,0.437478,0.414850,339.000000,13.000000,58.000000,0.000000,0.000000,0.000000:
0000
0000
0000
0000
,
0000
0000
0000
0000
,
0000
0000
0000
0000
,
0000
0000
0000
0000
,
0000
0000
0000
0000
,
0001
0001
0000
1000
,
0000
0001
1000
1000
,
1000
0001
0000
0010
,
0000
0001
0020
0030
,
0001
0001
0000
1000
,
0000
0001
0000
1000
,
1000
0001
0000
1000
,
0000
0001
0100
0000
,
0010
0000
1000
0000
,
1000
0000
1000
0000
,
0000
0000
0001
0000
,
0001
0000
0001
0000
,
0000
0000
0010
0000
,
0010
0000
0010
0000
,
0000
0000
0100
0000
,
0100
0000
0100
0000
,
0000
0000
1001
0001
,
0000
1000
0000
0001
,
0000
1000
1001
0001
,
0000
0010
0000
0001
,
0000
0000
1000
0000
0002
0000
0000
0003
,
1000
0100
1000
0000
,
0001
0000
0100
0000
,
0001
0010
0001
0000
,
1000
0001
1000
0000
,
0100
0010
0100
0000
,
0010
0000
0001
0000
,
1000
1000
0001
0001
,
1000
0001
2000
0000
,
3001
0000
0010
0000
,
0100
0000
1000
0000
,
0001
0100
0001
0000
,
1000
0000
0100
0100
,
0010
0000
0001
0000
,
1000
0000
0010
0000
,
0100
0001
0100
0000
,
0001
0000
1000
0001
,
1000
0000
0000
0000
,
0000
0000
0000
0000
,
0001
0000
0000
0000
,
0000
0000
0000
0000
,
0010
0000
0000
0000
,
0000
0000
0000
0000
,
0100
0000
0000
0000
,
0000
0000
0000
0000
,
1000
0000
0000
0000
;
