#TITLE:I'll Always Love You;
#SUBTITLE:;
#ARTIST:Taylor Dayne;
#TITLETRANSLIT:;
#SUBTITLETRANSLIT:;
#ARTISTTRANSLIT:;
#CREDIT:;
#BANNER:;
#BACKGROUND:;
#LYRICSPATH:;
#CDTITLE:;
#MUSIC:I'll Always Love You.ogg;
#OFFSET:1.220;
#SAMPLESTART:67.680;
#SAMPLELENGTH:12.000;
#SELECTABLE:YES;
#BPMS:0.000=85.340;
#STOPS:;
#BGCHANGES:;

//---------------dance-single - ----------------
#NOTES:
     dance-single:
     :
     Hard:
     7:
     0.374,0.372,0.096,0.383,0.196: // measure 1
0000
0000
0000
0000
,  // measure 2
0000
0000
0000
0000
,  // measure 3
0000
0000
0000
0000
,  // measure 4
0000
0000
0000
0000
,  // measure 5
0000
0000
0000
0000
,  // measure 6
1000
1000
0000
2001
0000
0000
3010
0000
,  // measure 7
1000
0010
0100
0001
1000
0000
1000
0000
0100
0000
0100
0000
0010
0000
0000
0000
,  // measure 8
0001
0001
0000
1002
0000
0000
0103
0000
,  // measure 9
0200
0000
0000
0000
0302
0000
0000
1003
0001
0000
0000
0010
0000
0100
0000
2001
,  // measure 10
0000
0000
0000
3100
1000
0100
0010
0002
,  // measure 11
0100
0000
1003
0000
0001
0000
1000
0001
0010
0000
0100
0000
1000
0000
0020
0000
,  // measure 12
0200
0000
0330
0100
0001
1000
0100
0010
,  // measure 13
0002
0100
1003
0000
1000
0100
0001
0100
,  // measure 14
0020
0000
0031
0100
0010
1000
0100
0001
,  // measure 15
1000
0000
0100
0000
0001
0000
1000
0001
0020
0000
0000
0000
0000
0000
0032
0000
,  // measure 16
0000
0203
0000
0000
0320
0000
0100
0000
0001
0000
0100
0000
1000
0000
0130
0000
,  // measure 17
0110
0000
1001
0000
1010
0000
0011
0001
,  // measure 18
1001
0000
0000
0000
0000
0000
2000
0000
0000
0100
0000
0000
3001
0000
0000
0001
0000
0000
0100
0000
0000
1000
0000
0100
,  // measure 19
0020
0000
2030
0100
3200
0000
0302
0010
,  // measure 20
0023
0000
0000
0130
0100
1000
0010
0200
,  // measure 21
0000
0000
0300
0000
0100
1000
0001
0020
,  // measure 22
0000
0000
0000
0000
0031
0000
1000
0000
0000
0000
0001
0000
1000
0000
0100
0010
,  // measure 23
0002
0000
0000
0000
0103
0000
0010
0000
1000
0000
0100
0000
0010
0000
0001
0100
,  // measure 24
0010
1000
0100
0000
0010
0000
0001
0010
0100
1000
0001
0000
0010
0000
0100
0000
,  // measure 25
0020
0000
0000
0000
0032
0000
0000
0103
0010
0000
1000
0000
0100
0000
1000
0001
,  // measure 26
1000
0000
1001
1000
0100
1000
0010
0200
,  // measure 27
0000
0000
0000
0000
0000
0000
0301
0000
0000
0000
0000
0000
0001
0000
0100
0000
0000
0001
0000
0000
1000
0000
0000
0100
,  // measure 28
0000
0010
0000
0000
0000
0000
0001
0000
0000
0102
0000
0000
1000
0000
0000
0000
0000
0000
1000
0000
0000
0013
0000
0000
,  // measure 29
0012
0000
0000
0000
0010
0000
1000
0000
1000
0000
0000
0000
1000
0000
0103
0001
,  // measure 30
0010
0000
0100
0000
1000
0000
0010
0100
0001
0000
1000
0000
0100
0010
0002
0000
,  // measure 31
0000
0000
0000
0000
0103
0000
0000
0100
0010
0000
1000
0000
0100
0000
0001
0000
,  // measure 32
0200
0000
1300
0001
0002
0000
0100
1000
,  // measure 33
2003
0000
0000
0000
0010
0000
0001
0000
3001
0000
0100
0010
1000
0000
0001
0000
,  // measure 34
2000
0000
0000
0000
3001
0000
1000
0100
0002
0000
0000
1003
0000
0000
1000
0100
,  // measure 35
0002
0000
0000
1003
0000
0000
0000
0000
0000
1000
0001
0000
0010
0000
0001
0000
,  // measure 36
1000
0000
0100
0000
0010
0000
0001
0010
2000
0000
0000
3001
0000
0000
0001
0010
,  // measure 37
1000
0000
0001
0000
0002
0000
0003
0100
0010
0000
1000
0000
0100
0000
0020
0000
,  // measure 38
0000
0000
0000
0000
0030
0000
0001
0100
0020
0000
0000
0031
0000
0000
0001
0100
,  // measure 39
0020
0000
0000
0031
0000
0000
0000
0001
0020
0000
0000
0000
0230
0000
0000
0000
,  // measure 40
2300
0000
0001
0000
3100
0000
0000
0000
0100
0000
1000
0000
0010
0000
0100
0001
,  // measure 41
1000
0000
0000
0010
0000
0000
0100
0000
0001
0000
1000
0000
0200
0000
0000
0000
0000
0000
0000
0000
0000
0000
0000
0000
0000
0000
0000
0000
0000
0000
0000
0000
0000
0000
0000
0000
0300
0000
0000
0000
0000
0000
0000
0000
0000
0000
0000
0000
;

//---------------dance-single - Copied from----------------
#NOTES:
     dance-single:
     Copied from:
     Edit:
     7:
     0.394,0.567,0.096,0.365,0.257:
0000
0000
0000
0000
,
0000
0000
0000
0000
,
0000
0000
0000
0000
,
0000
0000
0000
0000
,
0000
0000
0000
0000
,
1000
1000
0000
2001
0000
0000
3010
0000
,
1000
0010
0100
0001
1000
0000
1000
0000
0100
0000
0100
0000
0010
0000
0010
0000
,
0001
0001
0000
1002
0000
0000
0103
0000
,
0200
0000
0000
0000
0302
0000
0000
1003
0001
0000
0000
0010
0000
0100
0000
2001
,
0000
0000
0000
3100
1000
0100
0010
0002
,
0100
0000
1003
0000
0001
0000
1000
0001
0010
0000
0100
0000
1000
0000
0020
0000
,
0200
0000
0330
0100
0001
1000
0100
0010
,
0002
0100
1003
0000
1000
0100
0001
0100
,
0020
0000
0031
0100
0010
1000
0100
0001
,
1000
0000
0100
0000
0001
0000
1000
0001
0020
0000
0000
0000
0030
0000
0002
0000
,
0000
0203
0000
0000
0320
0000
1000
0000
1000
0000
0100
0000
1000
0000
0130
0000
,
0110
0000
1001
0000
1010
0000
0011
0001
,
1001
0000
0000
0000
0000
0000
2000
0000
0000
0100
0000
0000
3001
0000
0000
0001
0000
0000
0100
0000
0000
1000
0000
0100
,
0020
0000
2030
0100
3200
0000
0302
0010
,
0023
0000
0000
0130
0100
1000
0010
0200
,
0000
0000
0300
0000
0100
1000
0001
0020
,
0000
0000
0000
0000
0031
0000
0100
0000
0000
0000
0001
0000
1000
0000
0100
0010
,
0002
0000
0000
0000
0103
0000
0010
0000
1000
0000
0100
0000
0010
0000
0001
0100
,
0010
1000
0100
0000
0010
0000
0001
0100
0010
0100
0001
0000
0010
0000
0100
0000
,
0010
0100
1000
0100
0010
0001
0010
0100
1000
0100
0010
0001
0010
0100
1000
0100
0010
0001
0010
0100
1000
0100
0010
0001
,
1000
0000
1001
1000
0100
1000
0010
0200
,
0000
0000
0000
0000
0301
0000
0000
0000
0100
0001
1000
0001
0000
1000
0000
0100
,
0000
0010
0000
0000
0001
0000
0102
0000
1000
0000
0000
0000
1000
0000
0013
0000
,
0012
0000
0000
0000
0010
0000
1000
0000
1000
0000
0000
0000
1000
0000
0103
0001
,
0010
0000
0100
0000
1000
0000
0010
0100
0001
0000
1000
0000
0100
0010
0002
0000
,
0000
0000
0000
0000
0103
0000
0000
0100
0010
0000
1000
0000
0100
0000
0001
0000
,
0200
0000
1300
0001
0002
0000
0100
1000
,
2003
0000
0010
0001
3001
0100
0010
2000
,
0000
0000
0000
0000
3001
0000
1000
0100
0002
0000
0000
1003
0000
0000
1000
0100
,
0002
0000
0000
1003
0000
0000
0000
0000
0000
1000
0001
0000
0010
0000
0001
0000
,
1000
0000
0100
0000
0010
0000
0001
0010
2000
0000
0000
3001
0000
0000
0001
0010
,
1000
0000
0001
0000
0002
0000
0003
0100
0010
0000
1000
0000
0100
0000
0020
0000
,
0000
0000
0000
0000
0031
0010
0001
0100
0020
0000
0000
0031
0000
0000
0001
0100
,
0020
0000
0000
0031
0000
0000
0000
0001
0020
0000
0000
0000
0230
0000
0000
0000
,
2300
0000
0001
0000
3100
0000
0000
0000
0100
0000
1000
0000
0010
0000
0100
0001
,
1000
0000
0000
0010
0000
0000
0100
0000
0001
0000
1000
0000
0200
0000
0000
0000
0000
0000
0000
0000
0000
0000
0000
0000
0000
0000
0000
0000
0000
0000
0000
0000
0000
0000
0000
0000
0300
0000
0000
0000
0000
0000
0000
0000
0000
0000
0000
0000
;

//---------------dance-single - ----------------
#NOTES:
     dance-single:
     :
     Medium:
     5:
     0.278,0.301,0.026,0.322,0.070: // measure 1
0000
0000
0000
0000
,  // measure 2
0000
0000
0000
0000
,  // measure 3
0000
0000
0000
0000
,  // measure 4
0000
0000
0000
0000
,  // measure 5
0000
0000
0000
0000
,  // measure 6
1000
1000
0000
2002
0000
0000
3003
0000
,  // measure 7
1000
0010
0100
0000
0100
0001
1000
0000
,  // measure 8
0001
0001
0000
2002
0000
0000
3003
0000
,  // measure 9
1000
0000
0000
0000
0100
0000
0000
0000
0010
0000
0000
0001
0000
1000
0000
0002
,  // measure 10
0000
0000
0000
0003
1000
0100
0010
0001
,  // measure 11
0000
0000
0000
0000
1000
0001
0100
0002
,  // measure 12
0000
0000
0003
0001
0100
0010
1000
0002
,  // measure 13
0000
0000
0003
0000
0100
0001
0100
0010
,  // measure 14
2000
0000
3001
1000
0010
0100
0001
2000
,  // measure 15
0000
0000
0000
3001
0200
0000
0000
0320
,  // measure 16
0000
2030
0000
0000
3002
0000
0000
0000
0100
0000
0000
0000
1000
0000
0000
0000
,  // measure 17
0013
0000
0001
0000
0100
0000
0010
1000
,  // measure 18
0001
0000
0001
1000
0010
1000
0001
0000
,  // measure 19
0002
0203
2300
3020
,  // measure 20
0032
0000
0000
0103
0100
0001
0010
0002
,  // measure 21
0000
0000
0003
0000
0001
0100
0010
2000
,  // measure 22
0000
0000
3001
1000
0000
0000
0000
1000
,  // measure 23
0010
0000
0010
1000
0001
1000
0100
0010
,  // measure 24
0001
0000
0001
1000
0001
1000
0000
0000
,  // measure 25
2000
3020
0032
0203
,  // measure 26
2300
0000
3000
1000
0100
0010
0000
0002
,  // measure 27
0000
0000
0000
0000
0000
0000
0003
0000
0000
0000
0000
0000
0000
0000
1000
0000
0000
0001
0000
0000
1000
0000
0000
0001
,  // measure 28
0000
0010
0000
0000
0000
0000
0100
0000
0000
1000
0000
0000
1000
0000
0000
0001
0000
0000
0000
0000
0000
0000
0000
0000
,  // measure 29
0001
0000
0001
0010
0100
1000
0001
1000
,  // measure 30
0100
0000
0010
0000
0001
0000
0000
0001
0000
0000
0001
0000
1000
0000
2002
0000
,  // measure 31
0000
3003
0000
0000
1000
0010
0100
0001
,  // measure 32
1000
0000
0001
1000
0100
0010
0001
1000
,  // measure 33
0001
0000
0001
0100
0010
1000
0001
2000
,  // measure 34
0000
0000
3100
0000
0010
0000
0001
0000
0020
0000
0000
1030
0000
0000
0010
0000
,  // measure 35
2000
0000
0000
3100
0000
0000
0000
0000
0100
0000
0001
0000
1000
0000
0100
0000
,  // measure 36
0010
0000
0001
0000
1000
0000
0001
0000
0200
0000
0000
1300
0000
0000
0000
0000
,  // measure 37
0100
1000
0010
0010
0001
1000
0100
0010
,  // measure 38
0100
0000
1000
0000
0001
0000
1000
0000
0200
0000
0000
0301
0000
0000
0100
0000
,  // measure 39
0002
0000
0000
0013
0000
0000
0000
0000
1000
0000
0000
0000
0001
0000
0000
0000
,  // measure 40
0020
0000
0030
0000
0002
0000
1003
0010
,  // measure 41
0100
0000
0000
0001
0000
1000
0002
0000
0000
0000
0000
0000
0000
0000
0000
0000
0000
0000
0003
0000
0000
0000
0000
0000
;

//---------------dance-single - ----------------
#NOTES:
     dance-single:
     :
     Easy:
     2:
     0.149,0.177,0.009,0.139,0.022:
0000
0000
0000
0000
,
0000
0000
0000
0000
,
0000
0000
0000
0000
,
0000
0000
0000
0000
,
0000
0000
0000
0000
,
1000
0000
0000
1000
0000
0000
0000
0000
,
0001
0100
1000
0100
,
0001
0000
0000
0001
0000
0000
0000
0000
,
0001
0100
0010
1000
,
0001
0000
0000
0000
2000
0000
0000
3000
,
0000
1000
0100
0010
,
0001
0000
0000
0000
2000
0000
0000
3000
,
0000
0000
0001
0100
,
0010
0000
0000
0000
2000
0000
0000
3000
,
0000
0000
0000
0000
1000
0000
0000
0020
,
0000
0030
1000
0100
,
0010
0100
1000
0001
,
2000
0000
0010
0001
,
3200
0301
0200
1300
,
0002
0000
0000
0000
0000
0000
0000
0003
,
0000
0000
0000
0000
2000
0000
0000
0002
,
0000
0000
0000
3003
0000
0000
1000
0000
,
0010
0100
0001
1000
,
0001
0010
0100
1000
,
0001
0100
1000
0010
,
0001
0000
1000
0000
0002
0003
0000
1001
,
0000
1000
0100
0010
,
0100
1000
0001
0001
,
1000
0010
0100
0001
,
1000
0000
0100
0000
0010
0000
0001
0002
,
0000
0003
0010
0001
,
1000
0010
0200
0000
,
0301
0000
1000
0001
,
0010
0000
0000
0000
0000
0000
0000
0000
0001
0000
0000
0001
0000
0000
0000
0000
,
1000
0000
0000
1000
0000
0000
0000
0000
0000
0000
0000
0000
0000
0000
0000
0000
,
1000
0000
0000
0000
0000
0000
0000
0000
0100
0000
0000
0100
0000
0000
0000
0000
,
0010
0010
0010
0000
0000
0000
0000
0000
,
0001
0000
0000
0000
0000
0000
0000
0000
1000
0000
0000
1000
0000
0000
0000
0000
,
0001
0000
0000
0001
0000
0000
0000
0000
1000
0000
0000
0000
0001
0000
0000
0000
,
0200
0000
0320
0000
,
2030
0000
0000
3000
;

//---------------dance-single - ----------------
#NOTES:
     dance-single:
     :
     Beginner:
     1:
     0.043,0.104,0.000,0.000,0.000:
0000
0000
0000
0000
,
0000
0000
0000
0000
,
0000
0000
0000
0000
,
0000
0000
0000
0000
,
0000
0000
0000
0000
,
1000
0000
0000
0000
,
0001
0000
0000
0000
,
0100
0000
0000
0000
,
0100
0000
0000
0000
,
0001
0000
0000
0000
,
0000
0000
0000
0000
,
1000
0000
0000
0000
,
0000
0000
0000
0000
,
0001
0000
0000
0000
,
0000
0000
0000
0000
,
1000
0000
0000
0000
,
0000
0000
0000
0000
,
0100
0000
0000
0000
,
0010
0000
0010
0000
,
0001
0000
0000
0000
,
0000
0000
0000
0000
,
1000
0000
0000
0000
,
0000
0000
0000
0000
,
0010
0000
0100
0000
,
0001
0000
1000
0000
,
0001
0000
0000
0000
,
0000
0000
0000
0000
,
1000
0000
0000
0000
,
0000
0000
0000
0000
,
0010
0000
0000
0000
,
0000
0000
0000
0000
,
0100
0000
0000
0000
,
0000
0000
0000
0000
,
0001
0000
1000
0000
,
0001
0000
0000
0000
,
0010
0000
0100
0000
,
0010
0000
0000
0000
,
0001
0000
1000
0000
,
0001
0000
1000
1000
,
1000
0000
0001
0000
,
0010
0000
0000
0000
;

//---------------dance-double - ----------------
#NOTES:
     dance-double:
     :
     Hard:
     7:
     0.396,0.425,0.087,0.165,0.217:
00000000
00000000
00000000
00000000
,
00000000
00000000
00000000
00000000
,
00000000
00000000
00000000
00000000
,
00000000
00000000
00000000
00000000
,
00000000
00000000
00000000
00000000
,
00001000
00001000
00000000
00012000
00000000
00000000
00013000
00000000
,
00001000
00010000
00000100
00001000
00000001
00000000
00000100
00000000
00001000
00000000
00000100
00000000
00000010
00000000
00000000
00000000
,
00010000
00010000
00000000
00021000
00000000
00000000
00031000
00000000
,
00011000
00000000
00000000
00000000
10010000
00000000
00000000
00010000
10000000
00000000
00000000
01000000
00000000
00010000
00000000
00001000
,
00010000
00001000
00000100
00000001
00001000
00000100
00000010
00000001
,
00000000
00000000
00000001
00000000
00001000
00000000
00000100
00010000
00001000
00000000
01000000
00000000
00100000
00000000
10000000
00000000
,
00010000
00100000
10000000
00100000
00001000
00010000
00000010
00000100
,
00000001
00001000
00001001
00000000
00000001
00000100
00001000
00010000
,
00001000
00000000
00010000
00001000
00100000
01000000
10000000
00010000
,
10000000
00000000
01000000
00000000
00010000
00000000
00001000
00010000
00000020
00000000
00000000
00000000
00000000
00000000
00002030
00000000
,
00000000
00003002
00000000
00000000
00000203
00000000
00002300
00000000
00023000
00000000
02030000
00000000
03020000
00000000
00031000
00000000
,
00000010
00000000
00000002
00000100
00000203
00001000
00002300
00013000
,
00011000
00000000
00000000
00010000
00000000
00000000
00001000
00000000
00000000
00010000
00000000
00000000
01000000
00000000
00000000
00100000
00000000
00000000
01000000
00000000
00000000
00000000
00000000
10000000
,
00010000
10000000
00010000
00100000
01000000
10000000
01000000
00010000
,
00001000
00010000
00000100
00001000
00010000
00001000
00000010
00000100
,
00000001
00001000
00001001
00000000
00000001
00000100
00001000
00010000
,
00001000
00000000
00000100
00000000
00001000
00000000
00100000
00000000
00010000
00000000
10000000
00000000
00100000
00000000
01000000
00001000
,
00010000
00000000
00000010
00000000
00001000
00000000
00000001
00000000
00000100
00000000
00001000
00010000
00001000
00100000
00010000
01000000
,
00100000
10000000
00010000
00000000
10000000
00000000
01000000
00100000
00001000
00010000
00001000
00000000
00010000
00000000
00000100
00001000
,
00000010
00000100
00000001
00000010
00000100
00010000
00001000
00100000
00010000
00000000
10000000
00000000
01000000
00000000
00100000
00000000
,
00010000
10000000
10100000
10000000
00010000
00100000
00000000
00101000
,
00100000
00000000
00000000
00000000
00000000
00000000
00001000
00000000
00000000
00000000
00000000
00000000
00010000
00000000
00000000
00000000
00000000
00000000
00000010
00000000
00000000
00000000
00000000
00000000
00001000
00000000
00000000
00000000
00000001
00000000
00000000
00000100
00000000
00000000
00000001
00000000
00000000
00000000
00000000
00000000
00000010
00000000
00000000
00000000
00000000
00000000
00000100
00000000
,
00000000
00000000
00010000
00000000
00000000
00000000
00000000
00000000
00000000
00001000
00000000
00000000
01000000
00000000
00000000
00000000
00000000
00000000
00010000
00000000
00000000
00000000
00000000
00000000
01000000
00000000
00000000
00000000
00000000
00000000
10000000
00000000
00000000
00000000
00000000
00000000
01000000
00000000
00000000
00000000
00000000
00000000
00100000
00000000
00000000
00000000
00000000
00000000
,
10000000
00000000
01000000
00000000
00100000
00000000
00010000
00000000
10000000
00000000
01000000
00000000
00010000
00000000
00001000
00010000
,
00000010
00000000
00001000
00000000
00000001
00000000
00000100
00001000
00010000
00000000
01000000
00000000
00010000
00001000
00000010
00000000
,
00000001
00000000
00001000
00000000
00000001
00001000
00000000
00000001
00000100
00000000
00001000
00000000
00010000
00000000
00100000
00000000
,
10000000
01000000
00100000
01000000
10000000
00010000
00000000
10010000
,
10000000
00000000
01000000
00000000
00100000
00000000
00001000
00000000
00010000
00000000
00000100
00001000
00000001
00000000
00001000
00000000
,
00000001
00000000
00000100
00000000
00001000
00000000
00010000
01000000
20000000
00000000
30000000
00010000
00000000
00000000
10000000
01000000
,
00020000
00000000
00000000
00031000
00000000
00000000
00010000
00000000
00000100
00000000
00000010
00000000
00000001
00000000
00001000
00000000
,
00000001
00000000
00000100
00000000
00000010
00000000
00001000
00000100
00000002
00000000
00000000
00001003
00000000
00000000
00000001
00000100
,
00001000
00000001
00000001
00000100
00000010
00010000
00001000
00100000
,
00010000
00000000
10000000
00000000
00100000
00000000
00010000
00001000
00000200
00000000
00000000
00001300
00000000
00000000
00001000
00010000
,
02000000
00000000
00000000
03010000
00000000
00000000
00000000
00010000
00001000
00000000
00000100
00000000
00000001
00000000
00000000
00000000
,
00000100
00000010
00010000
00001000
01000000
00100000
10000000
01000000
,
00100000
00000000
00000000
00001000
00000000
00000000
00010000
00000000
00001000
00000000
00000100
00000000
00002000
00000000
00000000
00000000
00000000
00000000
00000000
00000000
00000000
00000000
00000000
00000000
00000000
00000000
00000000
00000000
00000000
00000000
00000000
00000000
00000000
00000000
00000000
00000000
00013000
00000000
00000000
00000000
00000000
00000000
00000000
00000000
00000000
00000000
00000000
00000000
;

//---------------dance-double - ----------------
#NOTES:
     dance-double:
     :
     Medium:
     5:
     0.281,0.283,0.026,0.243,0.070:
00000000
00000000
00000000
00000000
,
00000000
00000000
00000000
00000000
,
00000000
00000000
00000000
00000000
,
00000000
00000000
00000000
00000000
,
00000000
00000000
00000000
00000000
,
00010000
00010000
00000000
00012000
00000000
00000000
00013000
00000000
,
00010000
00000100
00001000
00000001
00000100
00000001
00001000
00000000
,
00000001
00000001
00000000
00002002
00000000
00000000
00003003
00000000
,
00000001
00000000
00000000
00000000
00000100
00000000
00000000
00000000
00000010
00000000
00000000
00010000
00000000
00001000
00000000
00000000
,
00200000
00000000
00000000
00310000
10000000
01000000
10000000
00020000
,
00000000
00000000
00030000
10000000
01000000
00010000
00001000
00000020
,
00000000
00000000
00000030
00000010
00000001
00001000
00000001
00000020
,
00000000
00000000
00000030
00000000
00000001
00000100
00001000
00010000
,
00200000
00000000
10300000
00010000
01000000
01000000
00001000
00020000
,
00000000
00000000
00030000
00001000
00020000
00000000
00000000
00030020
,
00000000
00002030
00000000
00000000
00003002
00000000
00000000
00000000
00000100
00000000
00000000
00000000
00001000
00000000
00000000
00000000
,
00000023
00000032
00000203
00002300
,
00023000
00000000
00000000
00001000
00031000
00000000
00100000
00000000
,
00010000
00000000
10000000
00020000
00000000
00000000
00000000
10030000
,
00000000
02000000
00000000
00000000
03010000
00001000
00000010
00000200
,
00000000
00000000
00000000
00000000
00001300
00000100
00010000
00001000
,
00000000
00010000
01000000
00000000
01000000
10000000
00010000
01000000
,
00001000
00000000
00010000
00000100
00000000
00001000
00000000
00000001
,
00000100
00001000
00000000
00010000
01000000
20000000
00000000
00000000
,
30010000
01000000
00001000
00010000
00000100
00001000
00000001
00000200
,
00000000
00000000
00000300
00000100
00001000
00010000
00000000
00022000
,
00000000
00000000
00000000
00000000
00000000
00000000
00033000
00000000
00000000
00000000
00000000
00000000
00000000
00000000
00010000
00000000
00000000
00001000
00000000
00000000
01000000
00000000
00000000
00010000
,
00000000
10000000
00000000
00000000
00000000
01000000
00000000
00000000
00010000
00000000
00000000
00000000
00001000
00000000
00000000
00010000
00000000
00000000
00010000
00000000
00000000
00000000
00000000
00000000
,
00001000
00000000
00000100
00000001
00000001
00000000
00000100
00001000
,
00010000
01000000
00010000
00001000
00000100
00001000
00010000
00002000
,
00000000
00003000
00000000
00000000
01000000
00010000
10000000
01000000
,
00200000
00000000
00301000
00010000
00001000
00000000
00000100
00000000
,
00000001
00001000
00000100
00000010
00000001
00001000
00010000
10000000
,
00010000
00000000
01000000
00000000
00100000
00000000
10000000
00000000
00010000
00000000
00000000
00010000
00000000
00000000
01000000
00000000
,
00010000
00000000
00000000
00010000
00000000
00000000
00000000
00000000
01000000
00000000
00001000
00000000
00010000
00000000
00000100
00000000
,
00001000
00000000
00000001
00000000
00000100
00000000
00001000
00000000
00000100
00000000
00000000
00000100
00000000
00000000
00000100
00000000
,
00000001
00000010
00000010
00000000
00000010
00001000
00010000
01000000
,
10000000
00000000
00100000
00000000
01000000
00000000
00001000
00000000
00010000
00000000
00000000
00010000
00000000
00000000
00010000
00000000
,
00001000
00000000
00000000
00001000
00000000
00000000
00010000
00000000
00000100
00000000
00000010
00000000
00000000
00000000
00000001
00000000
,
00000100
00000010
00010000
00001000
01000000
00100000
01000000
00001000
,
00010000
00000000
00000000
00001000
00000000
00010000
00002000
00000000
00000000
00000000
00000000
00000000
00000000
00000000
00000000
00000000
00000000
00000000
00003000
00000000
00000000
00000000
00000000
00000000
;

//---------------dance-double - ----------------
#NOTES:
     dance-double:
     :
     Easy:
     3:
     0.159,0.177,0.009,0.148,0.000:
00000000
00000000
00000000
00000000
,
00000000
00000000
00000000
00000000
,
00000000
00000000
00000000
00000000
,
00000000
00000000
00000000
00000000
,
00000000
00000000
00000000
00000000
,
10000000
00000000
00000000
10000000
00000000
00000000
00000000
00000000
,
10000000
01000000
00010000
00001000
,
00000001
00000000
00000000
00000001
00000000
00000000
00000000
00000000
,
00000001
00000100
00001000
00000001
,
00002000
00000000
00003000
00000000
00002000
00000000
00000000
00003000
,
00000000
00000000
00000001
00000100
,
00000020
00000000
00000030
00000000
00020000
00000000
00000000
00030000
,
00000000
00000000
01000000
10000000
,
00010000
00000000
00000000
00000000
02000000
00000000
00000000
03000000
,
00000000
01000000
00001000
00010000
,
00001000
00000000
00010000
00001000
,
00100000
01000000
10000000
00010000
,
00002000
00000000
00000100
00003100
,
00000010
00000001
00001000
00000001
,
00000200
00000000
00000000
00000000
00001300
00000000
00010000
00020000
,
00000000
00030000
00001000
01000000
,
00100000
00000000
00000000
00100000
00000000
00000000
00000000
00000000
,
10000000
01000000
00010000
00001000
,
00000100
00000001
00000100
00001000
,
00020000
00000100
00001000
00000010
,
00032000
00000000
00000000
00000000
00013000
00000000
00000000
00001000
,
00000000
00000000
00000000
01000000
,
00010000
10000000
00010000
00000000
,
10000000
00100000
01000000
00001000
,
00000010
00000000
00000100
00000000
00001000
00000000
00000001
00000002
,
00000000
00000003
00000000
00000000
00000100
00000000
00001000
00000000
,
00010000
01000000
00010000
00001000
,
00000010
00000000
00001000
00000000
00020000
00000000
00000000
00230000
,
00000000
10300000
00010000
00100000
,
00001000
00010000
00000000
00010000
,
00000100
00000010
00000001
00001000
,
00000010
00010010
00010000
00001000
,
00200000
00000000
00310000
10000000
,
00100000
01000000
00001000
00020000
,
00000100
00032000
01000000
00020000
,
00000000
00000000
00000000
00033000
;
