#TITLE:High School Never Ends;
#SUBTITLE:;
#ARTIST:Bowling For Soup;
#TITLETRANSLIT:;
#SUBTITLETRANSLIT:;
#ARTISTTRANSLIT:;
#GENRE:;
#CREDIT:;
#BANNER:[Key Change] - High School Never Ends.png;
#BACKGROUND:[Key Change] - High School Never Ends-bg.png;
#LYRICSPATH:;
#CDTITLE:cdtitle.png;
#MUSIC:[Key Change] - High School Never Ends.ogg;
#OFFSET:-0.010000;
#SAMPLESTART:55.279999;
#SAMPLELENGTH:12.000000;
#LASTBEATHINT:245.306671;
#SELECTABLE:YES;
#BPMS:0.000000=160.000000
;
#STOPS:
;
#BGCHANGES:;
#KEYSOUNDS:;
#ATTACKS:;

//---------------dance-single - ----------------
#NOTES:
     dance-single:
     :
     Easy:
     3:
     0.296210,0.331104,0.043424,0.097703,0.000000,191.000000,187.000000,4.000000,9.000000,0.000000,0.000000,0.296210,0.331104,0.043424,0.097703,0.000000,191.000000,187.000000,4.000000,9.000000,0.000000,0.000000:
0000
0000
0000
0000
,
0000
0000
0000
0000
,
0000
0000
0000
0000
,
0000
0000
0000
1001
,
1000
0010
0100
0000
,
0001
0001
0100
0000
,
1000
1000
0100
0000
,
0001
0010
0100
0000
,
0100
0010
0001
0000
,
1000
1000
0010
0000
,
0001
0001
0010
0000
,
1000
0010
0100
0000
,
0001
0100
0001
0000
,
1000
0100
1000
0000
,
0001
0010
0001
0001
,
1000
0010
1000
0000
,
0010
0100
0010
0010
,
1000
0001
0010
0000
,
0100
0010
0100
0100
,
0010
0001
1000
0000
,
0000
0001
0100
0100
,
0001
1000
0100
0100
,
0000
1000
0010
0010
,
1000
0001
0010
0010
,
0001
0100
1000
0100
,
0001
0001
1000
0000
,
1000
0010
0001
0010
,
1000
1000
0001
0000
,
1000
0100
0010
0010
,
0000
0001
1000
1000
,
0000
0001
0100
0000
,
0010
0100
0001
0001
,
1000
0100
0001
0000
,
0001
0100
1000
0010
,
0100
0100
0001
0001
,
1000
1000
0010
0010
,
2002
0000
0000
3003
,
1000
0100
0010
0100
,
1000
1000
0001
0100
,
0001
0001
1000
0010
,
1000
0001
0010
0000
,
0001
0100
0010
0100
,
0001
0010
0100
1000
,
0010
0010
1000
0001
,
0010
0100
1000
0001
,
0002
0010
0100
0010
,
1000
2003
0000
0001
,
0001
0010
0100
0010
,
3002
0000
0000
1003
,
0010
0100
0001
1000
,
0100
0010
0001
0010
,
2002
0000
0000
3003
,
0010
0000
0000
0000
,
1000
0010
0100
0000
,
0001
0001
0100
0000
,
1000
1000
0100
0000
,
0001
0010
0100
0000
,
0100
0010
0001
0000
,
1000
1000
0010
0000
,
0001
0001
0010
0000
,
1000
0001
2002
0000
,
3003
0000
0000
0000
;

//---------------dance-single - ----------------
#NOTES:
     dance-single:
     :
     Medium:
     6:
     0.438888,0.495639,0.217118,0.347388,0.000000,283.000000,263.000000,20.000000,32.000000,0.000000,0.000000,0.438888,0.495639,0.217118,0.347388,0.000000,283.000000,263.000000,20.000000,32.000000,0.000000,0.000000:
0000
0000
0000
0000
,
0000
0000
0000
0000
,
0000
0000
0000
0000
,
0000
0000
0000
1002
,
0103
0000
0010
0000
2000
0000
0000
3001
,
0000
0001
0000
0010
0200
0000
0000
1300
,
0000
1000
0000
0010
0200
0000
0000
0301
,
0000
0001
0000
1000
0100
0000
0110
0000
,
0100
0000
0010
0000
0002
0000
0000
1003
,
0000
1000
0000
0010
0200
0000
0000
0301
,
0000
0001
0000
0010
0200
0000
0000
1300
,
0000
1000
0000
0001
0100
0000
1010
0000
,
1000
0000
0100
0000
0010
0000
0000
0001
,
0100
0001
1000
0010
0000
0000
0000
0000
,
1000
0100
1000
0001
0010
0000
0001
0000
,
1000
0010
0100
0001
0000
0000
0000
1000
,
0100
0010
0100
0010
0100
0000
1000
0000
,
0001
0100
0000
0010
0000
0000
0000
0100
,
0001
0100
0001
0000
1000
0100
1000
0000
,
0010
0000
0110
0000
1002
0000
0000
0103
,
0000
0000
0010
1000
0010
0000
0100
0000
,
0001
0010
0000
0001
0000
1000
0000
1001
,
0000
0001
0010
0001
0010
0000
0100
0000
,
1000
0001
0000
0010
0000
0100
1000
0000
,
0001
0100
0010
0000
1000
0100
0010
0000
,
0001
1000
0000
0001
0000
0000
0000
1000
,
0010
0100
0010
0000
1000
0000
1000
0000
,
0001
0010
0000
0200
0000
0000
1300
0000
,
0001
0000
0011
0000
1010
0000
0000
1000
,
0000
1000
0000
0010
0100
0000
1001
0000
,
1000
0000
1010
0000
0011
0000
0000
0001
,
0000
0001
0000
0010
0100
0000
1000
0001
,
0000
0001
0000
0000
1000
0000
0001
1000
,
0000
1000
0000
0010
0100
0010
0100
0000
,
0001
0010
0100
0000
1000
0010
0100
0000
,
0001
1000
0010
0100
0001
1000
0010
0000
,
1000
0001
1000
0001
1000
0001
1000
0000
,
0100
0000
1000
0000
0010
0000
0100
0001
,
0000
0001
0010
0000
0001
0000
0001
1000
,
0000
1000
0010
0000
1000
0000
0100
1000
,
0000
0001
0010
0000
0110
0000
0000
0100
,
0000
1000
0000
1000
0010
0000
0100
0001
,
0000
0001
0000
0010
0100
0000
0010
0001
,
0000
0100
0000
0010
1000
0000
0010
1000
,
0000
0100
0000
0010
0001
0000
1000
0001
,
2000
0000
3200
0000
0320
0000
0031
0100
,
0002
0000
0023
0000
0130
1000
0001
2000
,
0000
3002
0203
0310
,
0020
0000
0230
0000
0302
0000
1003
0010
,
1000
1000
0000
0001
0000
0001
0000
0010
,
0000
0010
0000
0100
0100
0000
1001
0000
,
1000
0100
1000
0100
0010
0001
0010
0002
,
2000
0000
0000
3003
,
1000
0000
0110
0000
2002
0000
0003
3001
,
0000
0100
0000
0010
2000
0000
3000
1000
,
0000
0100
0000
0010
0002
0000
0003
0001
,
0000
0001
0000
0010
0100
0000
0110
0000
,
0001
0000
0110
0000
2002
0000
3000
1003
,
0000
0100
0000
0010
0002
0000
0003
0001
,
0000
0100
0000
0010
2000
0000
3000
1010
,
0000
0101
0000
0002
2000
0000
0000
3003
;

//---------------dance-single - ----------------
#NOTES:
     dance-single:
     :
     Hard:
     8:
     0.643598,0.689620,0.640497,0.303965,0.027140,415.000000,356.000000,59.000000,28.000000,0.000000,0.000000,0.643598,0.689620,0.640497,0.303965,0.027140,415.000000,356.000000,59.000000,28.000000,0.000000,0.000000:
0000
0000
0000
0000
,
0000
0000
0000
0000
,
0000
0000
0000
0000
,
0000
0000
0000
0000
0000
0100
1001
0000
,
2000
0000
3010
0100
0002
0000
0013
0110
,
0000
0110
0010
0001
2000
0000
3010
0110
,
0000
0110
0010
1000
0002
0000
1003
1100
,
0000
0101
0100
0010
0100
0000
1001
0000
,
0002
0000
0013
0100
2000
0000
3010
0110
,
0000
0110
0010
1000
0002
0000
0013
0110
,
0000
0110
0010
0001
0200
0000
0310
1010
,
0000
0011
0001
1000
0001
0000
1001
0000
,
2000
0000
3010
0100
0001
0100
0010
0000
,
1000
0100
0010
0100
0000
0100
0010
0001
,
0000
0001
0010
0100
1000
0100
0010
0000
,
0001
0010
0100
0010
0000
0001
0100
0010
,
1000
0010
0001
0010
1000
0000
1000
0000
,
0001
0010
0000
0100
0000
0010
0001
0010
,
0100
1000
0010
1000
0100
0010
0001
0100
,
1010
0000
0000
0000
1001
0000
0000
0000
0101
0000
0001
1000
0010
0000
0110
0000
,
0000
0000
1020
0100
0130
0000
0201
0000
,
0310
1000
2000
0001
0000
3001
0010
0110
,
0000
0100
0020
0001
0031
0000
0201
0000
,
0310
1000
1002
0010
0000
1003
0100
0000
,
0010
0001
0100
0010
1000
0000
1000
0010
,
0100
0001
0000
1000
0000
0100
0010
0100
,
1000
1000
0001
0001
0010
0000
0100
1000
,
0010
0010
0000
0100
0000
0100
1001
0000
,
1100
0000
0101
0000
0001
0010
0100
1000
,
0000
1000
0010
0100
0001
0000
1001
0000
,
0101
0000
1100
0000
0100
0010
0001
1000
,
0000
1000
0010
0100
0001
0000
1000
0001
,
0000
0011
0000
0010
0100
0000
0100
1000
,
0000
1010
0000
0010
0100
0001
1000
0000
,
0001
0100
1000
0100
0001
0010
1000
0010
,
0001
0100
0010
1000
0100
0010
0001
0000
,
0100
0000
0100
0000
0100
0000
0100
0000
0010
1000
0001
0010
0100
1000
0001
0100
,
0001
0000
0011
0100
1000
0000
1010
1000
,
0000
1000
0010
0100
0001
0000
1001
0001
,
0000
0001
0010
0100
1000
0000
1001
1000
,
0000
1000
0001
0010
0100
0000
0110
0100
,
0000
1000
0100
0020
0001
0030
1002
0103
,
0000
0001
0100
0020
1000
0030
0110
0010
,
0000
0010
0100
0001
1000
0000
0100
0010
,
0000
0010
0100
1000
0001
0000
1000
0010
,
0100
0100
0001
0001
0010
0010
0100
1000
,
0010
0010
1000
1000
0100
0100
0010
0001
,
1000
1000
0010
0010
0100
0100
0001
0010
,
0001
0001
0100
0100
0010
0010
1000
0100
,
1000
0010
0001
0010
1000
0100
0001
0100
,
1000
0001
0010
1000
0010
0100
0010
0000
,
0011
0001
1001
1000
1010
0010
0110
0100
,
2002
0000
0000
3003
,
0200
0000
1300
0001
0020
0000
1030
1010
,
0000
1010
1000
0010
0200
0000
1300
1100
,
0000
1100
1000
0010
0200
0000
0301
0011
,
0000
1010
1000
0001
1000
0000
0110
0000
,
0200
0000
0301
1000
0020
0000
0031
0011
,
0000
0011
0001
0010
0200
0000
0301
0101
,
0000
0101
0001
0010
0200
0000
1300
1100
,
0000
0101
0000
0110
1001
0000
0000
0000
;

//---------------dance-single - ----------------
#NOTES:
     dance-single:
     :
     Beginner:
     1:
     0.178347,0.197034,0.043424,0.043424,0.000000,115.000000,111.000000,4.000000,4.000000,0.000000,0.000000,0.178347,0.197034,0.043424,0.043424,0.000000,115.000000,111.000000,4.000000,4.000000,0.000000,0.000000:
// measure 0
0000
0000
0000
0000
,  // measure 1
0000
0000
0000
0000
,  // measure 2
0000
0000
0000
0000
,  // measure 3
0000
0000
0000
0000
,  // measure 4
1000
0000
0001
0000
,  // measure 5
0010
0000
0100
0000
,  // measure 6
0010
0000
0001
0000
,  // measure 7
1000
0000
1000
0000
,  // measure 8
0010
0000
0100
0000
,  // measure 9
0001
0000
1000
0000
,  // measure 10
0001
0000
0100
0000
,  // measure 11
0010
0000
0010
0000
,  // measure 12
1000
0000
0100
0000
,  // measure 13
0010
0000
0001
0000
,  // measure 14
0001
0000
0010
0000
,  // measure 15
0100
0000
1000
0000
,  // measure 16
1000
0000
0001
0000
,  // measure 17
0100
0000
0010
0000
,  // measure 18
1000
0000
0010
0000
,  // measure 19
0100
0000
0001
0000
,  // measure 20
1000
0000
0001
0000
,  // measure 21
0001
0000
1000
0000
,  // measure 22
0100
0000
0010
0000
,  // measure 23
0010
0000
0100
0000
,  // measure 24
1000
0000
0010
0000
,  // measure 25
0001
0000
0010
0000
,  // measure 26
1000
0000
0100
0000
,  // measure 27
0010
0000
0001
0000
,  // measure 28
0100
0000
0100
0000
,  // measure 29
0001
0000
0010
0000
,  // measure 30
0100
0000
0100
0000
,  // measure 31
1000
0000
0010
0000
,  // measure 32
1000
0000
1000
0000
,  // measure 33
0001
0000
0001
0000
,  // measure 34
0010
0000
0010
0000
,  // measure 35
0100
0000
0100
0000
,  // measure 36
2002
0000
0000
3003
,  // measure 37
1000
0000
0010
0000
,  // measure 38
0100
0000
0010
0000
,  // measure 39
1000
0000
0100
0000
,  // measure 40
0010
0000
0010
0000
,  // measure 41
0001
0000
0100
0000
,  // measure 42
0010
0000
0100
0000
,  // measure 43
0001
0000
0010
0000
,  // measure 44
0100
0000
0100
0000
,  // measure 45
1000
0000
0100
0000
,  // measure 46
1000
0000
1000
0000
,  // measure 47
0001
0000
0010
0000
,  // measure 48
0001
0000
0001
0000
,  // measure 49
0100
0000
0010
0000
,  // measure 50
0100
0000
0100
0000
,  // measure 51
2002
0000
0000
3003
,  // measure 52
1001
0000
0000
0000
,  // measure 53
1000
0000
0010
0000
,  // measure 54
0100
0000
0010
0000
,  // measure 55
0001
0000
0010
0000
,  // measure 56
1000
0000
1000
0000
,  // measure 57
0001
0000
0100
0000
,  // measure 58
0010
0000
0100
0000
,  // measure 59
1000
0000
0100
0000
,  // measure 60
0001
0000
1001
0000
;
