#TITLE:Hall of the Mountain Dude;
#SUBTITLE:;
#ARTIST:Ian Livingstone;
#TITLETRANSLIT:;
#SUBTITLETRANSLIT:;
#ARTISTTRANSLIT:;
#GENRE:;
#CREDIT:Lisek;
#BANNER:[Key Change] - Hall of the Mountain Dude.png;
#BACKGROUND:[Key Change] - Hall of the Mountain Dude-bg.png;
#LYRICSPATH:;
#CDTITLE:cdtitle.png;
#MUSIC:[Key Change] - Hall of the Mountain Dude.ogg;
#OFFSET:-1.735810;
#SAMPLESTART:50.50;
#SAMPLELENGTH:14.900000;
#SELECTABLE:YES;
#BPMS:0.000000=127.98;
#STOPS:;
#BGCHANGES:;
#KEYSOUNDS:;
#ATTACKS:TIME=31.740000:LEN=2.030000:MODS=Invert, Tornado, Hallway:TIME=35.740002:LEN=2.030000:MODS=-100% Invert, Tornado, Hallway:TIME=100.660004:LEN=0.470000:MODS=*5 Invert, Tornado, Hallway;

//---------------dance-single - ----------------
#NOTES:
     dance-single:
     Lisek:
     Hard:
     7:
     0.356168,0.470057,0.098545,0.453305,0.029563,253.000000,243.000000,10.000000,46.000000,20.000000,0.000000,0.356168,0.470057,0.098545,0.453305,0.029563,253.000000,243.000000,10.000000,46.000000,20.000000,0.000000:
// measure 0
0000
0000
0000
0000
,  // measure 1
0000
0000
0000
0000
,  // measure 2
0000
0000
0000
0000
,  // measure 3
0000
0000
0000
0000
,  // measure 4
1000
0001
0100
0010
,  // measure 5
2000
0000
0000
0000
0000
0000
0000
0000
3000
0000
0100
0000
0000
0010
0000
0000
,  // measure 6
0001
0100
0010
1000
,  // measure 7
0002
0000
0000
0000
1003
0010
0000
0000
,  // measure 8
2000
0000
0000
3200
0000
0000
0000
0302
,  // measure 9
0000
0000
0000
0000
0000
0000
0000
0000
0000
0000
0103
0000
0000
1000
0000
0000
,  // measure 10
0002
0000
0000
0203
0000
0000
0000
2300
,  // measure 11
0000
0000
0000
0000
0000
0000
0000
0000
0000
0000
3100
0000
0000
0001
0000
0000
,  // measure 12
2000
0000
0000
3020
0000
0000
0000
0032
,  // measure 13
0000
0000
0000
0000
0000
0000
0000
0000
0000
0000
0013
0000
0000
1000
0000
0000
,  // measure 14
0002
0000
0000
0023
0000
0000
0000
2030
,  // measure 15
0000
0000
0000
0000
3010
0001
1000
0001
,  // measure 16
2002
0000
0000
0000
,  // measure 17
0000
0000
0000
0000
,  // measure 18
0000
0000
0000
0000
0000
0000
0000
0000
0000
0000
00M0
0000
0M00
00M0
0M00
00M0
,  // measure 19
0M00
00M0
0M00
00M0
0M00
00M0
3M03
0000
,  // measure 20
0001
0100
0010
1000
,  // measure 21
0001
0010
0001
0000
1000
0100
1000
0000
,  // measure 22
0010
0000
0100
0000
0001
1000
0001
0000
,  // measure 23
1000
0100
0001
0000
1000
0100
0001
0000
,  // measure 24
1000
0100
1000
0001
1000
0100
0001
0200
,  // measure 25
0010
0001
2000
3300
,  // measure 26
1100
0100
0010
0001
0100
1000
0100
0000
,  // measure 27
0001
0100
1000
0000
1000
0100
0001
0000
,  // measure 28
0011
0010
0100
1000
0001
0010
1000
0010
,  // measure 29
0001
0100
1000
0100
0002
0000
0000
0003
,  // measure 30
0101
0100
0001
1000
0100
0001
0100
0000
,  // measure 31
1000
0100
0001
0000
0001
0100
1000
0000
,  // measure 32
1010
0010
1000
0001
0010
1000
0010
0001
,  // measure 33
0100
1000
0100
0001
1000
0100
0001
0100
,  // measure 34
1000
0100
0010
0001
0100
0100
0200
0000
,  // measure 35
0310
0010
0M20
0000
1030
1000
20M0
0000
,  // measure 36
3001
0010
0100
1000
0010
0010
0020
0000
,  // measure 37
0130
0100
02M0
0000
0302
0000
0M00
0000
,  // measure 38
1003
0010
0100
0001
1000
1000
2000
0000
,  // measure 39
3200
0010
0320
0000
0032
1000
2003
0000
,  // measure 40
3001
0100
0010
1000
0002
0010
0023
0000
,  // measure 41
0230
1000
2300
0001
3002
0100
0203
0010
,  // measure 42
0310
0100
0001
1000
0001
0010
2000
0000
,  // measure 43
3010
0001
2000
0000
3100
0001
0200
0000
,  // measure 44
1300
0100
0010
0001
0100
0010
1000
0001
,  // measure 45
1000
0100
0001
0100
2000
0000
0001
0000
,  // measure 46
3001
0010
0100
1000
0001
0100
2000
0000
,  // measure 47
3100
0001
0200
0000
1300
0100
0002
0000
,  // measure 48
1003
0010
0100
0001
1000
0010
1000
0001
,  // measure 49
1000
0100
0001
0100
2000
0000
0001
0000
,  // measure 50
3001
0010
1000
0010
0001
0100
0010
1000
,  // measure 51
1010
0101
0011
1100
,  // measure 52
2002
0000
0000
0MM0
,  // measure 53
3MM3
0000
0000
0000
;

//---------------dance-single - ----------------
#NOTES:
     dance-single:
     Lisek:
     Medium:
     5:
     0.266070,0.313372,0.039418,0.216798,0.009854,189.000000,185.000000,4.000000,22.000000,16.000000,0.000000,0.266070,0.313372,0.039418,0.216798,0.009854,189.000000,185.000000,4.000000,22.000000,16.000000,0.000000:
// measure 0
0000
0000
0000
0000
,  // measure 1
0000
0000
0000
0000
,  // measure 2
0000
0000
0000
0000
,  // measure 3
0000
0000
0000
0000
,  // measure 4
1000
0100
0010
0001
,  // measure 5
2000
0000
0000
0000
,  // measure 6
3001
0100
0010
1000
,  // measure 7
0002
0000
0000
0000
1003
0001
0000
0000
,  // measure 8
1000
0010
0100
0001
,  // measure 9
1000
0000
0100
0000
0000
0020
0000
0000
,  // measure 10
0031
0100
0010
1000
,  // measure 11
0001
0000
0010
0000
0000
0200
0000
0000
,  // measure 12
1300
0100
0010
0001
,  // measure 13
1000
0000
0010
0000
0000
0200
0000
0000
,  // measure 14
0301
0010
0100
1000
,  // measure 15
0001
1000
0010
0100
,  // measure 16
2002
0000
0000
0000
,  // measure 17
0000
0000
0000
0000
,  // measure 18
0000
0000
0000
0000
0000
0000
0000
0000
0000
0000
00M0
0000
0M00
00M0
0M00
00M0
,  // measure 19
0M00
00M0
0M00
00M0
0M00
00M0
3M03
0000
,  // measure 20
0001
0100
0001
0100
,  // measure 21
0010
1000
0010
1000
,  // measure 22
0001
0010
0001
0010
,  // measure 23
0100
1000
0100
1000
,  // measure 24
0001
0100
0010
1000
,  // measure 25
0002
0000
0000
0000
,  // measure 26
1003
0000
0010
0000
1000
0100
1000
0000
,  // measure 27
0001
0010
0001
0000
1000
0100
1000
0000
,  // measure 28
0001
0100
0010
1000
,  // measure 29
0001
0010
0200
0000
,  // measure 30
1300
0000
0001
0000
1000
0100
1000
0000
,  // measure 31
0001
0010
0001
0000
1000
0100
1000
0000
,  // measure 32
0001
0010
0100
1000
,  // measure 33
0001
0100
0020
0000
,  // measure 34
1030
0000
0100
0000
1000
0010
1000
0000
,  // measure 35
0001
0100
0001
0000
1000
0010
1000
0000
,  // measure 36
0001
0000
0100
0000
0001
0100
0001
0000
,  // measure 37
1000
0010
1000
0000
0002
0000
0000
0000
,  // measure 38
1003
0000
0010
0000
1000
0010
1000
0000
,  // measure 39
0001
0100
0001
0000
1000
0010
1000
0000
,  // measure 40
0100
0000
1000
0000
0001
0100
0001
0000
,  // measure 41
1000
0010
1000
0000
0200
0000
0000
0000
,  // measure 42
1300
0000
0010
0000
1000
0100
0010
0000
,  // measure 43
0002
1003
2000
3001
,  // measure 44
1000
0000
0001
0000
0100
0010
1000
0000
,  // measure 45
0001
0100
0001
0000
2002
0000
3003
0000
,  // measure 46
0001
0000
0100
0000
0001
0010
0100
0000
,  // measure 47
2000
3001
0002
1003
,  // measure 48
0001
0000
1000
0000
0010
0100
0001
0000
,  // measure 49
0100
0010
0100
0000
2002
0000
3003
0000
,  // measure 50
0001
0000
0100
0000
0001
1000
0010
0000
,  // measure 51
1000
0001
1000
0001
,  // measure 52
2002
0000
0000
0MM0
,  // measure 53
3MM3
0000
0000
0000
;

//---------------dance-single - ----------------
#NOTES:
     dance-single:
     Lisek:
     Easy:
     2:
     0.092913,0.156686,0.019709,0.108399,0.000000,66.000000,64.000000,2.000000,11.000000,0.000000,0.000000,0.092913,0.156686,0.019709,0.108399,0.000000,66.000000,64.000000,2.000000,11.000000,0.000000,0.000000:
// measure 0
0000
0000
0000
0000
,  // measure 1
0000
0000
0000
0000
,  // measure 2
0000
0000
0000
0000
,  // measure 3
0000
0000
0000
0000
,  // measure 4
2000
0000
0000
0000
,  // measure 5
0000
0000
0000
0000
0000
0000
0000
3000
,  // measure 6
0002
0000
0000
0000
,  // measure 7
0000
0000
0000
0003
,  // measure 8
2000
0000
0000
0000
,  // measure 9
0000
0000
0000
3000
,  // measure 10
0002
0000
0000
0000
,  // measure 11
0000
0000
0000
0003
,  // measure 12
0200
0000
0000
0000
,  // measure 13
0000
0000
0000
0300
,  // measure 14
0020
0000
0000
0000
,  // measure 15
0000
0000
0000
0030
,  // measure 16
2002
0000
0000
0000
,  // measure 17
0000
0000
0000
0000
,  // measure 18
0000
0000
0000
0000
,  // measure 19
0000
0000
0000
3003
,  // measure 20
1000
0000
0000
0000
,  // measure 21
0001
0000
0000
0000
,  // measure 22
0100
0000
0000
0000
,  // measure 23
0010
0000
0000
0000
,  // measure 24
1000
0000
0000
0000
,  // measure 25
0002
0000
0000
0000
,  // measure 26
1003
0000
0001
0000
,  // measure 27
1000
0000
0001
0000
,  // measure 28
0100
0000
0010
0000
,  // measure 29
0100
0000
0010
0000
,  // measure 30
1000
0000
0100
0000
,  // measure 31
1000
0000
0100
0000
,  // measure 32
0010
0000
0001
0000
,  // measure 33
0010
0000
0001
0000
,  // measure 34
1000
0000
0010
0000
,  // measure 35
1000
0000
0010
0000
,  // measure 36
0100
0000
0001
0000
,  // measure 37
0100
0000
0001
0000
,  // measure 38
1000
0000
0010
0000
,  // measure 39
1000
0000
0010
0000
,  // measure 40
0100
0000
0001
0000
,  // measure 41
0100
0000
0001
0000
,  // measure 42
1000
0000
0100
0000
,  // measure 43
1000
0000
0100
0000
,  // measure 44
0010
0000
0001
0000
,  // measure 45
0010
0000
0001
0000
,  // measure 46
0100
0000
0010
0000
,  // measure 47
0100
0000
0010
0000
,  // measure 48
1000
0000
0001
0000
,  // measure 49
1000
0000
0001
0000
,  // measure 50
0100
0000
0010
0000
,  // measure 51
2002
0000
0000
0000
,  // measure 52
0000
0000
0000
0000
,  // measure 53
3003
0000
0000
0000
;

//---------------dance-single - ----------------
#NOTES:
     dance-single:
     Lisek:
     Beginner:
     1:
     0.053496,0.104457,0.019709,0.039418,0.000000,38.000000,36.000000,2.000000,4.000000,0.000000,0.000000,0.053496,0.104457,0.019709,0.039418,0.000000,38.000000,36.000000,2.000000,4.000000,0.000000,0.000000:
// measure 0
0000
0000
0000
0000
,  // measure 1
0000
0000
0000
0000
,  // measure 2
0000
0000
0000
0000
,  // measure 3
0000
0000
0000
0000
,  // measure 4
1000
0000
0000
0000
,  // measure 5
0000
0000
0000
0000
,  // measure 6
0001
0000
0000
0000
,  // measure 7
0000
0000
0000
0000
,  // measure 8
1000
0000
0000
0000
,  // measure 9
0000
0000
0000
0000
,  // measure 10
0010
0000
0000
0000
,  // measure 11
0000
0000
0000
0000
,  // measure 12
0100
0000
0000
0000
,  // measure 13
0000
0000
0000
0000
,  // measure 14
0001
0000
0000
0000
,  // measure 15
0000
0000
0000
0000
,  // measure 16
2002
0000
0000
0000
,  // measure 17
0000
0000
0000
0000
,  // measure 18
0000
0000
0000
0000
,  // measure 19
0000
0000
0000
3003
,  // measure 20
0001
0000
0000
0000
,  // measure 21
0000
0000
0000
0000
,  // measure 22
0100
0000
0000
0000
,  // measure 23
0000
0000
0000
0000
,  // measure 24
0010
0000
0000
0000
,  // measure 25
0000
0000
0000
0000
,  // measure 26
1000
0000
0000
0000
,  // measure 27
0100
0000
0000
0000
,  // measure 28
0010
0000
0000
0000
,  // measure 29
0001
0000
0000
0000
,  // measure 30
1000
0000
0000
0000
,  // measure 31
0010
0000
0000
0000
,  // measure 32
0100
0000
0000
0000
,  // measure 33
0001
0000
0000
0000
,  // measure 34
1000
0000
0000
0000
,  // measure 35
0100
0000
0000
0000
,  // measure 36
0010
0000
0000
0000
,  // measure 37
0001
0000
0000
0000
,  // measure 38
1000
0000
0000
0000
,  // measure 39
0010
0000
0000
0000
,  // measure 40
0100
0000
0000
0000
,  // measure 41
0001
0000
0000
0000
,  // measure 42
1000
0000
0000
0000
,  // measure 43
0100
0000
0000
0000
,  // measure 44
0010
0000
0000
0000
,  // measure 45
0001
0000
0000
0000
,  // measure 46
1000
0000
0000
0000
,  // measure 47
0010
0000
0000
0000
,  // measure 48
0100
0000
0000
0000
,  // measure 49
0001
0000
0000
0000
,  // measure 50
1000
0000
0000
0000
,  // measure 51
2002
0000
0000
0000
,  // measure 52
0000
0000
0000
0000
,  // measure 53
3003
0000
0000
0000
;
