#TITLE:Got To Be Certain;
#SUBTITLE:;
#ARTIST:Kylie Minogue;
#TITLETRANSLIT:;
#SUBTITLETRANSLIT:;
#ARTISTTRANSLIT:;
#CREDIT:;
#BANNER:;
#BACKGROUND:;
#LYRICSPATH:;
#CDTITLE:Dance Mania Super Classics 3.png;
#MUSIC:Got To Be Certain.ogg;
#OFFSET:0.220;
#SAMPLESTART:51.100;
#SAMPLELENGTH:12.000;
#SELECTABLE:YES;
#BPMS:0.000=117.440;
#STOPS:;
#BGCHANGES:;

//---------------dance-single - ----------------
#NOTES:
     dance-single:
     :
     Hard:
     8:
     0.515,0.521,0.221,0.000,0.140:
0000
0000
0000
0000
,
0000
0000
0000
0000
,
0000
0000
0000
0000
,
0000
0000
0000
0000
,
0000
0000
0000
0000
,
1000
0100
1000
0100
0010
0001
0001
1000
,
0000
0001
1000
0100
0001
0100
1000
0100
,
0010
0010
0001
1000
0001
0000
1000
0100
,
0010
0000
0010
0000
0100
0000
1000
0100
1000
0000
0001
0000
0100
0000
0001
0100
,
0001
1000
0010
0100
0001
0001
0001
0000
,
0010
0001
1000
0010
1000
0100
0010
0010
,
0001
1000
0000
0001
1000
0000
0001
0000
0100
0000
1000
0000
0100
0000
0001
0000
,
0000
0000
0010
0000
0100
0000
1000
0000
0000
0000
1100
0000
0000
0000
0010
0100
,
0010
0001
0100
0010
1000
1000
0100
0100
,
0010
0001
0100
0010
1000
0100
0001
0100
,
1000
0100
0000
0100
1000
0000
0010
0000
0100
0000
0001
0000
0010
0000
1000
0000
,
0010
0000
0001
0000
1000
0000
0001
0000
0000
0000
0110
0000
0000
0000
1000
0001
,
1000
0000
1000
0100
0010
0001
0100
0010
,
1001
1000
0100
0010
0001
0001
0100
0010
,
0110
0010
1000
0100
0010
0001
0100
0001
,
0101
0000
0001
0000
0010
0000
0100
0000
0000
0000
0100
0000
1000
0000
0010
1000
,
0001
0100
0010
1000
0100
0010
0001
1000
,
1001
1000
0100
0010
0001
0001
0100
0010
,
1010
1000
0100
1000
0010
0100
0001
0010
,
0000
0000
0011
0000
0001
0000
1000
0000
0010
1000
0000
1000
0001
0000
1000
0001
,
1000
0100
0010
0001
1001
1000
0100
0010
,
0110
0001
1000
0000
1001
0000
1100
1000
,
1001
0001
1000
0010
0100
0001
0001
1000
,
0010
0000
0010
0000
1000
0000
0100
0000
1100
0000
1000
0001
0100
0000
0001
1000
,
0100
1000
1000
0100
0010
0001
1000
0001
,
0100
0010
1000
0001
0100
0100
0010
1000
,
1100
0000
0010
0001
0101
0001
1001
1000
,
1010
0000
1000
0000
0001
0000
1000
0001
0100
0001
0000
0100
0001
0000
0100
0001
,
1000
0000
0100
0000
0010
0000
0001
0100
1000
0000
0100
0000
0001
0000
0010
0000
,
0100
0000
1000
0000
0010
0000
0001
0010
1000
0000
0010
0000
0100
0000
0001
0000
,
0100
0010
1000
0000
0001
0000
0100
0000
0001
0000
0000
0000
1000
0000
0010
0000
,
1000
0000
0100
0000
1000
0000
0010
0000
0100
0000
0001
0000
1000
0000
0010
0100
,
0010
1000
0100
1000
0010
0100
0001
0010
,
0011
0000
0000
0000
0010
0000
0001
0000
1000
0000
0010
0000
1000
0000
0001
1000
,
0100
0010
1000
0010
0001
0100
0001
1000
,
0001
0000
0010
0000
1000
0000
0100
0000
0001
0000
1000
0001
1000
0000
0000
0000
;

//---------------dance-double - ----------------
#NOTES:
     dance-double:
     :
     Hard:
     8:
     0.557,0.616,0.302,0.000,0.198:
00000000
00000000
00000000
00000000
,
00000000
00000000
00000000
00000000
,
00000000
00000000
00000000
00000000
,
00000000
00000000
00000000
00000000
,
00000000
00000000
00000000
00000000
,
10000000
00010000
01000000
00010000
10000000
00010000
01000000
00000000
00001000
00000000
00011000
00000000
00010100
00000000
00001100
00000000
,
00001000
00000100
00001000
00000001
00001000
00000100
00000010
00000000
00000001
00000000
00000100
00000000
00001000
00000000
00010000
00000000
,
01000000
10000000
00100000
10000000
01000000
10000000
00100000
00000000
00010000
00000000
00011000
00000000
00010010
00000000
00001010
00000000
,
00000010
00001000
00000010
00000100
00000010
00001000
00000001
00000100
00000010
00000000
00001000
00000000
01000000
00000000
10000000
00100000
,
01000000
00010000
01000000
10000000
01000000
01000000
01000000
01000000
,
01000000
00010000
00100000
00001000
00010000
00010000
00000100
00000100
,
00000010
00000100
00000000
00000100
00000010
00000000
00000001
00000000
00000100
00000000
00001000
00000000
00010000
00000000
01000000
00000000
,
00000000
00000000
10000000
00000000
01000000
00000000
00100000
00000000
00001000
00000000
00010000
00000000
00001000
00000000
00010000
00001000
,
00010000
00000100
00000001
00000100
00000010
00000010
00000010
00000010
,
00000010
00000001
00000100
00001000
00010000
00100000
10000000
01000000
,
00100000
00010000
10000000
00000000
01000000
00000000
00100000
00000000
00001000
00000000
00010000
00000000
00000100
00000000
00001000
00000000
,
00000100
00000000
00000001
00000000
00000100
00000000
00001000
00000000
00000010
00000000
00010000
00000000
00000000
00000000
00001000
00010000
,
00001000
00000000
00100000
00010000
10000000
00100000
01000000
00010000
,
10010000
10000000
00100000
00010000
00001000
00000100
00000001
00000100
,
00000110
00000010
00010000
00001000
00100000
00010000
10000000
00100000
,
00000000
00000000
10100000
00000000
00100000
00000000
10000000
00000000
01000000
00000000
00010000
00000000
00001000
00000000
00000100
00000001
,
00001000
00000001
00000010
00000100
00010000
00001000
00100000
00001000
,
00011000
00001000
00100000
00010000
10000000
00100000
01000000
00010000
,
01010000
01000000
00001000
00010000
00000100
00001000
00000100
00000010
,
00000000
00000000
00000011
00000000
00000001
00000000
00000100
00000000
00001000
00010000
00000000
00001000
00010000
00000000
00010000
00001000
,
00010000
01000000
10000000
00100000
10100000
10010000
10010000
00000000
,
10010000
00010000
01000000
00000000
01001000
00001000
00010000
00000100
,
00010100
00010000
00000010
00000100
00000101
00000001
00001000
00000100
,
00000010
00000000
00000010
00000000
00000001
00000000
00000100
00000000
00001000
00000000
00010000
00001000
00100000
00000000
00100000
00010000
,
10000000
00100000
00010000
00001000
00000010
00001000
00010000
01000000
,
00010000
00001000
00000100
00000001
00001000
00001000
00000100
00010000
,
00011000
00000000
00001000
00100000
00110000
00110000
10010000
10010000
,
10100000
00000000
10000000
00000000
01000000
00000000
00100000
00001000
00010000
00001000
00000000
00001000
00010000
00000000
00001000
00010000
,
00000100
00000000
00001000
00000000
00000010
00000000
00001000
00000100
00000001
00000000
00000100
00000000
00010000
00000000
01000000
00000000
,
10000000
00000000
00100000
00000000
01000000
00000000
00010000
00100000
10000000
00000000
00100000
00000000
00001000
00000000
00010000
00000000
,
00000100
00000010
00000001
00000100
00001000
00000100
00000001
00000010
,
00000100
00000000
00010000
00000000
00001000
00000000
00010000
00000000
00000000
00000000
00010000
00000000
01000000
00000000
10000000
01000000
,
10000000
00100000
01000000
00001000
00010000
00001000
00000100
00000001
,
00000010
00000000
00001000
00000000
00010000
00000000
00001000
00000000
00000010
00000000
00000010
00000000
00000001
00000000
00000100
00000001
,
00001000
00000100
00001000
00010000
01000000
00010000
00001000
00000100
,
00001000
00000000
00000010
00000000
00010000
00000000
00001000
00000000
00011000
00000000
00010000
00001000
00010000
00000000
00000000
00000000
;

//---------------dance-solo - ----------------
#NOTES:
     dance-solo:
     :
     Hard:
     7:
     0.503,0.498,0.186,0.000,0.140:
000000
000000
000000
000000
,
000000
000000
000000
000000
,
000000
000000
000000
000000
,
000000
000000
000000
000000
,
000000
000000
000000
000000
,
100000
001000
000100
000001
100000
000010
000010
000010
,
100000
000010
100000
001000
000001
001000
100000
001000
,
000100
000100
000001
100000
001000
000000
100000
001000
,
000010
000010
001000
100000
000001
001000
000100
100000
,
100001
100000
000100
001000
000001
000001
000001
000000
,
010001
000100
001000
100010
100000
001000
000100
000001
,
100000
000100
000000
000100
001000
000000
000010
000000
000100
000000
000001
000000
100000
000000
000001
000000
,
000000
000000
000001
000000
001000
000000
000100
000000
100000
000000
001000
000000
000100
000000
000001
100000
,
000001
001000
000100
100000
000010
000010
100000
001000
,
011000
010000
000100
001010
001000
000001
100000
100000
,
000001
000100
000000
000100
001000
000000
100000
000000
000001
000000
100000
000000
001000
000000
000100
000000
,
000001
000000
000001
000000
100000
000000
000001
000000
001000
000000
000100
000000
100000
000000
001000
000100
,
000001
001000
100000
001000
000001
000100
001000
100000
,
100100
100000
000010
000110
000010
000100
001000
100000
,
000001
000100
000000
000100
001000
000000
100000
000000
001000
000000
000010
000000
001000
000000
100000
000000
,
000000
101000
100000
001000
000000
001000
000100
000001
,
100001
000001
001000
100000
001000
001000
001000
000001
,
000101
001000
100000
100100
100000
000001
001000
000010
,
010000
000100
000000
000100
001000
000000
000001
000000
000010
000000
000010
000000
000001
000000
010000
000000
,
000000
000000
010000
000000
000001
000000
000100
000000
000001
100000
000000
100000
000001
000000
100000
000001
,
100000
001000
000100
000001
100000
000010
000010
000000
,
100010
100000
001000
000000
010001
000001
001000
000100
,
100000
001000
000100
001000
100000
000010
000010
000000
,
100000
000000
000000
000000
000100
000000
001000
000000
001000
000000
000001
100000
000001
000000
100000
000001
,
100000
001000
000001
001000
100000
001000
000010
001000
,
010000
001000
000100
000001
001000
001000
000100
100000
,
101000
000000
100000
000100
100100
000000
000101
000000
,
000001
000000
001000
000000
000100
000000
100000
001000
000100
000001
000000
100000
000001
000000
100000
000001
,
100000
000000
001000
000000
000001
000000
001000
100000
001000
000000
000100
000000
000001
000000
001000
000000
,
000100
000000
010000
000000
000001
000000
000100
000010
000100
000000
000100
000000
000010
000000
100000
000000
,
000000
100000
001000
100000
000010
000000
100000
000001
,
100000
000000
001000
000000
000100
000000
001000
000000
100000
000000
100000
000000
100000
000000
000001
100000
,
000001
000000
000001
001000
000100
100000
001000
000001
,
001000
000000
000000
000000
001000
000000
100000
000000
000100
000000
000100
000000
010000
000000
000010
010000
,
000001
001000
000100
100000
001000
000001
001000
100000
,
000100
000000
000001
000000
000100
000000
100000
000000
000000
000000
000001
100000
000100
000000
000000
000000
;

//---------------dance-single - ----------------
#NOTES:
     dance-single:
     :
     Medium:
     6:
     0.362,0.355,0.140,0.000,0.006:
0000
0000
0000
0000
,
0000
0000
0000
0000
,
0000
0000
0000
0000
,
0000
0000
0000
0000
,
0000
0000
0000
0000
,
1000
0100
0010
0001
,
1000
0000
0100
0001
0010
0000
0100
0001
,
0010
0000
0001
1000
0001
0000
1000
0100
,
0010
0010
0100
1000
0000
0000
1000
0100
,
0010
0000
0001
0000
0100
0100
0100
0000
,
0101
0000
0001
0100
0000
0100
0010
0000
,
1010
0000
1000
0100
0001
0100
1000
0100
,
0000
0100
1000
0001
0000
0100
0000
0000
,
0101
0000
0010
0010
0010
0000
1001
0000
,
1100
0000
1000
0100
0000
0100
0010
0000
,
0001
0000
0001
0010
1000
0010
0001
0010
,
1000
0010
0001
1000
0000
0000
1001
0000
,
1100
0000
1000
0100
1000
0000
0100
0000
,
0101
0000
0100
0001
1000
0000
0100
0000
,
0101
0000
0001
0100
1000
0000
1000
0100
,
0000
0001
0100
0010
0000
0001
0100
0010
,
0001
0100
0001
0000
0100
0000
1000
0000
,
1100
0000
1000
0001
0100
0000
0010
0000
,
0010
0001
0100
0001
0010
0100
1000
0010
,
0000
0000
1000
0000
0100
0000
0010
0000
0000
0001
0000
0000
0001
0000
1000
0000
,
0001
0000
0001
0100
1000
0100
0001
0000
,
0001
0010
1000
0000
0001
0010
1000
0000
,
1001
0000
1000
0100
0001
0100
1000
0000
,
0001
0000
1000
0100
0001
0000
1000
0100
,
0001
0000
1000
0100
0010
0000
1000
0100
,
0001
0000
0001
0000
0100
0010
1000
0100
,
0010
0000
0010
0001
1000
0000
1000
0000
,
0000
1000
0001
0100
1000
0100
0001
1000
,
0010
0000
0010
1000
0100
0000
0000
0000
,
0010
0000
0010
0001
0100
0000
0100
0000
,
0001
1000
0001
0100
0001
0000
0001
0000
,
1000
0100
1000
0001
1000
0000
1000
0000
,
0010
0000
1000
0100
0010
0100
1000
0100
,
0001
0000
0001
0100
1000
1000
0100
0010
,
0000
0001
0100
0001
0010
0100
0010
0001
,
0100
0010
1000
0001
0000
0000
1001
0000
;

//---------------dance-single - ----------------
#NOTES:
     dance-single:
     :
     Easy:
     3:
     0.221,0.237,0.163,0.000,0.000:
0000
0000
0000
0000
,
0000
0000
0000
0000
,
0000
0000
0000
0000
,
0000
0000
0000
0000
,
0000
0000
0000
0000
,
1000
0010
0100
0000
,
0001
0010
0100
0000
,
1000
1000
0100
0000
,
0001
0001
0100
0000
,
1001
0000
1000
0001
,
1001
0000
0001
0100
,
0110
0000
0010
1000
,
0000
0100
0010
0100
,
1001
1000
0001
0000
,
0000
1000
0100
0110
,
0000
0010
0001
0100
,
0010
1000
1000
0010
,
0100
0001
0010
0100
,
0110
1000
0010
0100
,
1001
0001
0010
0001
,
0000
1000
0000
0100
0000
0000
0000
0000
,
0100
1000
0010
0100
,
0110
0100
0001
1000
,
1001
1000
0100
0001
,
0000
0001
0000
0010
0000
0000
0000
0000
,
0000
1000
0001
0000
,
0001
0100
0110
1001
,
0000
1000
0100
0000
,
0000
0110
1001
0000
,
0000
1000
0100
0001
,
0100
1000
0010
1000
,
0100
1000
0001
0001
,
0000
0001
0100
0100
,
0001
0010
0100
0010
,
0001
1000
0010
1000
,
0001
1000
0100
1000
,
0010
0000
0000
0100
0000
0000
0000
0100
,
0000
0001
0100
1000
,
0100
0001
0010
1000
,
0010
0001
1000
0010
,
0001
0100
1000
1001
;

//---------------dance-double - ----------------
#NOTES:
     dance-double:
     :
     Medium:
     7:
     0.382,0.403,0.116,0.000,0.006:
00000000
00000000
00000000
00000000
,
00000000
00000000
00000000
00000000
,
00000000
00000000
00000000
00000000
,
00000000
00000000
00000000
00000000
,
00000000
00000000
00000000
00000000
,
10000000
01000000
00010000
01000000
10000000
00000000
00011000
00000000
,
00001000
00010000
00100000
00010000
00000100
00000000
00000010
00000001
,
00001000
00000000
00001000
00000100
00010000
00000000
00001000
00000000
,
00100000
00100000
00010000
10000000
00000000
10000000
01000000
00100000
,
00010000
00000000
10000000
00000000
01000000
01000000
01000000
00000000
,
00011000
00000000
00001000
00000000
00000100
00000100
00000100
00000000
,
00001001
00000000
00000001
00000100
00001000
00000000
00000100
00000000
,
00000001
00000010
00001000
00010000
00000000
01000000
00000000
10000000
,
00010000
00000000
10000000
10000000
10000000
00000000
01000000
00000000
,
00011000
00000000
00000100
00000000
00000001
00000001
00000001
00000000
,
00001001
00000000
00000001
00000010
00001000
00000000
00010000
00000000
,
01000000
10000000
00100000
01000000
00000000
00010000
00000000
00000000
,
10010000
00000000
10000000
01000000
00100000
01000000
10000000
00000000
,
00010000
01000000
00001000
00010000
00000100
00001000
00000001
00000100
,
00000001
00001000
00000100
00010000
00001000
01000000
00010000
10000000
,
00000000
10000000
01000000
00010000
00000000
00001000
00000100
00000001
,
00001000
00000010
00010000
00001000
00100000
00010000
10000000
00000000
,
10000000
00010000
00100000
00001000
00010000
00000010
00001000
00000001
,
00000000
00000001
00000100
00001000
00010000
00100000
10000000
00010000
,
00000000
00000000
10000000
00000000
00010000
00000000
00000010
00000000
00000000
00000001
00000000
00000000
00000001
00000000
00000010
00000000
,
00000100
00000010
00000001
00001000
00000100
00000000
00000000
00000000
,
00000100
00010000
00001000
00000000
00100000
00000000
00010000
00000000
,
10000000
00100000
01000000
00001000
00010000
00000000
00000000
00000000
,
00000000
00000000
00011000
00000000
00001001
00000000
00000001
00000100
,
00001000
00100000
00010000
10000000
01000000
00100000
01000000
00100000
,
00001000
00010000
00001000
00000000
00010000
00001000
00000100
00001000
,
00010000
00000000
00000010
00001000
00000001
00000000
00001001
00000000
,
00000000
00000001
00000100
00001000
00000000
00001000
00010000
01000000
,
00100000
00000000
00010000
10000000
00010000
00000000
01000000
00000000
,
00001000
00000000
00010000
00000010
00001000
00000000
00000100
00000000
,
00001000
00000000
00000001
00000100
00000010
00000000
00010000
00001000
,
01000000
00010000
00100000
01000000
00000000
00000000
10000000
01000000
,
00010000
01000000
00100000
01000000
00010000
00001000
00000100
00000001
,
00000010
00000100
00000010
00000100
00010000
00010000
00001000
00100000
,
00010000
01000000
00010000
01000000
00100000
10000000
01000000
00100000
,
00001000
00010000
00000010
00010000
00001000
00010000
00011000
00000000
;

//---------------dance-double - ----------------
#NOTES:
     dance-double:
     :
     Easy:
     4:
     0.229,0.284,0.093,0.000,0.000: // measure 1
00000000
00000000
00000000
00000000
,  // measure 2
00000000
00000000
00000000
00000000
,  // measure 3
00000000
00000000
00000000
00000000
,  // measure 4
00000000
00000000
00000000
00000000
,  // measure 5
00000000
00000000
00000000
00000000
,  // measure 6
10000000
01000000
10000000
00000000
,  // measure 7
10000000
01000000
00010000
00001000
,  // measure 8
00000100
00000001
00000100
00000000
,  // measure 9
00000001
00000100
00001000
00010000
,  // measure 10
00100000
01000000
00010000
00010000
,  // measure 11
10000000
01000000
00100000
01000000
,  // measure 12
00010000
00001000
00000010
00001000
,  // measure 13
00000000
00010000
00001000
00000100
,  // measure 14
00000001
00001000
00000001
00000000
,  // measure 15
00000100
00000001
00000010
00001000
,  // measure 16
00010000
01000000
00010000
00001000
,  // measure 17
00000100
00001000
00010000
00000000
,  // measure 18
00011000
00100000
00010000
10000000
,  // measure 19
10100000
00100000
10000000
00010000
,  // measure 20
01010000
01000000
00001000
00010000
,  // measure 21
00011000
00010000
00001000
00000100
,  // measure 22
00001001
00000001
00000100
00000010
,  // measure 23
00011000
00010000
00001000
01000000
,  // measure 24
01010000
00010000
01000000
00100000
,  // measure 25
00000000
10000000
00000000
00010000
00000000
00000000
00000000
00000000
,  // measure 26
10000000
01000000
00010000
00000000
,  // measure 27
00001000
00010000
00001000
00010000
,  // measure 28
00001000
00000100
00000001
00000000
,  // measure 29
00000000
00001000
00000010
00000000
,  // measure 30
00010000
00001000
00100000
00100000
,  // measure 31
00010000
10000000
00010000
00010000
,  // measure 32
00100000
00010000
10000000
00010000
,  // measure 33
00000000
00100000
00000000
00001000
00000000
00000000
00010000
00000000
,  // measure 34
00001000
00010000
01000000
00010000
,  // measure 35
00000010
00010000
00001000
01000000
,  // measure 36
00010000
01000000
00100000
01000000
,  // measure 37
00010000
10000000
00000000
00000000
,  // measure 38
10000000
01000000
00010000
01000000
,  // measure 39
10000000
01000000
00100000
00001000
,  // measure 40
00000100
00000001
00000010
00000001
,  // measure 41
00000100
00001000
00010000
00011000
;

//---------------dance-solo - ----------------
#NOTES:
     dance-solo:
     :
     Medium:
     6:
     0.339,0.355,0.163,0.000,0.006:
000000
000000
000000
000000
,
000000
000000
000000
000000
,
000000
000000
000000
000000
,
000000
000000
000000
000000
,
000000
000000
000000
000000
,
100000
000000
000001
000000
001000
000001
000001
000000
,
010000
000000
000010
000000
001000
000001
100000
000000
,
000001
000000
100000
000000
001000
100000
100000
000000
,
000010
000000
010000
000000
001000
100000
000001
100000
,
000010
000000
010000
000000
001000
000100
000010
000000
,
000110
000000
000010
000000
100000
000001
001000
000000
,
001001
000000
000001
000000
100000
000000
001000
100000
,
000000
000010
010000
000010
000000
100000
000000
000000
,
100001
000000
100000
001000
000010
000000
001000
000000
,
100000
000000
000001
001000
010000
000000
001000
000000
,
001001
000000
000001
000000
100000
001000
010000
000000
,
000100
000000
001000
000001
000000
100000
000000
000000
,
100001
000000
100000
000100
010000
000010
010000
000000
,
000001
000000
010000
000010
100000
000100
001000
000000
,
100001
000000
000001
001000
000100
100000
000001
100000
,
000000
000001
010000
001000
000000
100000
000010
001000
,
000001
000100
001000
000100
000001
100000
000001
000000
,
001000
000100
010000
000001
100000
000010
001000
000000
,
000001
001000
100000
001000
000001
001000
000100
100000
,
000000
000000
000010
000000
001000
000000
000001
000000
000000
100000
000000
000000
000001
000000
000000
000000
,
100000
001000
000100
000001
100000
000000
000001
000000
,
100000
101000
001001
000000
,
000001
001000
000100
100000
000000
000000
000000
000000
,
000000
101000
100001
001001
,
000001
001000
000100
100000
000001
000000
100000
000000
,
000001
001000
000100
000000
000100
100000
000001
000000
,
100001
000000
100000
001000
000001
000000
000001
000000
,
000000
000001
001000
100000
000000
000000
000001
000000
,
010000
000000
000001
100000
000001
000000
000000
000000
,
000100
000000
000010
010000
000010
000000
100000
000000
,
000001
100000
000001
001000
000010
000000
100000
000000
,
001000
100000
000001
001000
000000
000000
000000
001001
,
000000
000000
000001
001000
000010
001000
000001
000000
,
100000
000000
010000
001000
000100
000100
100000
000000
,
000000
001000
000010
001000
000100
000000
000001
001000
,
000100
100000
000001
100000
000000
000000
100001
000000
;

//---------------dance-solo - ----------------
#NOTES:
     dance-solo:
     :
     Easy:
     3:
     0.229,0.261,0.128,0.000,0.000:
000000
000000
000000
000000
,
000000
000000
000000
000000
,
000000
000000
000000
000000
,
000000
000000
000000
000000
,
000000
000000
000000
000000
,
100000
000001
001000
000000
,
000001
100000
001000
000000
,
000100
000001
100000
000000
,
000100
100000
000001
000000
,
100001
100000
000001
000001
,
000000
010000
000001
100000
,
000000
100000
000001
001000
,
000100
010000
000010
000000
,
000100
000001
100000
000000
,
100000
000001
000100
001000
,
000100
000001
100000
000100
,
001000
000010
010000
001000
,
001100
000001
100000
000001
,
100001
001000
000100
001000
,
010010
010000
001000
000100
,
000000
000001
000000
001000
000000
000000
000000
000000
,
001001
000001
100000
001000
,
001100
000001
100000
000001
,
100001
001000
000100
001000
,
000000
100001
000000
010010
000000
000000
000000
000000
,
100000
001000
000100
000000
,
000100
001000
010000
000001
,
000001
001000
000100
000000
,
000100
001000
000010
001000
,
000001
000100
000010
000010
,
001000
000100
100000
001000
,
000100
000010
100000
100000
,
000000
100000
000000
001000
000000
000000
001000
000000
,
100000
001000
000001
001000
,
010000
001000
000010
001000
,
100000
000010
000100
000010
,
100000
000000
000001
000000
000000
000000
000000
100001
,
000000
100000
001000
100000
,
000010
010000
000100
000100
,
001000
000001
000100
000001
,
100000
000100
001000
100001
;
