#VERSION:0.83;
#TITLE:Don't be afraid myself;
#SUBTITLE:;
#ARTIST:platoniX;
#TITLETRANSLIT:;
#SUBTITLETRANSLIT:;
#ARTISTTRANSLIT:;
#GENRE:J-Pop;
#ORIGIN:;
#CREDIT:;
#BANNER:dbam-bn.png;
#BACKGROUND:dbam-bg.png;
#PREVIEWVID:;
#JACKET:dbam-jacket.png;
#CDIMAGE:;
#DISCIMAGE:;
#LYRICSPATH:;
#CDTITLE:cdtitle.png;
#MUSIC:dbam.ogg;
#OFFSET:-1.019000;
#SAMPLESTART:52.756001;
#SAMPLELENGTH:12.000000;
#SELECTABLE:YES;
#BPMS:0.000=165.000,
177.000=82.500,
193.000=165.000,
217.000=82.500,
229.000=165.000,
286.000=82.500;
#STOPS:;
#DELAYS:;
#WARPS:;
#TIMESIGNATURES:0.000=4=4;
#TICKCOUNTS:0.000=4;
#COMBOS:0.000=1;
#SPEEDS:0.000=1.000=0.000=0;
#SCROLLS:0.000=1.000;
#FAKES:;
#LABELS:0.000=Song Start;
#BGCHANGES:;
#KEYSOUNDS:;
#ATTACKS:
;

//---------------dance-single - ----------------
#NOTEDATA:;
#CHARTNAME:;
#STEPSTYPE:dance-single;
#DESCRIPTION:;
#CHARTSTYLE:;
#DIFFICULTY:Hard;
#METER:10;
#RADARVALUES:0.626697,0.848130,0.208899,0.025068,0.238145,525.000000,500.000000,25.000000,3.000000,0.000000,0.000000,7.000000,0.000000,0.000000,0.626697,0.848130,0.208899,0.025068,0.238145,525.000000,500.000000,25.000000,3.000000,0.000000,0.000000,7.000000,0.000000,0.000000;
#CREDIT:;
#NOTES:
// measure 0
0000
0000
0011
0000
0000
0010
0000
0000
,  // measure 1
0100
0000
1100
0000
0000
0010
0100
0000
,  // measure 2
0010
0000
0110
0000
0000
0001
1000
0000
,  // measure 3
0000
0000
0100
0100
0110
0000
0000
0000
0000
0000
0000
0000
0001
0000
0000
0000
,  // measure 4
1000
0000
0100
1000
0100
0000
0010
0000
0100
0000
1000
0000
0100
0000
0010
0000
,  // measure 5
1000
0000
0010
0100
0010
0000
0001
0000
0010
0000
1000
0000
0010
0000
0100
0000
,  // measure 6
0001
0000
0010
0100
0010
0000
0100
0000
1000
0000
0100
0000
0010
0000
0100
0000
,  // measure 7
0001
0000
0010
0100
0010
0000
0100
0000
1000
0000
0100
0000
0404
0000
0000
0000
,  // measure 8
0000
0000
0000
0303
0101
0000
0000
0100
0000
0000
0010
0000
0000
1000
0000
0000
,  // measure 9
0001
0000
0100
0000
0001
0000
0000
1000
0000
0000
0100
0000
0000
0010
0000
0000
,  // measure 10
0100
0000
1000
0000
0001
0000
0000
0100
0000
0000
1000
0000
0000
0010
0000
0000
,  // measure 11
0100
0000
1000
0000
0001
0000
0000
0010
0000
0000
0010
0000
0000
0100
0000
0000
,  // measure 12
0010
1000
0010
0010
0100
0010
1000
0001
,  // measure 13
1000
0100
0010
0001
0010
0100
1000
0010
,  // measure 14
0001
0100
0010
1000
0010
0001
0100
0010
,  // measure 15
0001
0001
0014
0000
0000
0000
0100
0000
,  // measure 16
0000
0000
0000
0003
0101
0000
0100
0000
0100
0000
0000
0000
0010
0000
0000
0000
,  // measure 17
0100
0000
1010
0100
0010
0000
0100
0000
,  // measure 18
0400
0000
1300
0000
0010
0100
1000
0000
,  // measure 19
0001
0010
0100
0000
0100
0010
0001
0000
,  // measure 20
1000
0010
0100
0000
1000
0010
0100
0000
,  // measure 21
0001
0010
0100
0000
0001
0010
0100
0010
,  // measure 22
1000
0000
0000
0010
0010
0000
0000
0000
0001
0000
0100
0000
0010
0000
0000
0000
,  // measure 23
0100
0010
0001
0000
0010
1000
0100
0000
,  // measure 24
1000
0100
0010
0000
0001
0100
0010
0000
,  // measure 25
1000
0100
0010
0001
0010
0100
0010
0100
,  // measure 26
1000
0000
0100
0100
0010
0000
0000
0000
0110
0000
0100
0000
0000
0000
1000
0000
,  // measure 27
0000
0010
0000
0100
0100
0000
0001
0000
,  // measure 28
0010
1000
0100
0000
0010
0001
0000
0100
,  // measure 29
0000
1000
0000
0010
0010
0000
0100
0000
,  // measure 30
0010
0001
0010
0001
0011
0000
0000
0000
0010
0000
0100
0000
0000
0000
1000
0000
,  // measure 31
0000
0001
0000
0100
0010
0000
0100
0000
,  // measure 32
1000
0000
0010
0000
0012
0000
0000
0000
0000
0000
0003
0000
1000
0000
0000
0001
,  // measure 33
0000
0100
0010
1000
0010
0001
0100
0010
,  // measure 34
0100
0000
1000
0000
0010
1000
0010
1000
0010
1000
0010
1000
0010
0000
0000
0100
,  // measure 35
0000
1100
0000
0000
0000
0001
1000
0001
,  // measure 36
1000
0100
0110
0000
0001
0000
1000
0100
,  // measure 37
0010
0001
0010
0000
0010
0100
1000
0001
,  // measure 38
1000
0100
1000
0010
0010
0001
0010
0100
,  // measure 39
1000
0100
0010
0001
0010
0010
0100
0010
,  // measure 40
1000
0001
0100
0000
1000
0100
0000
0001
,  // measure 41
0100
0010
0100
0000
0010
0100
0000
0001
,  // measure 42
0100
0010
1000
0100
0010
0100
1000
0100
,  // measure 43
0010
1000
0001
1000
0010
0100
0001
1000
,  // measure 44
0001
0000
0100
0000
0110
0000
0010
0000
0100
1000
0100
1000
0100
0000
0100
0000
,  // measure 45
0010
0001
0010
0001
0010
0000
0010
0000
0100
0010
0100
0010
0100
1000
0100
0010
,  // measure 46
0100
1000
0100
0010
0100
0000
0100
0000
1000
0100
0010
0001
0010
0000
0000
0000
,  // measure 47
0001
0000
0100
0100
0010
0000
0001
0000
0000
0100
0010
0100
1000
0100
0001
0100
,  // measure 48
0010
0100
1100
0100
0010
1000
0010
0100
,  // measure 49
0001
0010
0100
0010
0100
0001
0010
0100
,  // measure 50
1000
0100
0010
0100
0010
0001
0100
0010
,  // measure 51
1000
0010
0100
0001
1000
0100
0010
0001
,  // measure 52
0100
1000
1100
0100
0010
0110
0001
0010
,  // measure 53
0100
1000
1100
0100
0010
0001
0010
0100
,  // measure 54
0010
0000
0100
0000
0440
0000
0000
0000
0000
0000
0000
0000
0330
0000
0000
0010
,  // measure 55
0100
0001
0100
0010
0100
0000
0000
0010
0100
0010
1000
0010
0001
0000
0000
0001
,  // measure 56
0100
0001
0010
0001
1000
0000
1000
1000
0000
0100
0000
0010
0011
0001
0000
0010
,  // measure 57
0000
0100
0000
1000
1100
0000
0000
0000
1000
0000
0010
0000
0000
0000
0001
0000
,  // measure 58
0010
0100
0010
0000
0010
0100
0001
1000
,  // measure 59
0010
0100
0001
0010
0100
0000
1000
0100
,  // measure 60
1000
0010
0400
0000
0000
0000
0010
0000
,  // measure 61
0010
0000
0310
0000
0010
1000
0100
0010
,  // measure 62
0100
1000
0100
0000
0010
0001
0010
0100
,  // measure 63
0010
0100
1000
0000
0100
0001
0010
0100
,  // measure 64
0010
1000
0100
0010
0100
0001
0010
1000
,  // measure 65
0001
0100
0010
0000
0100
1000
0010
0001
,  // measure 66
1000
0100
0010
0100
0001
0010
1000
0100
,  // measure 67
0010
0100
0001
0010
0100
0001
0010
0100
,  // measure 68
0001
0100
0010
0100
1000
0100
0010
0001
,  // measure 69
0100
0010
1000
0100
1000
0100
0010
0100
,  // measure 70
0010
0000
0001
0000
0100
0000
0010
0000
0010
0000
1000
0000
0110
0000
0000
0010
,  // measure 71
0000
0101
0000
0000
0202
0000
0000
0000
,  // measure 72
0000
0000
0303
0000
;

//---------------dance-single - ----------------
#NOTEDATA:;
#CHARTNAME:;
#STEPSTYPE:dance-single;
#DESCRIPTION:;
#CHARTSTYLE:;
#DIFFICULTY:Easy;
#METER:4;
#RADARVALUES:0.318720,0.363484,0.225611,0.116983,0.008356,267.000000,240.000000,27.000000,14.000000,0.000000,0.000000,0.000000,0.000000,0.000000,0.318720,0.363484,0.225611,0.116983,0.008356,267.000000,240.000000,27.000000,14.000000,0.000000,0.000000,0.000000,0.000000,0.000000;
#CREDIT:;
#NOTES:
0000
0000
1100
0000
0000
0100
0000
0000
,
0010
0000
0011
0000
0000
0010
0010
0000
,
0000
1010
0000
0010
,
0000
0101
0000
0010
,
0010
1010
1000
0001
,
0100
0010
0001
0100
,
1000
0010
1000
0100
,
0001
0010
0100
0001
,
0010
1000
0100
1000
,
0100
0010
0001
0010
,
0001
0100
0010
1000
,
0010
0100
0001
0010
,
0100
0001
0010
1000
,
0100
0001
0010
0100
,
0001
1000
0010
0100
,
0001
0010
1000
0100
,
0010
1001
0001
0001
,
0001
1001
1000
1000
,
1000
1001
0000
0010
,
0000
0001
0100
0001
,
0000
1000
0000
0001
,
0000
1000
0010
1000
,
0000
0010
0000
0100
,
0000
0001
0000
0010
,
0000
0000
2000
0000
0000
3000
0020
0000
,
0030
0010
0220
0000
0000
0300
0000
0000
,
0000
0030
0010
0000
0010
0100
0000
0000
,
0000
1000
0000
0100
0200
0000
0000
0000
,
0301
0100
0001
0000
0100
0010
0000
0000
,
0000
1000
0000
0010
0020
0000
0000
0000
,
0031
0010
0001
0000
0010
0100
0000
0000
,
0000
0001
0000
1000
2000
0000
0000
0000
,
3001
1000
0001
0000
0000
0000
0001
0000
,
0000
0100
0100
0000
0000
0000
0200
0000
,
0000
0000
0000
0000
0000
0000
0000
0000
0000
0000
0300
0000
0100
0000
0000
0001
,
0000
0101
0000
0000
0000
0000
0100
0000
,
0010
0101
0001
0010
,
0100
0010
1000
0010
,
1000
0001
0100
0001
,
0010
0100
0010
1000
,
0010
0100
0100
0001
,
0001
1000
0010
0001
,
1000
0010
0100
0010
,
0100
0001
1000
0001
,
1000
0110
0000
0010
,
0000
0011
0000
0010
,
0100
0110
0000
0010
,
1000
0100
0010
0000
0000
0000
0001
0000
,
0100
0010
0110
0000
0100
0000
0010
0000
,
0100
1000
0100
0010
,
0100
1000
0100
0001
,
0100
0010
0001
0010
,
0100
0000
1100
0000
0000
0010
0000
0000
,
0000
0110
0001
0010
,
1000
0000
0000
0000
0220
0000
0000
0000
0000
0000
0000
0330
0110
0000
0000
0000
,
0000
0110
0000
1100
,
0000
0011
0000
1010
,
0000
0101
0000
0010
,
0000
1000
0000
0100
,
0000
0010
0000
0001
,
0000
0220
0000
0000
,
0000
0330
1000
0010
,
0100
0001
0100
0010
,
1000
0100
0001
0010
,
0100
0001
1000
0100
,
0010
1000
0010
0100
,
0001
0010
0100
1000
,
0010
0100
0001
0010
,
1000
0010
0100
0010
,
0100
1000
0010
0100
,
0001
0000
0000
0000
1000
0000
0000
0000
0100
0000
0000
0000
0110
0000
0000
0010
,
0000
1000
0000
0000
0220
0000
0000
0000
,
0000
0000
0330
0000
;

//---------------dance-single - ----------------
#NOTEDATA:;
#CHARTNAME:;
#STEPSTYPE:dance-single;
#DESCRIPTION:;
#CHARTSTYLE:;
#DIFFICULTY:Beginner;
#METER:1;
#RADARVALUES:0.176669,0.242323,0.150407,0.125339,0.000000,148.000000,130.000000,18.000000,15.000000,0.000000,0.000000,0.000000,0.000000,0.000000,0.176669,0.242323,0.150407,0.125339,0.000000,148.000000,130.000000,18.000000,15.000000,0.000000,0.000000,0.000000,0.000000,0.000000;
#CREDIT:;
#NOTES:
0000
1100
0000
0000
,
0000
0110
0000
0000
,
0000
0011
0000
0000
,
0000
1001
0000
0001
,
1000
1001
0000
0000
,
0000
0010
0000
0000
,
0000
0100
0000
0000
,
0000
0001
0000
0010
,
0000
0100
0000
1000
,
0000
0010
0000
0010
,
0000
0100
0000
0100
,
0000
0001
0000
0001
,
0000
0010
0000
0010
,
0000
1000
0000
1000
,
0000
0100
0000
0100
,
0000
0001
0000
0001
,
0000
1100
0000
0000
,
0000
0011
0000
0000
,
0000
1100
0000
0100
,
0000
0001
0000
0100
,
0000
0010
0000
1000
,
0000
0100
0000
0010
,
1000
0100
0000
0010
,
0000
0001
0000
0100
,
0000
0001
0000
0010
,
0000
0020
0000
0000
,
0000
0030
0010
0000
0000
0100
0000
0000
,
0000
1000
0000
0000
0100
0000
0000
0000
,
0001
0000
0101
0000
0000
0100
0000
0000
,
0000
0001
0000
0000
0010
0000
0000
0000
,
0001
0000
0101
0000
0000
0100
0000
0000
,
0000
0001
0000
0000
0001
0000
0000
0000
,
0100
0000
0020
0000
0000
0030
0100
0000
,
0000
0100
0000
0200
,
0000
0000
0000
0000
0000
0300
1100
0000
,
0000
1200
0000
0000
0000
0000
0000
0000
,
0000
0301
0000
0010
,
0000
0100
0000
1000
,
0000
0100
0000
0001
,
0000
0010
0000
1000
,
0000
0100
0000
0001
,
0010
1000
0000
0010
,
0000
1000
0000
0010
,
0000
0001
0000
1000
,
0000
2000
0000
0000
,
0000
0000
0000
3000
0200
0000
0000
0000
0000
0000
0000
0000
0000
0000
0000
0000
,
0000
0000
0000
0300
0020
0000
0000
0000
0000
0000
0000
0000
0000
0000
0000
0000
,
0000
0000
0000
0030
0002
0000
0000
0000
0000
0000
0000
0003
0200
0000
0000
0000
,
0000
0000
0000
0300
0100
0000
0000
0000
0000
0000
0000
0000
0010
0000
0000
0000
,
0000
1000
0000
0010
,
0000
0001
0000
0100
,
0000
0010
0000
1000
,
0000
0100
0000
0001
,
0000
0100
0000
0010
,
0000
2020
0000
3030
,
0000
0010
0000
0100
,
0000
1000
0000
0001
,
0000
0101
0000
0000
,
0000
0110
0000
0000
,
0000
1001
0000
0000
,
0000
0202
0000
0000
,
0000
0303
0000
0100
,
0000
0001
0000
0010
,
0000
1000
0000
0010
,
0000
0100
0000
0010
,
0000
0001
0000
1000
,
0000
0010
0000
0001
,
0000
0100
0000
0001
,
0000
0010
0000
0100
,
0000
1000
0000
0100
,
0000
0010
0000
0100
,
0000
1000
0000
0000
2200
0000
0000
0000
,
0000
0000
3300
0000
;

//---------------dance-single - ----------------
#NOTEDATA:;
#CHARTNAME:;
#STEPSTYPE:dance-single;
#DESCRIPTION:;
#CHARTSTYLE:;
#DIFFICULTY:Medium;
#METER:7;
#RADARVALUES:0.436898,0.514936,0.200543,0.075204,0.045958,366.000000,342.000000,24.000000,9.000000,0.000000,0.000000,0.000000,0.000000,0.000000,0.436898,0.514936,0.200543,0.075204,0.045958,366.000000,342.000000,24.000000,9.000000,0.000000,0.000000,0.000000,0.000000,0.000000;
#CREDIT:;
#NOTES:
0000
0000
0001
0000
0000
0010
0000
0000
,
0100
0000
1100
0000
0000
0010
0100
0000
,
0001
0000
0101
0000
0000
0001
1000
0000
,
0000
0100
0110
0000
0000
0000
0001
0000
,
1000
0000
1010
0000
0010
0000
0100
0010
,
1000
0010
0100
0000
0001
0000
0010
0100
,
0001
0100
0010
0000
1000
0000
0100
0000
,
0001
0000
0011
0000
0100
0000
0001
0100
,
0001
0100
0010
0000
0000
0010
0000
0000
,
1000
0100
0001
0000
0000
0001
0000
0000
,
0100
0001
1000
0000
0000
1000
0000
0000
,
0010
1000
0100
0000
0000
0100
0000
0000
,
1000
0010
0001
0000
0000
0001
0000
0000
,
1000
0100
0010
0000
0000
0010
0000
0000
,
0001
0100
1000
0000
0000
1000
0000
0000
,
0001
1000
0100
0000
1000
0000
0010
0000
,
0001
0000
0101
0001
0100
0000
0001
0000
,
0100
0000
1010
1000
0010
0000
1000
0000
,
0010
0110
0100
1000
,
0001
0100
1000
0001
,
1000
0001
1000
0000
1000
0000
0100
0000
,
0001
0000
0100
0000
0010
0000
0100
0010
,
0100
0010
0100
0010
,
0001
0100
0001
0000
0010
0000
0100
0000
,
1000
0010
0001
0010
,
1000
0000
0010
0100
1000
0100
0010
0001
,
0010
0100
0110
0000
0010
0100
0000
1000
,
0000
0010
0000
1000
0001
0000
0100
0000
,
0010
1000
0100
0000
0010
0001
0000
0010
,
0000
1000
0000
0010
0100
0000
0100
0000
,
0010
0001
0100
0000
0010
0100
0000
1000
,
0000
0001
0000
0010
0020
0000
0100
0030
,
1000
0000
0100
0000
0102
0000
0000
0000
0000
0000
0003
0000
1000
0000
0000
0001
,
0000
0100
0010
0000
0000
0001
0100
0000
,
0010
0000
0000
0000
0001
0000
0010
0000
0100
0000
1000
0000
1100
0000
0000
0110
,
0000
0011
0000
0000
0000
0001
1000
0001
,
1000
0100
0110
0000
0010
0000
1000
0000
,
0010
0001
0100
0000
0010
0000
0100
0000
,
1000
0010
0001
0000
0100
0100
0000
0010
,
0000
0100
0000
0001
0000
0010
0000
0100
,
0000
0100
0100
0000
0010
0000
0001
0000
,
0100
1000
0010
0100
,
0001
1000
0100
1000
,
0010
0000
0001
0100
0010
0100
0001
1000
,
0100
1000
0020
0000
0030
0100
0200
0000
,
0300
0010
0021
0000
0030
0100
1000
0100
,
0010
0001
0021
0000
0030
0000
0010
0000
,
0100
0000
1000
0100
2000
0000
0000
0000
3000
0000
0000
0000
1000
0000
0000
0000
,
0010
0100
0110
0000
0100
0000
0010
0000
,
0001
1000
0010
0100
,
1000
1010
0010
0001
,
0010
0100
1000
0010
,
0100
1100
0100
0001
,
0100
0101
0010
0001
,
0011
0000
1000
0010
0100
0010
1000
0000
,
0100
0001
0100
0000
0010
1000
0010
0000
,
0001
0000
0100
0000
1000
0000
0010
0001
0000
0010
0000
0100
0000
1000
0000
0100
,
0000
0010
0000
0010
0010
0000
0000
0000
1000
0000
0000
0000
0010
0000
0000
0000
,
1000
0100
0010
0001
,
0010
0001
0100
1000
,
0001
0000
0100
0001
0100
0010
0100
1000
,
0100
0010
0110
0000
0100
0000
1000
0000
,
0100
1000
0100
0000
0010
0000
0001
0000
,
0001
0010
0100
0000
0010
0010
0000
0100
,
0000
1000
0000
0100
0000
0001
0000
1000
,
0000
0100
0010
0000
0100
0000
0010
0000
,
1000
0010
1000
0100
,
0010
0001
0100
0010
,
0001
0010
1000
0010
,
0100
0000
1000
0100
1000
0100
0001
0100
,
0010
0000
0010
0000
0100
0000
0010
0000
1000
0000
0010
0000
0110
0000
0000
1000
,
0000
0001
0000
0000
0220
0000
0000
0000
,
0000
0000
0330
0000
;
