#VERSION:0.83;
#TITLE:Cherry Blossom;
#SUBTITLE:;
#ARTIST:Memme;
#TITLETRANSLIT:;
#SUBTITLETRANSLIT:;
#ARTISTTRANSLIT:;
#GENRE:EDM;
#ORIGIN:;
#CREDIT:;
#BANNER:Cherry_Blossom_Banner.png;
#BACKGROUND:Cherry_Blossom_Background.png;
#PREVIEWVID:;
#JACKET:;
#CDIMAGE:;
#DISCIMAGE:;
#LYRICSPATH:;
#CDTITLE:;
#MUSIC:Cherry_Blossom.ogg;
#OFFSET:-0.137000;
#SAMPLESTART:18.359997;
#SAMPLELENGTH:15.000000;
#SELECTABLE:YES;
#DISPLAYBPM:170.000000;
#BPMS:0.000=170.000,
80.000=255.000,
82.500=170.000,
115.000=255.000,
115.750=85.000,
116.000=170.000,
148.000=255.000,
148.750=85.000,
149.000=170.000,
155.000=255.000,
155.750=85.000,
156.000=170.000,
211.000=255.000,
211.750=85.000,
212.000=170.000,
213.000=255.000,
218.000=170.000,
219.000=255.000,
219.750=85.000,
220.000=170.000,
228.000=255.000,
228.750=85.000,
229.000=170.000,
368.000=255.000,
370.500=170.000;
#STOPS:80.000=0.118,
81.000=0.118,
82.000=0.058,
213.000=0.058,
213.500=0.029,
213.750=0.059,
214.250=0.029,
214.500=0.030,
214.750=0.030,
215.000=0.059,
215.500=0.059,
216.000=0.029,
216.250=0.059,
216.750=0.029,
217.000=0.059,
217.500=0.059,
368.000=0.118,
369.000=0.118,
370.000=0.058;
#DELAYS:;
#WARPS:;
#TIMESIGNATURES:0.000=4=4;
#TICKCOUNTS:0.000=4;
#COMBOS:0.000=1;
#SPEEDS:0.000=1.000=0.000=0;
#SCROLLS:0.000=1.000;
#FAKES:;
#LABELS:0.000=Song Start;
#BGCHANGES:;
#KEYSOUNDS:;
#ATTACKS:
;

//---------------dance-single - ----------------
#NOTEDATA:;
#CHARTNAME:;
#STEPSTYPE:dance-single;
#DESCRIPTION:;
#CHARTSTYLE:;
#DIFFICULTY:Challenge;
#METER:11;
#RADARVALUES:0.944557,1.110564,0.345672,0.308898,0.786956,899.000000,852.000000,47.000000,42.000000,14.000000,0.000000,10.000000,0.000000,0.000000,0.944557,1.110564,0.345672,0.308898,0.786956,899.000000,852.000000,47.000000,42.000000,14.000000,0.000000,10.000000,0.000000,0.000000;
#CREDIT:Benpai;
#DISPLAYBPM:170.000000;
#NOTES:
0000
0000
0000
0000
,
0001
0000
1000
0000
0001
0000
1000
0000
0001
0000
1000
0001
1000
0000
0010
0000
,
0100
0000
0001
0100
0001
0000
0010
0000
0100
0000
1000
0100
1000
0000
0010
0100
,
0010
0000
1000
0000
0010
0000
1000
0000
0001
0000
0010
0100
1000
0000
1200
0000
,
0000
0300
1000
0000
0100
0000
0010
0000
0002
0000
1000
0000
0203
0000
0010
0000
,
0301
0000
0011
0000
0000
1000
1001
0001
,
0000
1000
1010
0000
0000
1000
1100
0100
,
1000
0000
0001
0000
1001
0000
1000
0000
0001
0000
0100
0010
0100
0000
0001
0000
,
0010
0001
1000
0000
0100
0000
1000
0000
0001
0010
0100
1000
0100
0010
0100
1000
,
0001
0000
0100
0010
0000
0010
0000
0100
0001
0000
1000
0000
0010
0000
1000
0000
,
0001
0000
0100
0001
0000
0001
0000
1000
0001
0000
0010
0000
0100
0000
1000
0000
,
0010
0000
0100
0010
0000
0010
0000
1000
0001
0000
0100
0001
0100
0000
0010
0000
,
1000
0000
0100
0000
1000
0000
0001
0000
0010
0100
0010
0100
0010
0000
0100
0010
,
0002
0000
0000
0000
1003
0000
0010
0100
0010
0000
1000
0001
1000
0000
0100
0000
,
1000
0000
0010
1000
0100
0000
0010
0001
4000
0000
0000
0000
3001
0000
0100
0000
,
0020
0000
0000
0000
0130
0000
0001
0010
0001
0000
1000
0100
0010
0000
0100
0000
,
0010
0000
0001
0100
0010
0000
0100
0000
0101
0000
0000
0000
1010
0000
1000
0000
,
0200
0000
0000
0000
0310
0000
0001
0010
0100
0000
0010
0100
1000
0000
0100
0000
,
1000
0000
0010
0100
0001
0000
0100
0001
0040
0000
0000
0000
0031
0000
0100
0000
,
0101
0000
0000
0000
0000
0000
1000
0000
0000
0010
0000
0000
1010
0000
0000
1000
0010
1000
0010
0000
0000
010M
0000
0000
,
0120
0030
2001
30M0
0102
0023
0030
0100
,
1000
0100
1000
0010
0100
0001
0010
0100
,
0010
0000
0000
0001
0100
0001
0100
0000
0000
0010
0000
0000
1000
0000
0000
0001
0000
0000
0010
0000
0000
0100
0000
0000
,
1000
0000
0001
0100
0001
0000
0010
0000
0100
0000
0010
0100
1000
0000
0001
0000
,
1000
0000
0010
0100
0010
0000
1000
0000
0002
0000
0000
0000
0013
0000
0100
1000
,
0100
0000
1000
0000
0001
0000
0100
0010
0100
0000
0000
0000
0001
0000
1000
0001
,
1000
0000
0001
0100
0001
0010
0100
0010
0001
0000
0000
0000
0100
0000
0010
0000
,
0400
0000
0000
0000
0300
0000
0010
1000
0001
0000
0000
0000
0102
0000
0000
0000
,
0013
0000
0100
0010
0001
0000
0010
0000
0001
1000
0010
1000
040M
0000
0000
0000
,
1300
0000
0000
0001
0000
0000
0100
0000
0000
0001
0100
0010
1000
0000
0000
0001
0000
0000
0010
0000
0000
0100
0000
0000
,
1000
0000
0010
0100
0001
0000
0010
0000
0200
0000
0000
0000
0310
0000
0001
0000
,
0010
0000
0000
0000
0100
0000
1000
0010
1000
0000
0001
1000
0001
0000
0010
0100
,
1000
0000
0100
0010
0100
0000
1000
0000
0002
0000
0000
0000
0103
0000
0001
1000
,
0100
0000
0010
0000
0001
0000
0010
0100
0010
0000
0100
1000
0100
0000
0010
0100
,
1000
0000
0001
0010
0001
0100
0010
1000
0020
0000
0000
0130
0001
0010
0100
1000
,
0100
0010
0001
0100
0010
0100
0001
0010
0100
1000
0010
0100
0001
0000
0000
0000
,
0001
0000
0000
1000
0001
0000
1000
0010
0100
0000
0010
0100
0001
0000
1000
0000
,
21M0
0000
0000
3000
0001
0000
0000
1100
0000
0000
0010
0000
1020
0000
0030
0000
,
1000
0001
1000
0001
0010
0100
0010
0100
0010
0001
1000
0100
4000
0000
0000
3000
,
0010
0000
1000
0000
0100
0010
0100
0010
0001
0010
0100
1000
0100
0010
0100
1000
,
0001
0100
0010
1000
0001
0100
0010
0100
0001
0010
0100
0010
0001
1000
0100
1000
,
0100
0000
1000
0001
0100
0000
0101
0000
0001
0010
0100
0010
0001
1000
0010
1000
,
0001
0000
0100
0001
1000
0000
1001
0000
0001
1000
0001
0010
0100
1000
0001
0100
,
0001
0010
0100
1000
0001
1000
0010
0100
0001
1000
0100
0010
0001
0000
0000
0000
,
0100
0000
1000
0100
0001
0000
0000
0000
1001
0000
0000
0000
MMMM
0000
0000
0000
,
1000
0000
0100
1000
0000
1000
0000
0010
0100
0000
0001
0000
1000
0000
0100
0000
,
1000
0000
0001
0100
0000
0100
0000
0001
0010
0000
0100
0000
1000
0000
0001
0000
,
1000
0000
0001
0010
0000
0010
0000
0001
1000
0000
0010
0000
0100
0000
0001
0000
,
0010
0000
0100
1000
0000
1000
0000
0001
0010
0100
0010
0001
1000
0000
0100
0000
,
2100
0000
3000
0000
0100
0000
0010
0100
0000
0010
0000
0001
1000
0000
0010
0000
,
1000
0000
0100
0000
0010
0000
0001
0010
0000
0001
0000
0100
0010
0000
1000
0000
,
0001
0010
0001
1000
0100
1000
0020
0130
,
0040
0000
1030
0001
0000
1000
0001
1000
0100
0010
0001
0000
M011
0000
0000
0000
,
1002
0000
0000
0000
M103
0000
0010
0100
0000
0010
1000
0001
1000
0000
0001
0000
,
0001
0010
0000
0001
1000
0000
0010
0000
1000
0000
0M01
0000
1002
0000
0000
0000
,
0103
0000
0010
1000
0010
0000
0100
0001
0000
0100
0001
1000
0001
0000
0010
0000
,
0100
1000
0000
0100
1000
0000
0001
1000
0100
0010
0100
1000
0100
0000
0000
0000
,
2000
0000
0000
0000
0000
0000
0000
0000
0000
0000
0000
0000
0000
0000
0000
0000
3001
0000
0000
0000
0000
0000
0000
0000
0100
0000
0000
0000
0000
0001
0000
0000
0000
0000
0000
0000
1000
0000
0000
0000
0001
0000
0000
0000
0010
0000
0000
0000
0100
0000
0000
0000
0000
0000
0000
0000
0100
0000
0000
0000
0000
0000
0000
0000
,
1000
0000
0000
0000
0000
0100
0000
0000
0000
0000
0000
0000
0000
1000
0000
0000
0100
0000
0000
0000
0000
0010
0000
0000
0004
0000
0000
0000
0000
0000
0000
0000
0403
0000
0000
0000
0000
0000
0000
0000
0301
0000
0000
0000
0000
0000
0000
0000
M104
0000
0000
0000
0000
0000
0000
0000
0000
0000
0000
0000
0003
0000
0000
0000
,
1000
0000
0010
0000
0100
0000
0001
1000
0001
1000
0000
0100
0010
0100
0010
0000
,
0011
0000
0000
1010
0000
0000
0110
0000
0000
0101
0000
0000
1001
0000
0000
0000
,
1000
0000
0100
0000
1000
0000
0002
0000
0000
0000
0013
0100
0010
0000
0100
0000
,
0010
0000
0001
1000
0100
0000
1000
0000
0010
0000
0100
0000
0110
0000
0010
0000
,
2000
0000
3100
0010
0001
0000
0040
0000
0000
0000
0031
0000
0001
0000
0100
0000
,
0010
0000
1000
0100
0010
0000
0100
0010
0001
1000
0010
0100
0001
0000
0021
0000
,
0000
0000
0130
1200
0000
1300
1002
0000
,
0100
0000
0000
0000
1000
0000
0000
0000
0103
0000
0000
0000
0220
0000
0000
0330
,
0001
0000
0010
0100
1000
0000
0001
0000
0100
0000
0001
0000
1100
0000
1000
0000
,
0100
0010
0001
1000
0010
0100
0002
0000
,
1003
0000
0001
0000
1000
0000
0001
0000
1000
0000
0001
0100
0001
0000
0010
0000
,
0100
0000
1000
0100
1000
0000
0010
0000
1000
0000
0010
0100
0010
0000
1000
0100
,
0010
0000
0100
0000
1000
0000
0001
0000
0100
0010
1000
0100
0010
0000
0011
0000
,
0001
0010
0001
0100
0020
0030
2000
3000
,
0100
0000
0010
0000
0100
0000
0010
0000
0100
0000
1000
0001
1000
0000
0010
0000
,
0100
0000
0001
1000
0001
0000
0010
0100
0010
0000
0001
0000
1000
0000
0010
0000
,
0110
0000
0100
0000
0001
0000
1000
0000
0100
0000
1000
0010
0100
0000
1000
0000
,
0100
0010
0100
0001
0010
0000
0012
0000
,
0103
0000
0001
0000
0010
0000
0001
0000
0010
0000
0100
1000
0100
0000
0010
0000
,
0001
0000
1000
0010
1000
0000
0010
0000
0100
0001
0100
0001
1000
0000
0001
0010
,
0001
0000
1000
0001
0100
0000
0010
0000
1000
0100
1000
0001
0010
0000
0001
0000
,
1000
0100
1000
0001
0101
0000
2100
0000
,
3001
0000
0010
0000
0001
0000
0100
0000
0010
0000
1000
0100
1000
0000
0010
0000
,
0100
0000
0001
0100
0010
0000
0100
0001
0010
0000
0100
0010
0001
0000
0010
0000
,
0100
0000
0010
0000
0010
0000
0100
0000
1000
0000
0001
1000
0001
0000
0100
0000
,
1010
0000
1000
0000
0001
0000
0001
0000
0010
0100
0010
0100
0010
0001
1000
0100
,
0020
0000
0000
0000
0031
0000
1000
0010
1000
0000
0001
0100
0001
0000
1000
0000
,
0100
0000
0010
0001
0010
0000
0001
0000
1000
0000
0010
0000
1000
0000
0100
0000
,
2000
0000
0000
0000
3010
0000
0100
0010
0100
0000
0001
1000
0001
0000
0010
0000
,
0001
0000
0010
0100
1000
0000
0010
0000
1010
0000
0000
0000
0101
0000
0001
0000
,
0200
0000
0000
0000
0301
0000
0010
0100
1000
0000
0001
0010
0001
0000
1000
0000
,
0100
0000
1000
0010
0100
0001
0010
0001
0100
0000
0100
0000
0001
0000
0001
0000
,
1000
0000
1000
0000
0010
0000
0010
0000
1000
0100
1000
0100
0010
0000
M001
0000
,
2001
3000
0102
M003
2010
3002
0003
1000
,
0000
0100
0010
0100
2000
0000
0000
0000
,
0000
0000
0000
3010
0000
0000
0000
0000
;

//---------------dance-single - ----------------
#NOTEDATA:;
#CHARTNAME:;
#STEPSTYPE:dance-single;
#DESCRIPTION:;
#CHARTSTYLE:;
#DIFFICULTY:Beginner;
#METER:1;
#RADARVALUES:0.094561,0.136062,0.000000,0.000000,0.000000,90.000000,90.000000,0.000000,0.000000,5.000000,0.000000,0.000000,0.000000,0.000000,0.094561,0.136062,0.000000,0.000000,0.000000,90.000000,90.000000,0.000000,0.000000,5.000000,0.000000,0.000000,0.000000,0.000000;
#CREDIT:Benpai;
#DISPLAYBPM:170.000000;
#NOTES:
0000
0000
0000
0000
,
0000
0000
0000
0000
,
0000
0000
0000
0000
,
0000
0000
0000
0000
,
0000
0000
0000
0000
,
0001
0000
0000
0000
,
1000
0000
0000
0000
,
0010
0000
0000
0000
,
1000
0000
0000
0000
,
0100
0000
0000
0000
,
1000
0000
0000
0000
,
0001
0000
0000
0000
,
0100
0000
0000
0000
,
0001
0000
0000
0000
,
0010
0000
0000
0000
,
0100
0000
0000
0000
,
1000
0000
0000
0000
,
0010
0000
0000
0000
,
0100
0000
0000
0000
,
0001
0000
0000
0000
,
1000
0000
0000
0000
,
0001
0000
0000
0000
,
0100
0000
0000
0000
,
0001
0000
0000
0000
,
1000
0000
0000
0000
,
0100
0000
0000
0000
,
1000
0000
0000
0000
,
0010
0000
0000
0000
,
0100
0000
0000
M000
,
0001
0000
0000
0000
,
1000
0000
0000
0000
,
0001
0000
0000
0000
,
0100
0000
0000
0000
,
0010
0000
0000
0000
,
0100
0000
0000
0000
,
0001
0000
0000
0000
,
0010
0000
0000
0000
,
M100
0000
0000
0000
,
0010
0000
0000
M000
,
0001
0000
0000
0000
,
1000
0000
0000
0000
,
0010
0000
0000
0000
,
0100
0000
0000
0000
,
0010
0000
0000
0000
,
1000
0000
0000
0000
,
0100
0000
0000
0000
,
0010
0000
0000
0000
,
0001
0000
0000
0000
,
0010
0000
0000
0000
,
0100
0000
0000
0000
,
1000
0000
0000
0000
,
0001
0000
0000
0000
,
0100
0000
0000
M000
,
0010
0000
0000
0000
,
1000
0000
0M00
0000
,
0001
0000
0000
0000
,
1000
0000
0000
0000
,
0001
0000
0000
0000
,
0100
0000
0000
0000
,
0001
0000
0000
0000
,
0010
0000
0000
0000
,
0100
0000
0000
0000
,
0010
0000
0000
0000
,
0100
0000
0000
0000
,
1000
0000
0000
0000
,
0001
0000
0000
0000
,
0100
0000
0000
0000
,
0001
0000
0000
0000
,
1000
0000
0000
0000
,
0100
0000
0000
0000
,
1000
0000
0000
0000
,
0010
0000
0000
0000
,
0100
0000
0000
0000
,
0001
0000
0000
0000
,
1000
0000
0000
0000
,
0100
0000
0000
0000
,
1000
0000
0000
0000
,
0001
0000
0000
0000
,
0010
0000
0000
0000
,
0001
0000
0000
0000
,
0100
0000
0000
0000
,
0010
0000
0000
0000
,
1000
0000
0000
0000
,
0100
0000
0000
0000
,
0010
0000
0000
0000
,
0100
0000
0000
0000
,
1000
0000
0000
0000
,
0001
0000
0000
0000
,
1000
0000
0000
0000
,
0010
0000
0000
0000
,
1000
0000
0000
0000
,
0100
0000
0100
0000
,
1000
0000
0001
0000
;

//---------------dance-single - ----------------
#NOTEDATA:;
#CHARTNAME:;
#STEPSTYPE:dance-single;
#DESCRIPTION:;
#CHARTSTYLE:;
#DIFFICULTY:Easy;
#METER:3;
#RADARVALUES:0.212236,0.272125,0.007355,0.132385,0.018387,202.000000,201.000000,1.000000,18.000000,18.000000,0.000000,0.000000,0.000000,0.000000,0.212236,0.272125,0.007355,0.132385,0.018387,202.000000,201.000000,1.000000,18.000000,18.000000,0.000000,0.000000,0.000000,0.000000;
#CREDIT:Benpai;
#DISPLAYBPM:170.000000;
#NOTES:
0000
0000
0000
0000
,
2000
0000
0000
0000
,
3002
0000
0000
0000
,
0023
0000
0000
0000
,
0230
0000
0000
0000
,
1300
0000
0000
0000
,
0001
0000
0000
0000
,
0100
0000
0000
0000
,
0010
0000
1000
0000
,
0100
0000
0010
0000
,
0100
0000
1000
0000
,
0001
0000
0100
0000
,
0001
0000
0010
0000
,
0001
0000
1000
0000
,
0010
0000
1000
0000
,
0100
0000
0010
0000
,
0001
0000
0100
0000
,
0010
0000
1000
0000
,
0010
0000
1000
0000
,
0001
0000
0100
M000
,
0010
1000
0100
0000
,
1000
0000
0001
0000
,
0100
0000
0001
0000
,
0010
0000
0100
0000
,
0010
0000
0001
0000
,
0100
0000
0010
0000
,
1000
0000
0100
0000
,
0010
0000
0001
0000
,
0100
0000
0001
M020
,
0031
0000
1000
0000
,
0010
0000
1000
0000
,
0001
0000
0100
0000
,
0010
0000
1000
0000
,
0100
0000
1000
0000
,
0100
0000
0010
0000
,
0001
0000
0100
0000
,
0010
0000
0100
0000
,
M002
0013
0000
0100
,
0000
0010
0000
0M02
,
1003
0000
0010
0000
,
1000
0000
0100
0100
,
2000
0000
3000
0001
,
0200
0000
0300
0010
,
1000
0001
1000
0002
,
0013
0002
0000
0000
,
0103
0000
0010
0000
,
0100
0000
0001
0000
,
1000
0000
0001
0000
,
0010
0000
0100
0200
,
0310
0000
0001
0000
,
1000
0000
0010
0000
,
1000
0000
0100
0000
,
1000
1000
0010
000M
,
0200
0000
0000
0000
000M
0000
00M0
000M
0000
M000
00M0
M000
00M0
0000
M000
0000
,
032M
M000
0000
M000
000M
0000
M000
0000
0130
0000
0000
0000
0002
0000
0000
0000
,
1003
0000
0100
0000
,
1000
0001
1000
0001
,
0020
0130
0000
0010
,
0000
0001
0000
1000
,
0010
0000
0100
0000
,
0002
0000
0003
1001
,
1000
0001
0000
0100
,
0000
0010
0000
1000
,
0000
0100
0000
1000
,
0001
1000
0010
0200
,
0000
0301
0000
1000
,
0100
0010
0100
1000
,
0001
0000
0100
0000
,
0010
0000
1000
0000
,
0100
0000
0010
0000
,
0001
0000
0100
0000
,
0010
0000
0100
0000
,
0001
0000
0010
0000
,
0001
1000
0000
0001
,
0010
0001
0000
1000
,
0010
0000
1000
0001
,
0010
0100
0010
0001
,
0100
0000
0010
0000
,
0100
0000
0001
0000
,
0010
0000
0100
0000
,
1000
0000
0010
0010
,
0100
0000
0001
0000
,
1000
0000
0100
0000
,
1000
0000
0001
0000
,
0010
0001
0010
0000
,
0100
0000
0010
0000
,
0001
0000
0100
0000
,
0001
0000
1000
0000
,
0010
0000
0100
0000
,
0010
0000
1000
0000
,
0100
0000
0010
0000
,
0001
0000
0001
0000
,
0010
0100
1000
0000
;

//---------------dance-single - ----------------
#NOTEDATA:;
#CHARTNAME:;
#STEPSTYPE:dance-single;
#DESCRIPTION:;
#CHARTSTYLE:;
#DIFFICULTY:Medium;
#METER:7;
#RADARVALUES:0.481209,0.520577,0.102966,0.301544,0.011032,458.000000,444.000000,14.000000,41.000000,12.000000,0.000000,1.000000,0.000000,0.000000,0.481209,0.520577,0.102966,0.301544,0.011032,458.000000,444.000000,14.000000,41.000000,12.000000,0.000000,1.000000,0.000000,0.000000;
#CREDIT:Benpai;
#DISPLAYBPM:170.000000;
#NOTES:
0000
0000
0000
0000
,
0001
0010
0001
0100
,
0010
1000
0100
1000
,
0010
0000
0100
0000
0001
0010
0000
0001
,
0200
0010
0001
0310
,
0001
0000
0011
0000
0000
1000
0001
0100
,
0000
0001
1000
0000
0000
0100
0010
0100
,
2000
3020
0230
0302
,
0013
0100
0010
0100
1000
0000
1000
0000
,
0001
0000
0100
0000
0010
0100
0010
0000
,
1000
0000
0100
0000
0010
0001
0010
0000
,
0001
0000
0100
0000
0010
1000
0010
0000
,
1000
0001
1000
0001
0040
0000
0130
0000
,
0100
0010
0001
0100
,
0010
1000
0100
1000
,
0010
0100
0010
1000
,
0001
0010
0110
0110
,
0100
1000
0001
0100
,
0010
1000
0001
0010
,
0002
1003
0020
M130
,
00M2
0003
2M00
3000
00M2
2003
0000
0000
,
3100
0000
1000
0001
0000
0100
0010
1000
,
0100
1000
0100
0010
0000
0000
0100
0010
,
0000
0000
0000
0010
0001
1000
0001
0100
,
0010
0000
1000
0000
0001
0000
0010
0100
,
0010
0000
0001
1000
0100
0000
0010
0100
,
1000
0000
0001
0000
0100
0000
0010
1000
,
0010
0000
0000
0100
0001
0000
0020
0000
,
0230
0000
2300
0000
3001
0100
M020
0000
,
1030
0000
1001
0000
0001
0010
0001
0000
,
0100
0000
0110
0000
0010
1000
0010
0000
,
1000
0000
1100
0000
0100
0010
0001
0000
,
0010
0000
0011
0000
1000
0001
1000
0000
,
0001
0000
1001
0000
1000
0010
0100
0000
,
0010
0000
1010
0000
1000
0100
0010
0100
,
1000
0001
0100
0001
,
0010
0000
0100
0000
0010
0001
1000
0100
,
200M
0000
0000
0000
3010
0000
0000
0100
0000
0000
0001
0000
0200
0000
0000
0000
,
0310
1000
0100
M020
,
0031
1000
0010
0100
,
0010
0100
0010
0100
0001
1000
0001
1000
,
0100
0000
1000
0010
0000
0000
0100
0010
,
1000
0000
0100
0010
0000
0001
0010
0000
,
0100
0000
0010
0000
0001
1000
0002
0000
,
0103
0010
2000
0000
3000
0000
MMMM
0000
,
0001
0100
0010
1000
,
0100
0010
0001
1000
,
0100
1000
0001
0100
,
0010
0000
0100
0000
0001
1000
0200
0000
,
1300
0001
0010
0001
,
1000
0010
0100
0001
,
1000
0001
1000
0001
0100
0010
0100
0010
,
1000
0100
0000
1000
0010
0000
011M
0000
,
0100
0000
0001
1000
0000
0100
0010
0000
,
0100
1000
0001
1000
0100
0000
2000
0000
,
3010
0100
0010
1000
,
0100
0000
0010
0000
0100
0010
0001
0000
,
2000
0000
3010
0000
1000
0100
0010
0000
,
0100
0000
0010
0001
0000
0100
0010
1000
,
0002
0000
1003
0000
0000
0100
0010
0000
,
0001
0000
0000
1000
0000
0000
0001
0000
0000
1000
0000
0000
1001
0000
0000
0000
,
0002
0000
0013
0200
0000
0300
0010
0001
,
1000
0010
1000
0100
0010
0000
0100
0000
,
2000
0000
3100
0020
0000
0030
0100
1000
,
0001
0010
0001
0100
0010
0000
1000
0002
,
0000
0003
0010
0200
0000
1300
0002
0000
,
0000
0000
0000
1003
,
0010
0100
0001
0010
,
0001
0000
0100
0010
1000
0000
0002
0000
,
0103
0010
1000
0100
,
1000
0001
0100
0001
,
0010
0000
0100
0000
0010
0001
0000
0010
,
0002
1000
0100
1000
,
0103
0000
0010
0000
0000
1000
0001
0010
,
0000
0010
0001
1000
0000
0010
1000
0100
,
0010
0000
0100
0010
0100
0000
1000
0001
,
0000
0100
0001
0010
0001
0000
1001
0000
,
1000
0010
1000
0100
,
0010
0100
0010
0001
,
0100
0010
0100
0001
,
1000
0100
1100
1100
,
1000
0001
0100
0001
,
0010
0100
0010
0100
,
1000
0001
0100
0010
,
0100
0001
0020
0000
,
0130
0000
1000
0001
1000
0000
0010
0100
,
0001
0000
0010
0000
0200
0000
0310
0001
,
0010
0000
0001
0100
0010
0000
1000
0100
,
0010
0100
1000
0001
,
0100
0000
0001
0010
0100
0000
0010
0001
,
0100
0001
2000
0001
,
3001
0010
0001
0010
0100
1000
0100
1000
,
0020
0030
0200
0300
0002
2003
0000
3010
,
0000
0100
0002
0000
,
0000
0000
0000
1003
0000
0000
0000
0000
;

//---------------dance-single - ----------------
#NOTEDATA:;
#CHARTNAME:;
#STEPSTYPE:dance-single;
#DESCRIPTION:;
#CHARTSTYLE:;
#DIFFICULTY:Hard;
#METER:9;
#RADARVALUES:0.710256,0.694102,0.058838,0.529540,0.246383,676.000000,668.000000,8.000000,72.000000,13.000000,0.000000,2.000000,0.000000,0.000000,0.710256,0.694102,0.058838,0.529540,0.246383,676.000000,668.000000,8.000000,72.000000,13.000000,0.000000,2.000000,0.000000,0.000000;
#CREDIT:Benpai;
#DISPLAYBPM:170.000000;
#NOTES:
// measure 0
0000
0000
0000
0000
,  // measure 1
1000
0010
1000
0010
0100
0001
0010
0001
,  // measure 2
0100
0001
1000
0100
1000
0010
0100
0001
,  // measure 3
0010
0100
1000
0001
1000
0010
0000
0200
,  // measure 4
0000
0300
0010
0000
0100
0000
0010
0000
2000
0000
0000
0000
3200
0000
0000
0000
,  // measure 5
1300
0000
1020
0000
0000
0130
0001
0010
,  // measure 6
0000
0100
0010
0000
0100
1000
0001
0100
,  // measure 7
0001
0000
0010
0000
0010
0000
0100
0000
1000
0000
0100
0010
0001
0000
1000
0000
,  // measure 8
0100
1000
0100
0010
0400
0000
0000
0000
,  // measure 9
1300
0000
0000
0001
0000
0000
0010
0000
0001
0000
1000
0000
0100
0000
1000
0000
,  // measure 10
0010
0000
0000
0100
0000
0000
0001
0000
0010
0000
0100
0000
0010
0000
0001
0000
,  // measure 11
1000
0010
1000
0010
0100
0001
0010
0001
,  // measure 12
1000
0000
0001
0000
1000
0000
0001
0000
1000
0001
1000
0001
2000
0000
0000
0000
,  // measure 13
3200
0000
0000
0000
0310
0000
0000
0001
0010
0000
0000
0100
1000
0000
0000
0100
,  // measure 14
2000
0000
3000
0001
0100
0000
0010
0000
2000
0000
0000
0000
3001
0000
0100
0000
,  // measure 15
0002
0000
0000
0000
0013
0000
0000
0100
0010
0000
0000
0100
1000
0000
0001
0000
,  // measure 16
0100
0001
0010
0100
2000
3000
0002
0003
,  // measure 17
2000
0000
0000
0000
3010
0000
0000
0100
0001
0000
0000
1000
0100
0000
0000
0010
,  // measure 18
0001
0000
0000
0100
0001
0000
1000
0000
0200
0000
0000
0000
1300
0000
0001
0000
,  // measure 19
1001
0000
0000
0000
1000
0000
0010
0000
0100
0000
0010
0100
0010
0000
100M
0000
,  // measure 20
0200
0300
2000
30M0
0002
0203
0300
0010
,  // measure 21
1000
0001
0100
0010
1000
0100
0010
0100
,  // measure 22
1000
0000
0001
0010
0001
1000
0100
0000
1000
0000
0001
0000
0100
0000
0010
0000
,  // measure 23
1000
0000
0001
0000
0010
0000
0001
0000
0100
0000
0001
0100
0010
0000
1000
0000
,  // measure 24
0100
0000
0010
0001
1000
0000
0010
0000
2000
0000
0000
0000
3001
0000
0010
0000
,  // measure 25
0100
0000
0000
0000
0010
0000
0100
0000
1000
0000
0000
0000
0001
0000
0100
0010
,  // measure 26
1000
0000
0001
0000
0100
0010
1000
0000
0001
0000
0000
0000
1000
0000
0100
0000
,  // measure 27
0020
0000
0000
0000
0030
0000
0100
1000
0001
0000
0000
0000
0200
0000
0000
0000
,  // measure 28
0320
0000
2030
0000
3001
0010
020M
0000
,  // measure 29
1300
0000
0000
0000
0001
0000
0000
1000
0001
0000
0010
0000
0001
0000
0100
0000
,  // measure 30
0010
0000
1000
0100
1000
0000
0010
0000
2000
0000
0000
0000
3100
0000
0010
0000
,  // measure 31
0001
0000
0000
0000
0100
0000
0000
0001
0010
0000
0000
0100
1000
0000
0010
0000
,  // measure 32
1000
0000
0100
0010
0100
0000
0010
0000
0200
0000
0000
0000
1300
0000
0001
0000
,  // measure 33
0100
0000
0010
0000
1000
0000
0100
0010
0001
0000
0010
0100
0010
0000
0001
0000
,  // measure 34
1000
0000
0010
0000
1000
0000
0001
0000
0020
0000
0000
0030
0001
0000
1000
0000
,  // measure 35
0100
0010
0100
1000
0001
0100
0010
0000
,  // measure 36
1000
0000
0000
0001
0010
0000
0100
0000
1000
0000
0010
0000
0100
0000
0001
0000
,  // measure 37
20M0
0000
0000
3000
0001
0000
0000
0100
0000
0000
0010
0000
2000
0000
3000
0000
,  // measure 38
0100
0010
0001
0010
0100
1000
0040
0000
,  // measure 39
0130
0001
0100
0001
0010
0100
1000
0010
,  // measure 40
0100
0010
1000
0001
0010
0100
0010
0001
,  // measure 41
0200
0000
0000
0000
0310
0000
2000
0000
0000
0000
3100
0010
0001
0000
2000
0000
,  // measure 42
3002
0000
0000
0000
0103
0000
0002
0000
0000
0000
0013
0100
1000
0000
0001
0000
,  // measure 43
0100
0000
0001
0000
1000
0000
0100
0000
0010
0000
0100
0010
0001
0000
0000
0000
,  // measure 44
0100
0000
0010
0100
0020
0000
0000
0000
0030
0000
0000
0000
MMMM
0000
0000
0000
,  // measure 45
1000
0000
0000
0001
0000
0000
0100
0000
0010
0000
1000
0000
0100
0000
0010
0000
,  // measure 46
0100
0000
0000
1000
0000
0000
0001
0000
0010
0000
0001
0000
1000
0000
0010
0000
,  // measure 47
1000
0000
0000
0001
0000
0000
0100
0000
0010
0000
1000
0000
0100
0000
0010
0000
,  // measure 48
0001
0000
0000
1000
0000
0000
0010
0000
1000
0000
0001
1000
0001
0000
0100
0000
,  // measure 49
0010
0000
0000
1000
0000
0000
0001
0000
1000
0000
0001
0000
0010
0000
0100
0000
,  // measure 50
0010
0000
0000
0100
0000
0000
0010
0000
0001
0000
0100
0000
0010
0000
1000
0000
,  // measure 51
0001
0001
0100
0100
0010
0010
1000
0001
,  // measure 52
0020
0000
0031
1000
0000
0001
0010
0001
0010
0000
0100
0000
M020
0000
0030
0000
,  // measure 53
0002
0000
0000
0000
M013
0000
0001
0010
0000
0001
1000
0000
0010
0000
0100
0000
,  // measure 54
0001
1000
0000
0001
1000
0000
0010
0000
0100
0000
0001
0000
0002
0000
0000
0000
,  // measure 55
0013
0000
0000
0000
0100
0000
0010
0001
0000
0010
0001
0000
1000
0000
0010
0000
,  // measure 56
0100
0010
0000
0100
0010
0000
1000
0000
0100
0000
0010
0000
0200
0000
0000
0000
,  // measure 57
2300
0000
0000
0000
3001
0000
0100
0001
0000
0100
0000
0010
0100
0000
0001
0000
,  // measure 58
1000
0100
0000
1000
0100
0000
0020
0000
0230
0000
1300
0000
0020
0000
0000
0000
,  // measure 59
1030
0000
0010
0000
0100
0000
0001
1000
0001
0000
1000
0001
1000
0000
0010
0000
,  // measure 60
2000
0000
3000
0200
0000
0300
0020
0000
0030
0002
0000
0003
1001
0000
0000
0000
,  // measure 61
2000
0000
3010
0200
0000
0310
0100
0001
,  // measure 62
0010
0100
1000
0010
0200
0000
0301
0010
,  // measure 63
0200
0000
0000
0310
0000
0001
0100
0001
,  // measure 64
0010
0001
1000
0010
1000
0100
0010
0002
,  // measure 65
0000
0000
0103
0020
0000
0130
0002
0000
,  // measure 66
0000
0000
0000
0000
0010
0000
0000
0000
1003
0000
0000
0000
0220
0000
0000
0330
,  // measure 67
0002
0000
1003
0001
0100
0010
2000
0000
,  // measure 68
3001
0100
0001
0010
0100
0010
0002
0000
,  // measure 69
1003
0010
1000
0010
1000
0001
0010
0001
,  // measure 70
0100
0010
1000
0100
0010
0100
1000
0001
,  // measure 71
0100
0001
0010
0100
0010
0100
0000
1100
,  // measure 72
1000
0100
0010
0100
2000
3000
0020
0030
,  // measure 73
0100
0001
0100
0001
0100
0010
1000
0100
,  // measure 74
1000
0001
0100
0001
0010
0100
1000
0010
,  // measure 75
0100
0010
0100
0001
0010
0001
0100
0010
,  // measure 76
1000
0010
1000
0100
0010
0000
0011
0000
,  // measure 77
1000
0001
1000
0001
1000
0100
0010
0001
,  // measure 78
1000
0010
1000
0100
0010
0100
1000
0001
,  // measure 79
0100
0010
0100
0001
0010
0100
0010
0001
,  // measure 80
0100
0010
1000
0001
1001
0000
0110
0000
,  // measure 81
1000
0010
0100
0001
0100
0010
1000
0100
,  // measure 82
0010
0100
1000
0001
0100
0010
0100
0001
,  // measure 83
0010
0100
0010
0001
0100
0010
1000
0100
,  // measure 84
0010
0000
0100
0000
0010
0000
0001
0000
1000
0100
0010
0100
1000
0000
0001
0000
,  // measure 85
0200
0000
0310
1000
0100
0010
0001
0010
,  // measure 86
0100
1000
0010
0100
0002
0000
0000
0103
,  // measure 87
0002
0000
0013
0100
1000
0001
0100
0010
,  // measure 88
0100
0001
0010
0100
0020
0000
0032
1003
,  // measure 89
0200
0000
0310
0100
1000
0001
0100
0001
,  // measure 90
0100
0010
1000
0100
0010
0001
1000
0001
,  // measure 91
0010
0000
0010
0000
0100
0000
0100
0000
1000
0001
1000
0001
1000
0000
0MM1
0000
,  // measure 92
2000
3000
0020
M030
0200
0302
0003
0010
,  // measure 93
0000
0100
1000
0100
0020
0000
0000
0000
,  // measure 94
0000
0000
0000
0031
0000
0000
0000
0000
;
